Tags
Language
Tags

Simone Kermes, Andrea Marcon, Venice Baroque Orchestra - Amor sacro: Vivaldi Mottetti (2007)

Posted By: ArlegZ
Simone Kermes, Andrea Marcon, Venice Baroque Orchestra - Amor sacro: Vivaldi Mottetti (2007)

Simone Kermes, Andrea Marcon, Venice Baroque Orchestra - Amor sacro: Vivaldi Mottetti (2007)
EAC | FLAC | Image (Cue & Log) ~ 302 Mb | Total time: 67:06 | Scans included
Classical | Label: Archiv Produktion | # 477 5980 | Recorded: 2004

This knockout CD of Vivaldi motets is a thrilling ride. They are scored for soprano and strings and show the wonderful variety of effects Vivaldi had at his disposal (faster, more dramatic arias use the metaphor of a ship in storm-tossed seas, searching for calm winds and safety): in other words, the same stuff he uses in his operas. But here, because these motets are religious in nature, it is the soul in flux that is wishing for God, or a saint, to guide it. Vivaldi will use the lower strings to give the feeling of menacing weather while the singer navigates through outlandishly difficult coloratura (fast runs, octave leaps, high stacatto effects); conversely, each motet also contains a slow, introspective aria which requires a long, soft vocal line. Conductor Andrea Marcon leads the superb Venice Baroque Orchestra in energetic performances, with sharp attacks and dramatic tempi choices. And the remarkable soprano Simone Kermes, with her diamond-brilliant tone and technical virtuosity, makes each of these pieces a little opera, filled with drama, pathos and simply gorgeous singing, whether high, low, loud, or soft. This is an exciting, greatly entertaining disc.
–Robert Levine

Performer:
Simone Kermes, soprano
Venice Baroque Orchestra
Andrea Marcon, conductor

Track List:
In furore iustissimae irae, RV 626
01. Aria (Allegro): In furore iustissimae irae
02. Recitativo: Miserationum Pater piissime
03. Aria (Largo): Tunc meus fletus
04. Allegro: Alleluia
Nulla in mundo pax sincera, RV 630
05. Aria (Larghetto): Nulla in mundo pax sincera
06. Recitativo: Blando colore oculos mundus desepit
07. Aria (Allegro): Spirat anguis
08. Allegro: Alleluia
In turbato mare irato, RV 627
09. Aria (Allegro): In turbato mare irato
10. Recitativo: Splende serena, o lux amata
11. Aria (Larghetto): Resplende, bella
12. Allegro: Alleluia
Sum in medio tempestatum, RV 632
13. Aria (Allegro non molto): Sum in medio tempestatum
14. Recitativo: Quid ergo faciam, infelix anima?
15. Aria (Largo): Semper maesta, sconsolata
16. Allegro: Alleluia


Exact Audio Copy V1.6 from 23. October 2020

EAC extraction logfile from 31. July 2021, 13:18

Simone Kermes, Andrea Marcon, Venice Baroque Orchestra / Vivaldi - Mottetti 'Amor sacro'

Used drive : PIONEER DVD-RW DVR-218L Adapter: 1 ID: 0

Read mode : Secure
Utilize accurate stream : Yes
Defeat audio cache : Yes
Make use of C2 pointers : No

Read offset correction : 6
Overread into Lead-In and Lead-Out : No
Fill up missing offset samples with silence : Yes
Delete leading and trailing silent blocks : No
Null samples used in CRC calculations : Yes
Used interface : Native Win32 interface for Win NT & 2000

Used output format : User Defined Encoder
Selected bitrate : 128 kBit/s
Quality : High
Add ID3 tag : No
Command line compressor : C:\Program Files\Exact Audio Copy\Flac\flac.exe
Additional command line options : -V -8 -T "Date=%year%" -T "Genre=%genre%" %source%


TOC of the extracted CD

Track | Start | Length | Start sector | End sector
––––––––––––––––––––––––––––-
1 | 0:00.00 | 5:10.00 | 0 | 23249
2 | 5:10.00 | 0:59.00 | 23250 | 27674
3 | 6:09.00 | 7:42.00 | 27675 | 62324
4 | 13:51.00 | 1:36.00 | 62325 | 69524
5 | 15:27.00 | 7:25.00 | 69525 | 102899
6 | 22:52.00 | 1:14.00 | 102900 | 108449
7 | 24:06.00 | 3:10.00 | 108450 | 122699
8 | 27:16.00 | 2:03.00 | 122700 | 131924
9 | 29:19.00 | 6:49.00 | 131925 | 162599
10 | 36:08.00 | 0:56.00 | 162600 | 166799
11 | 37:04.00 | 7:44.00 | 166800 | 201599
12 | 44:48.00 | 2:16.00 | 201600 | 211799
13 | 47:04.00 | 7:37.00 | 211800 | 246074
14 | 54:41.00 | 1:02.00 | 246075 | 250724
15 | 55:43.00 | 8:21.00 | 250725 | 288299
16 | 64:04.00 | 3:02.00 | 288300 | 301949


Range status and errors

Selected range

Filename C:\ArlegZ\Vivaldi - Mottetti 'Amor sacro' - Simone Kermes.wav

Peak level 99.2 %
Extraction speed 2.0 X
Range quality 99.9 %
Test CRC 1AB0B8D9
Copy CRC 1AB0B8D9
Copy OK

No errors occurred


AccurateRip summary

Track 1 accurately ripped (confidence 40) [33818575] (AR v2)
Track 2 accurately ripped (confidence 40) [00E5FB5F] (AR v2)
Track 3 accurately ripped (confidence 40) [F2364379] (AR v2)
Track 4 accurately ripped (confidence 40) [EAEE09BF] (AR v2)
Track 5 accurately ripped (confidence 40) [564ED670] (AR v2)
Track 6 accurately ripped (confidence 40) [8FB476CA] (AR v2)
Track 7 accurately ripped (confidence 40) [4C32B5FD] (AR v2)
Track 8 accurately ripped (confidence 40) [534C44CB] (AR v2)
Track 9 accurately ripped (confidence 40) [7567913D] (AR v2)
Track 10 accurately ripped (confidence 39) [46C5B671] (AR v2)
Track 11 accurately ripped (confidence 39) [A3692E76] (AR v2)
Track 12 accurately ripped (confidence 40) [FC1B56A1] (AR v2)
Track 13 accurately ripped (confidence 40) [5E32985D] (AR v2)
Track 14 accurately ripped (confidence 40) [B65593C9] (AR v2)
Track 15 cannot be verified as accurate (confidence 39) [5D493733], AccurateRip returned [4F5780DF] (AR v2)
Track 16 accurately ripped (confidence 40) [F50ED608] (AR v2)

15 треки скопированы точно
1 треки не удалось проверить на точность

Some tracks could not be verified as accurate

End of status report

–– CUETools DB Plugin V2.1.6

[CTDB TOCID: IDAdikzlGH8s.f0u9ziOAcfNvaY-] found
Submit result: IDAdikzlGH8s.f0u9ziOAcfNvaY- has been submitted
Track | CTDB Status
1 | (71/73) Accurately ripped
2 | (73/73) Accurately ripped
3 | (72/73) Accurately ripped
4 | (73/73) Accurately ripped
5 | (73/73) Accurately ripped
6 | (73/73) Accurately ripped
7 | (73/73) Accurately ripped
8 | (73/73) Accurately ripped
9 | (73/73) Accurately ripped
10 | (73/73) Accurately ripped
11 | (73/73) Accurately ripped
12 | (71/73) Accurately ripped
13 | (72/73) Accurately ripped
14 | (73/73) Accurately ripped
15 | (66/73) Differs in 136 samples @08:07:55,08:08:00-08:08:01
16 | (73/73) Accurately ripped
If you are sure that your rip contains errors, you can use CUETools to repair it.


==== Log checksum 71852CD8F9F0E76BBBF45CB1626B0450A7F073C421614891F532EAE3AD704A0A ====

Simone Kermes, Andrea Marcon, Venice Baroque Orchestra - Amor sacro: Vivaldi Mottetti (2007)