Tags
Language
Tags

Sir Andrew Davis, BBC Philharmonic - Gustav Holst: Orchestral Works, Volume 2 (2011)

Posted By: ArlegZ
Sir Andrew Davis, BBC Philharmonic - Gustav Holst: Orchestral Works, Volume 2 (2011)

Sir Andrew Davis, BBC Philharmonic - Gustav Holst: Orchestral Works, Volume 2 (2011)
EAC | FLAC | Image (Cue & Log) ~ 259 Mb | Total time: 78:24 | Scans included
Classical | Label: Chandos | # CHAN 5086 | Recorded: 2010

That The Planets occupies a place at the heart of the English musical repertoire is indisputable, yet much of Holst’s orchestral output is unjustly neglected. Chandos’ series demonstrates that Holst was a composer whose inventiveness and originality was not limited to one work. The series was originally to be conducted by Richard Hickox who sadly passed away in 2009 after completing Volume 1, released to great critical acclaim. Gramophone stated that ‘Richard Hickox’s final project, reviving little-known Holst works, is a triumph’. In this second volume, exclusive Chandos artist Sir Andrew Davis has taken the baton, conducting the BBC Philharmonic in a unique programme: The Planets, Holst’s orchestral tour de force, as well as two comparative rarities in the concert hall, the Japanese Suite and Beni Mora.
Holst wrote all three works between 1909 and 1916, years which span the most important developments in his composing life as he moved away from the Wagner-influenced works of his youth. He had already begun to absorb English folk music, largely through the influences of his close friend Vaughan Williams, and that, together with his study of Sanskrit literature, led him to experiment with new and unique fusions in his music.
The Japanese Suite was originally intended for dancing, and composed at the request of a Japanese dancer, Michio Ito, who supplied Holst with most of the themes in a somewhat unorthodox manner – by whistling them to him. Although the music may seem as characteristic of Holst himself as of anything readily identifiable as Japanese, this work clearly demonstrates a refreshing openness to new influences, which few of his contemporaries shared.
Beni Mora is inspired by ethnic music that Holst heard on a trip to Algeria. Its orientalism may seem very westernised to those familiar with the original music, but it reflects his own experiences of the place – ‘a mix of East and West where one moment he saw an Arab woman leaving a mosque and another moment he saw an advertisement for American Cinematography’. The work was premiered in London in 1912, to the distaste of one critic who exclaimed, ‘We didn’t ask for Biskra girls’. Vaughan Williams later wrote that if the piece had been played in Paris instead of London, Holst would have gained fame a good ten years before The Planets made him a household name. One of the more remarkable musical points about the piece is found in the third movement, which is based on a motif played by a bamboo flutist whom Holst heard on the streets in Algeria. The flutist played the same four notes for hours. This experience is vividly recalled in the movement, yet the mastery of Holst's harmonic texture prevents the motif from becoming tiresome. Beni Mora is regarded as Holst’s first mature orchestral piece.
The immense popularity of The Planets, and the familiarity of the music, means that its originality is often overlooked. But while it is possible to point to a number of contemporary works which clearly had an influence on Holst (Debussy’s Nocturnes, Stravinsky’s The Firebird etc.), the sheer inventiveness and diversity of the music are entirely his own, as he takes us on an unforgettable journey from the violence of ‘Mars’, through the serene calm of ‘Venus’ and the remote and otherworldly ‘Neptune’.

Performer:
Manchester Chamber Choir
BBC Philharmonic
Sir Andrew Davis, conductor

Track List:
Beni Mora, Op. 29 No. 1, H 107 (1909-10)
01. First Dance: Adagio - Vivace
02. Second Dance: Allegretto
03. Finale. In the street of the Ouled Naïls: Adagio - Allegro moderato
Japanese Suite, Op. 33, H 126 (1915)
04. Prelude: Song of the Fisherman
05. Ceremonial Dance
06. Dance of the Marionette
07. Interlude: Song of the Fisherman
08. Dance under the Cherry Tree
09. Finale: Dance of the Wolves
The Planets, Op. 32, H 125 (1914-16)
10. Mars, the Bringer of War
11. Venus, the Bringer of Peace
12. Mercury, the Winged Messenger
13. Jupiter, the Bringer of Jollity
14. Saturn, the Bringer of Old Age
15. Uranus, the Magician
16. Neptune, the Mystic


Exact Audio Copy V1.3 from 2. September 2016

EAC extraction logfile from 11. July 2019, 19:59

Andrew Davis, BBC Philharmonic Orchestra / Holst - Orchestral Works, Vol.2

Used drive : HL-DT-STDVDRAM GH24NS95 Adapter: 1 ID: 0

Read mode : Secure
Utilize accurate stream : Yes
Defeat audio cache : Yes
Make use of C2 pointers : No

Read offset correction : 6
Overread into Lead-In and Lead-Out : No
Fill up missing offset samples with silence : Yes
Delete leading and trailing silent blocks : No
Null samples used in CRC calculations : Yes
Used interface : Native Win32 interface for Win NT & 2000

Used output format : User Defined Encoder
Selected bitrate : 128 kBit/s
Quality : High
Add ID3 tag : No
Command line compressor : C:\Program Files\Exact Audio Copy\FLAC\FLAC.EXE
Additional command line options : -V -8 -T "Date=%year%" -T "Genre=%genre%" %source%


TOC of the extracted CD

Track | Start | Length | Start sector | End sector
––––––––––––––––––––––––––––-
1 | 0:00.00 | 6:08.63 | 0 | 27662
2 | 6:08.63 | 3:54.10 | 27663 | 45222
3 | 10:02.73 | 6:56.40 | 45223 | 76462
4 | 16:59.38 | 2:38.00 | 76463 | 88312
5 | 19:37.38 | 1:53.15 | 88313 | 96802
6 | 21:30.53 | 1:46.54 | 96803 | 104806
7 | 23:17.32 | 0:43.61 | 104807 | 108092
8 | 24:01.18 | 2:47.00 | 108093 | 120617
9 | 26:48.18 | 1:53.35 | 120618 | 129127
10 | 28:41.53 | 7:14.45 | 129128 | 161722
11 | 35:56.23 | 8:04.25 | 161723 | 198047
12 | 44:00.48 | 3:59.25 | 198048 | 215997
13 | 47:59.73 | 8:28.50 | 215998 | 254147
14 | 56:28.48 | 8:24.00 | 254148 | 291947
15 | 64:52.48 | 6:05.00 | 291948 | 319322
16 | 70:57.48 | 7:25.27 | 319323 | 352724


Range status and errors

Selected range

Filename C:\Program Files\Exact Audio Copy\Flac\Holst - Orchestral Works, Vol.2.wav

Peak level 99.1 %
Extraction speed 8.5 X
Range quality 100.0 %
Test CRC 645539AB
Copy CRC 645539AB
Copy OK

No errors occurred

End of status report

==== Log checksum 1B3DC45677A9CBAC68B6E205111BF230F22BE3CF5CB1BAC6562860BA598C2841 ====

Sir Andrew Davis, BBC Philharmonic - Gustav Holst: Orchestral Works, Volume 2 (2011)

Thanks to the original releaser