Subcategories

Soft Machine Legacy - Live At The New Morning (2006) (Repost)

Posted By: gribovar
Soft Machine Legacy - Live At The New Morning (2006) (Repost)

Soft Machine Legacy - Live At The New Morning (2006)
EAC Rip | WavPack (image+.cue+log) - 564 MB | MP3 CBR 320 kbps (LAME 3.93) - 218 MB | Covers - 61 MB
Genre: Progressive/Jazz Rock, Canterbury Scene | RAR 3% Rec. | Label: Inakustik (INAK 9076 2CD)

Soft Machine Legacy is made up of former Soft Machine members and the lineup here boasts Hugh Hopper, Elton Dean, John Marshall and John Etheridge. Sadly it was less than 2 months after this concert that Elton Dean passed away, and so it's stated in the liner notes that this album is in memory and a tribute to this legendary performer. The concert here was performed at a club in Paris called "New Morning" and this is a club famous for it's Jazz concerts and also a favourite place for Elton and Hugh to play at.

CD 1 Tracklist:
01. Ash
02. Seven For Lee
03. 1212
04. Baker's Treat

Total time: 43:10

CD 2 Tracklist:
01. Has Riff
02. Kings & Queens
03. Sideburn
04. Two Down
05. Kite Runner
06. Strange Comforts

Total time: 49:32

Exact Audio Copy V1.0 beta 3 from 29. August 2011

EAC extraction logfile from 3. August 2012, 5:53

Soft Machine / Legacy Live at The New Morning (CD1)

Used drive : HL-DT-STBDDVDRW GBC-H20N Adapter: 1 ID: 0

Read mode : Secure
Utilize accurate stream : Yes
Defeat audio cache : Yes
Make use of C2 pointers : No

Read offset correction : 667
Overread into Lead-In and Lead-Out : No
Fill up missing offset samples with silence : Yes
Delete leading and trailing silent blocks : No
Null samples used in CRC calculations : Yes
Used interface : Native Win32 interface for Win NT & 2000

Used output format : User Defined Encoder
Selected bitrate : 1024 kBit/s
Quality : High
Add ID3 tag : No
Command line compressor : C:\Program Files\Exact Audio Copy\wavpack.exe
Additional command line options : -hm %source% %dest%


TOC of the extracted CD

Track | Start | Length | Start sector | End sector
––––––––––––––––––––––––––––-
1 | 0:00.00 | 14:49.39 | 0 | 66713
2 | 14:49.39 | 10:13.34 | 66714 | 112722
3 | 25:02.73 | 10:54.52 | 112723 | 161824
4 | 35:57.50 | 7:12.55 | 161825 | 194279


Range status and errors

Selected range

Filename I:\Music\Canterbury scene\Soft Machine\Soft.Machine-Discography.1968-2010.FLAC.CUE.Lossless\3 - Soft Works - Soft Machine Legacy\4 - Soft Machine Legacy - Live At The New Morning\CD 1\Soft Machine - Legacy Live at The New Morning (CD1).wav

Peak level 100.0 %
Extraction speed 1.2 X
Range quality 100.0 %
Test CRC 5B6094BC
Copy CRC 5B6094BC
Copy OK

No errors occurred


AccurateRip summary

Track 1 accurately ripped (confidence 6) [3E237FB2] (AR v1)
Track 2 accurately ripped (confidence 6) [66BF3E5A] (AR v1)
Track 3 accurately ripped (confidence 6) [B9F148FA] (AR v1)
Track 4 accurately ripped (confidence 6) [92120157] (AR v1)

All tracks accurately ripped

End of status report

–– CUETools DB Plugin V2.1.3

[CTDB TOCID: 36_wkEqsmv0jpCX.TxxY7eVaOfY-] found, Submit result: 36_wkEqsmv0jpCX.TxxY7eVaOfY- has been confirmed
[59ac7fd3] (5/5) Accurately ripped


==== Log checksum 0DDAAD2B95862BEB089A010949F3A4ADE961499BAF5EC970195A6D34FE19B7A8 ====

[CUETools log; Date: 24.07.2019 16:01:43; Version: 2.1.4]
[CTDB TOCID: 36_wkEqsmv0jpCX.TxxY7eVaOfY-] found.
Track | CTDB Status
1 | (26/26) Accurately ripped
2 | (26/26) Accurately ripped
3 | (26/26) Accurately ripped
4 | (26/26) Accurately ripped
[AccurateRip ID: 00082bf6-001fe53a-2f0a1e04] found.
Track [ CRC | V2 ] Status
01 [3e237fb2|6aab2fb0] (06+11/17) Accurately ripped
02 [66bf3e5a|78361b3b] (06+11/17) Accurately ripped
03 [b9f148fa|e17888c2] (06+11/17) Accurately ripped
04 [92120157|72768804] (06+10/16) Accurately ripped

Track Peak [ CRC32 ] [W/O NULL] [ LOG ]
– 100,0 [5B6094BC] [397828B0] CRC32
01 100,0 [5C8B5C76] [DCF7FDC7]
02 100,0 [ECCD3F27] [D21698B3]
03 100,0 [3500D561] [5197FC99]
04 100,0 [8ADFF500] [FBF8F33D]

Exact Audio Copy V1.0 beta 3 from 29. August 2011

EAC extraction logfile from 3. August 2012, 6:13

Soft Machine / Legacy Live at The New Morning (CD2)

Used drive : HL-DT-STBDDVDRW GBC-H20N Adapter: 1 ID: 0

Read mode : Secure
Utilize accurate stream : Yes
Defeat audio cache : Yes
Make use of C2 pointers : No

Read offset correction : 667
Overread into Lead-In and Lead-Out : No
Fill up missing offset samples with silence : Yes
Delete leading and trailing silent blocks : No
Null samples used in CRC calculations : Yes
Used interface : Native Win32 interface for Win NT & 2000

Used output format : User Defined Encoder
Selected bitrate : 1024 kBit/s
Quality : High
Add ID3 tag : No
Command line compressor : C:\Program Files\Exact Audio Copy\wavpack.exe
Additional command line options : -hm %source% %dest%


TOC of the extracted CD

Track | Start | Length | Start sector | End sector
––––––––––––––––––––––––––––-
1 | 0:00.00 | 14:45.42 | 0 | 66416
2 | 14:45.42 | 9:42.54 | 66417 | 110120
3 | 24:28.21 | 4:42.74 | 110121 | 131344
4 | 29:11.20 | 2:17.58 | 131345 | 141677
5 | 31:29.03 | 10:39.61 | 141678 | 189663
6 | 42:08.64 | 7:23.05 | 189664 | 222893


Range status and errors

Selected range

Filename I:\Music\Canterbury scene\Soft Machine\Soft.Machine-Discography.1968-2010.FLAC.CUE.Lossless\3 - Soft Works - Soft Machine Legacy\4 - Soft Machine Legacy - Live At The New Morning\CD 2\Soft Machine - Legacy Live at The New Morning (CD2).wav

Peak level 100.0 %
Extraction speed 6.0 X
Range quality 100.0 %
Test CRC C287714F
Copy CRC C287714F
Copy OK

No errors occurred


AccurateRip summary

Track 1 accurately ripped (confidence 7) [1BC3579E] (AR v1)
Track 2 accurately ripped (confidence 7) [DBCFE503] (AR v1)
Track 3 accurately ripped (confidence 7) [6CBBBE1E] (AR v1)
Track 4 accurately ripped (confidence 7) [C2A9124E] (AR v1)
Track 5 accurately ripped (confidence 7) [253B61D2] (AR v1)
Track 6 accurately ripped (confidence 7) [3B7C5D0E] (AR v1)

All tracks accurately ripped

End of status report

–– CUETools DB Plugin V2.1.3

[CTDB TOCID: z81SwfYZDNtF.FvlCi2inTzUdaQ-] found, Submit result: z81SwfYZDNtF.FvlCi2inTzUdaQ- has been confirmed
[c5a88b36] (5/5) Accurately ripped


==== Log checksum 9D6CA48E584FF4F2A4D4FAA51663BF0A73C1C717E63452F4702FEDD52853945F ====

[CUETools log; Date: 24.07.2019 16:02:33; Version: 2.1.4]
[CTDB TOCID: z81SwfYZDNtF.FvlCi2inTzUdaQ-] found.
Track | CTDB Status
1 | (26/26) Accurately ripped
2 | (26/26) Accurately ripped
3 | (26/26) Accurately ripped
4 | (26/26) Accurately ripped
5 | (26/26) Accurately ripped
6 | (26/26) Accurately ripped
[AccurateRip ID: 000d27a7-004310ca-520b9b06] found.
Track [ CRC | V2 ] Status
01 [1bc3579e|1c5f3fc7] (07+12/19) Accurately ripped
02 [dbcfe503|9d67e10b] (07+12/19) Accurately ripped
03 [6cbbbe1e|456e2a79] (07+12/19) Accurately ripped
04 [c2a9124e|5491979d] (07+12/19) Accurately ripped
05 [253b61d2|426751ba] (07+12/19) Accurately ripped
06 [3b7c5d0e|59127b59] (07+12/19) Accurately ripped

Track Peak [ CRC32 ] [W/O NULL] [ LOG ]
– 100,0 [C287714F] [54F76BCE] CRC32
01 100,0 [164A34BB] [259B0E55]
02 98,8 [1E02E3FF] [E9568B10]
03 100,0 [75B93E2D] [934B39D3]
04 100,0 [35776B7D] [02443D83]
05 100,0 [0F0B0F55] [72B3CEB1]
06 85,3 [08E7CE81] [C4F1193D]

Thanks to arizonadream

See also: