Subcategories

Soft Machine - Six (1973) [Japanese Edition 1992]

Posted By: gribovar
Soft Machine - Six (1973) [Japanese Edition 1992]

Soft Machine - Six (1973) [Japanese Edition 1992]
EAC Rip | FLAC (tracks+.cue+log) - 417 MB | MP3 CBR 320 kbps (LAME 3.93) - 180 MB | Covers - 62 MB
Genre: Progressive Rock/Canterbury Scene, Jazz Rock | RAR 3% Rec. | Label: Epic/Sony Records (ESCA 5536)

The Soft Machine were many things to many people, but to most, the real Soft Machine ceased to exist when founder Robert Wyatt left to work on his conspicuously titled Matching Mole project. This departure is generally credited to the Soft Machine's creative advance away from prog rock and toward jazz fusion. Three years and three records after Wyatt's departure, this creative motion was in full sail, and the release of Six cemented the band in their distant station beyond the gravity of anything that resembled rock and its spacious, cutting-edge sonics and more symmetrical rhythms. The jazz era that began on Fourth and continued through the '70s mutates slightly on Six, from the free improvisational structures used frequently on prior releases into a somewhat more constrained fusion design. This is due largely to new member Karl Jenkins, who makes a mighty impact on the Soft Machine's sound with his sax playing and songwriting - and who later took creative control over the group, bringing in several guitarists to solidify a fusion sound. Half live and half studio album, Six will never interest classic-era stalwarts, but Jenkins and drummer John Marshall lead old-timers Mike Ratledge and Hugh Hopper through some nifty fusion exercises that fans of the genre (and obscure '70s music of every kind) might find very enjoyable.

Tracklist:
01. Fanfare
02. All White
03. Between
04. Riff
05. 37 1/2
06. Gesolreut
07. E.P.V.
08. Lefty
09. Stumble
10. 5 From 13 (For Phil Seamen With Love & Thanks)
11. Riff 11
12. The Soft Weed Factor
13. Stanley Stamps Gibbon Album (For B.O.)
14. Chloe And The Pirates
15. 1983

Total time: 01:16:41

Exact Audio Copy V1.0 beta 3 from 29. August 2011

EAC extraction logfile from 4. March 2014, 1:23

Soft Machine / Six [1992, ESCA 5536]

Used drive : ASUS DRW-22B3S Adapter: 0 ID: 0

Read mode : Secure
Utilize accurate stream : Yes
Defeat audio cache : Yes
Make use of C2 pointers : No

Read offset correction : 6
Overread into Lead-In and Lead-Out : No
Fill up missing offset samples with silence : Yes
Delete leading and trailing silent blocks : No
Null samples used in CRC calculations : Yes
Used interface : Installed external ASPI interface
Gap handling : Appended to previous track

Used output format : User Defined Encoder
Selected bitrate : 768 kBit/s
Quality : High
Add ID3 tag : No
Command line compressor : C:\Program Files\Exact Audio Copy\FLAC\FLAC.EXE
Additional command line options : -V -8 -T "Genre=%genre%" -T "Artist=%artist%" -T "Title=%title%" -T "Album=%albumtitle%" -T "Date=%year%" -T "Tracknumber=%tracknr%" -T "Comment=%comment%" %source%


TOC of the extracted CD

Track | Start | Length | Start sector | End sector
––––––––––––––––––––––––––––-
1 | 0:00.00 | 0:42.42 | 0 | 3191
2 | 0:42.42 | 4:46.38 | 3192 | 24679
3 | 5:29.05 | 2:33.37 | 24680 | 36191
4 | 8:02.42 | 4:28.55 | 36192 | 56346
5 | 12:31.22 | 6:55.20 | 56347 | 87491
6 | 19:26.42 | 6:13.73 | 87492 | 115539
7 | 25:40.40 | 2:50.67 | 115540 | 128356
8 | 28:31.32 | 5:02.13 | 128357 | 151019
9 | 33:33.45 | 1:36.67 | 151020 | 158286
10 | 35:10.37 | 5:15.20 | 158287 | 181931
11 | 40:25.57 | 1:29.43 | 181932 | 188649
12 | 41:55.25 | 11:16.47 | 188650 | 239396
13 | 53:11.72 | 5:58.30 | 239397 | 266276
14 | 59:10.27 | 9:33.55 | 266277 | 309306
15 | 68:44.07 | 7:56.68 | 309307 | 345074


Track 1

Filename H:\gym1974\Soft Machine\1973 - Six [1992, ESCA 5536]\01. Fanfare.wav

Pre-gap length 0:00:02.00

Peak level 72.1 %
Extraction speed 1.2 X
Track quality 100.0 %
Test CRC C8324251
Copy CRC C8324251
Accurately ripped (confidence 3) [DF52C453] (AR v2)
Copy OK

Track 2

Filename H:\gym1974\Soft Machine\1973 - Six [1992, ESCA 5536]\02. All White.wav

Peak level 94.9 %
Extraction speed 1.6 X
Track quality 99.9 %
Test CRC 3AEBC634
Copy CRC 3AEBC634
Accurately ripped (confidence 3) [C8C7B0CF] (AR v2)
Copy OK

Track 3

Filename H:\gym1974\Soft Machine\1973 - Six [1992, ESCA 5536]\03. Between.wav

Peak level 44.1 %
Extraction speed 2.1 X
Track quality 100.0 %
Test CRC CDB135AB
Copy CRC CDB135AB
Accurately ripped (confidence 3) [66FBB3E8] (AR v2)
Copy OK

Track 4

Filename H:\gym1974\Soft Machine\1973 - Six [1992, ESCA 5536]\04. Riff.wav

Peak level 77.4 %
Extraction speed 2.5 X
Track quality 100.0 %
Test CRC 0925F5A4
Copy CRC 0925F5A4
Accurately ripped (confidence 3) [4660D060] (AR v2)
Copy OK

Track 5

Filename H:\gym1974\Soft Machine\1973 - Six [1992, ESCA 5536]\05. 37½.wav

Peak level 87.6 %
Extraction speed 2.8 X
Track quality 100.0 %
Test CRC 803AEE4C
Copy CRC 803AEE4C
Accurately ripped (confidence 3) [8B7AB883] (AR v2)
Copy OK

Track 6

Filename H:\gym1974\Soft Machine\1973 - Six [1992, ESCA 5536]\06. Gesolreut.wav

Pre-gap length 0:00:02.17

Peak level 83.9 %
Extraction speed 3.0 X
Track quality 100.0 %
Test CRC 1B10EDD8
Copy CRC 1B10EDD8
Accurately ripped (confidence 3) [E6DD60E8] (AR v2)
Copy OK

Track 7

Filename H:\gym1974\Soft Machine\1973 - Six [1992, ESCA 5536]\07. E.P.V..wav

Peak level 61.3 %
Extraction speed 2.9 X
Track quality 100.0 %
Test CRC 44AF9E2D
Copy CRC 44AF9E2D
Accurately ripped (confidence 3) [59CA92C6] (AR v2)
Copy OK

Track 8

Filename H:\gym1974\Soft Machine\1973 - Six [1992, ESCA 5536]\08. Lefty.wav

Peak level 100.0 %
Extraction speed 3.3 X
Track quality 100.0 %
Test CRC A7D34887
Copy CRC A7D34887
Accurately ripped (confidence 3) [9AD190BD] (AR v2)
Copy OK

Track 9

Filename H:\gym1974\Soft Machine\1973 - Six [1992, ESCA 5536]\09. Stumble.wav

Peak level 90.1 %
Extraction speed 2.7 X
Track quality 100.0 %
Test CRC 8E02BDBF
Copy CRC 8E02BDBF
Accurately ripped (confidence 3) [3B457973] (AR v2)
Copy OK

Track 10

Filename H:\gym1974\Soft Machine\1973 - Six [1992, ESCA 5536]\10. 5 from 13 (For Phil Seamen With Love & Thanks).wav

Peak level 100.0 %
Extraction speed 3.5 X
Track quality 100.0 %
Test CRC 1A252E11
Copy CRC 1A252E11
Accurately ripped (confidence 3) [7BFB6881] (AR v2)
Copy OK

Track 11

Filename H:\gym1974\Soft Machine\1973 - Six [1992, ESCA 5536]\11. Riff II.wav

Peak level 82.3 %
Extraction speed 2.8 X
Track quality 100.0 %
Test CRC 609A1587
Copy CRC 609A1587
Accurately ripped (confidence 3) [C4C5D162] (AR v2)
Copy OK

Track 12

Filename H:\gym1974\Soft Machine\1973 - Six [1992, ESCA 5536]\12. The Soft Weed Factor.wav

Pre-gap length 0:00:01.63

Peak level 98.3 %
Extraction speed 3.6 X
Track quality 99.9 %
Test CRC 7A6FE38E
Copy CRC 7A6FE38E
Accurately ripped (confidence 3) [24E9292C] (AR v2)
Copy OK

Track 13

Filename H:\gym1974\Soft Machine\1973 - Six [1992, ESCA 5536]\13. Stanley Stamps Gibbon Album (For B.O.).wav

Peak level 100.0 %
Extraction speed 4.1 X
Track quality 100.0 %
Test CRC FACB6CF8
Copy CRC FACB6CF8
Accurately ripped (confidence 3) [B70C8FF8] (AR v2)
Copy OK

Track 14

Filename H:\gym1974\Soft Machine\1973 - Six [1992, ESCA 5536]\14. Chloe and the Pirates.wav

Peak level 85.1 %
Extraction speed 4.5 X
Track quality 100.0 %
Test CRC A1BD0ED0
Copy CRC A1BD0ED0
Accurately ripped (confidence 3) [5CBD3357] (AR v2)
Copy OK

Track 15

Filename H:\gym1974\Soft Machine\1973 - Six [1992, ESCA 5536]\15. 1983.wav

Pre-gap length 0:00:03.07

Peak level 100.0 %
Extraction speed 4.7 X
Track quality 100.0 %
Test CRC 3BF96CE5
Copy CRC 3BF96CE5
Accurately ripped (confidence 3) [01F38432] (AR v2)
Copy OK


All tracks accurately ripped

No errors occurred

End of status report

==== Log checksum 7CCDEFF0560B63091727C4A84AD34D70AA4FB6CF912A4EE4779FCC25A9CF8CF3 ====

[CUETools log; Date: 26.12.2018 12:45:16; Version: 2.1.4]
[CTDB TOCID: 1AxDOSO6pTbvHe_ivt22h03X4hg-] found.
Track | CTDB Status
1 | (15/15) Accurately ripped
2 | (15/15) Accurately ripped
3 | (15/15) Accurately ripped
4 | (15/15) Accurately ripped
5 | (15/15) Accurately ripped
6 | (15/15) Accurately ripped
7 | (15/15) Accurately ripped
8 | (15/15) Accurately ripped
9 | (15/15) Accurately ripped
10 | (15/15) Accurately ripped
11 | (15/15) Accurately ripped
12 | (15/15) Accurately ripped
13 | (15/15) Accurately ripped
14 | (15/15) Accurately ripped
15 | (15/15) Accurately ripped
[AccurateRip ID: 0022f821-019d2386-b011f90f] found.
Track [ CRC | V2 ] Status
01 [41185c2d|df52c453] (3+6/9) Accurately ripped
02 [da9d6daf|c8c7b0cf] (3+6/9) Accurately ripped
03 [e0a22b63|66fbb3e8] (3+6/9) Accurately ripped
04 [560b4f9e|4660d060] (3+6/9) Accurately ripped
05 [e2853778|8b7ab883] (3+6/9) Accurately ripped
06 [086e9447|e6dd60e8] (3+6/9) Accurately ripped
07 [8e3bc748|59ca92c6] (3+6/9) Accurately ripped
08 [3d1a8a68|9ad190bd] (3+6/9) Accurately ripped
09 [1311c22c|3b457973] (3+6/9) Accurately ripped
10 [234d8d7f|7bfb6881] (3+6/9) Accurately ripped
11 [55ae26e7|c4c5d162] (3+6/9) Accurately ripped
12 [183db5fd|24e9292c] (3+6/9) Accurately ripped
13 [5300ada3|b70c8ff8] (3+6/9) Accurately ripped
14 [4737c2c5|5cbd3357] (3+6/9) Accurately ripped
15 [37c5048a|01f38432] (3+6/9) Accurately ripped

Track Peak [ CRC32 ] [W/O NULL] [ LOG ]
– 100,0 [D5D1C403] [35554AF5]
01 72,1 [C8324251] [80A95705] CRC32
02 94,9 [3AEBC634] [D8700DCC] CRC32
03 44,1 [CDB135AB] [E83DAD13] CRC32
04 77,4 [0925F5A4] [94178210] CRC32
05 87,6 [803AEE4C] [FBA1ABBF] CRC32
06 83,9 [1B10EDD8] [B06B00C8] CRC32
07 61,3 [44AF9E2D] [04F22873] CRC32
08 100,0 [A7D34887] [7E8301D6] CRC32
09 90,1 [8E02BDBF] [E8058565] CRC32
10 100,0 [1A252E11] [7191B7AD] CRC32
11 82,3 [609A1587] [B31A084E] CRC32
12 98,3 [7A6FE38E] [441A6CAB] CRC32
13 100,0 [FACB6CF8] [FAA94487] CRC32
14 85,1 [A1BD0ED0] [F594FC2E] CRC32
15 100,0 [3BF96CE5] [6A611F1C] CRC32

Thanks to g.y.m.

See also:
Soft Machine - Third (1970) [Japanese Edition 1992]
Soft Machine - Fourth (1971) [Japanese Edition 1991]
Soft Machine - Fifth (1972) [Japanese Edition 1991]
Soft Machine - 11 Live Albums (1988-2006)