Subcategories

Soft Works - Abracadabra (2003)

Posted By: gribovar
Soft Works - Abracadabra (2003)

Soft Works - Abracadabra (2003)
EAC Rip | FLAC (image+.cue+log) - 366 MB | MP3 CBR 320 kbps (LAME 3.93) - 142 MB | Covers - 59 MB
Genre: Progressive/Jazz Rock | RAR 3% Rec. | Label: Tone Center (TC-4029 2)

Soft Works is a supergroup consisting exclusively of ex-members of Soft Machine. Indeed, a remarkable line-up! British jazz-rock pioneers Elton Dean, Allan Holdsworth, Hugh Hopper and John Marshall deliver their most impressive performances to date. The collective and individual talents of these legendary players blend to create a heady mix of fusion, progressive rock, and jazz. They have reunited on this trippy recording that is among the most easily explored jazz adventures of this year.
"Abracadabra" is a fine recording of fusion jazz which please followers of any or all of the contributing players, and attract new listeners as well. The album comes highly recommended only to those whose passions for music are exclusively on the jazzy side of Jazz-Fusion. It is a testament to the fact that the best players do not sit still; they evolve, and Soft Works is a group that is all about growth.

Tracklist:
01. Seven Formerly
02. First Trane
03. Elsewhere
04. K Licks
05. Bakers Treat
06. Willie's Knee
07. Abracadabra
08. Madame Vintage

Total time: 01:00:15

Exact Audio Copy V1.0 beta 3 from 29. August 2011

EAC extraction logfile from 2. August 2012, 19:41

Soft Works / Abracadabra

Used drive : HL-DT-STBDDVDRW GBC-H20N Adapter: 1 ID: 0

Read mode : Secure
Utilize accurate stream : Yes
Defeat audio cache : Yes
Make use of C2 pointers : No

Read offset correction : 667
Overread into Lead-In and Lead-Out : No
Fill up missing offset samples with silence : Yes
Delete leading and trailing silent blocks : No
Null samples used in CRC calculations : Yes
Used interface : Native Win32 interface for Win NT & 2000

Used output format : User Defined Encoder
Selected bitrate : 1024 kBit/s
Quality : High
Add ID3 tag : No
Command line compressor : C:\Program Files\Exact Audio Copy\wavpack.exe
Additional command line options : -hm %source% %dest%


TOC of the extracted CD

Track | Start | Length | Start sector | End sector
––––––––––––––––––––––––––––-
1 | 0:00.00 | 10:21.30 | 0 | 46604
2 | 10:21.30 | 11:35.33 | 46605 | 98762
3 | 21:56.63 | 8:01.23 | 98763 | 134860
4 | 29:58.11 | 6:50.32 | 134861 | 165642
5 | 36:48.43 | 5:40.28 | 165643 | 191170
6 | 42:28.71 | 5:16.47 | 191171 | 214917
7 | 47:45.43 | 7:34.64 | 214918 | 249031
8 | 55:20.32 | 4:55.04 | 249032 | 271160


Range status and errors

Selected range

Filename I:\Music\Canterbury scene\Soft Machine\Soft.Machine-Discography.1968-2010.FLAC.CUE.Lossless\3 - Soft Works - Soft Machine Legacy\1 - Soft Works - Abracadabra\Soft Works - Abracadabra.wav

Peak level 98.8 %
Extraction speed 6.3 X
Range quality 99.9 %
Test CRC DB0F2EE1
Copy CRC DB0F2EE1
Copy OK

No errors occurred


AccurateRip summary

Track 1 not present in database
Track 2 not present in database
Track 3 not present in database
Track 4 not present in database
Track 5 not present in database
Track 6 not present in database
Track 7 not present in database
Track 8 not present in database

None of the tracks are present in the AccurateRip database

End of status report

–– CUETools DB Plugin V2.1.3

[CTDB TOCID: tlbZSSAKxBoNwa4IVL_HbWwD9x0-] found, Submit result: tlbZSSAKxBoNwa4IVL_HbWwD9x0- has been confirmed
[38c2dfa3] (1/1) Accurately ripped


==== Log checksum DF5A77BDEC28E6533ABA9EFD29AF1899EAA8EB764E25BEAF342D31276709F0D3 ====

[CUETools log; Date: 30.08.2019 13:35:32; Version: 2.1.4]
[CTDB TOCID: tlbZSSAKxBoNwa4IVL_HbWwD9x0-] found.
Track | CTDB Status
1 | (21/21) Accurately ripped
2 | (21/21) Accurately ripped
3 | (21/21) Accurately ripped
4 | (21/21) Accurately ripped
5 | (21/21) Accurately ripped
6 | (21/21) Accurately ripped
7 | (19/21) Accurately ripped
8 | (21/21) Accurately ripped
[AccurateRip ID: 0014effa-0086e864-550e1f08] found.
Track [ CRC | V2 ] Status
01 [f13cdb18|d09202a6] (06+05/22) Accurately ripped
02 [d4f54e8a|ebbc71c0] (06+05/22) Accurately ripped
03 [adf0fa4c|e395d6c9] (06+05/22) Accurately ripped
04 [8c393ff7|b7813566] (06+05/20) Accurately ripped
05 [3e9558b3|55e7332d] (06+05/20) Accurately ripped
06 [393228d5|d354589d] (06+05/20) Accurately ripped
07 [1d167e43|c21b4042] (06+05/20) Accurately ripped
08 [63dbc5f8|dac08dbb] (06+05/22) Accurately ripped
Offsetted by 6:
01 [4e808035] (00/22) No match (V2 was not tested)
02 [b1fd9b29] (00/22) No match (V2 was not tested)
03 [6fc1d9f6] (00/22) No match (V2 was not tested)
04 [e0efae9a] (00/20) No match (V2 was not tested)
05 [ae714c5f] (00/20) No match (V2 was not tested)
06 [2be2c58b] (00/20) No match (V2 was not tested)
07 [ae8c6fe3] (00/20) No match (V2 was not tested)
08 [1fb9ad64] (00/22) No match (V2 was not tested)
Offsetted by 664:
01 [39d41a0c] (02/22) Accurately ripped
02 [afac0ec2] (02/22) Accurately ripped
03 [91ccc091] (02/22) Accurately ripped
04 [62e49d92] (00/20) No match (V2 was not tested)
05 [ef000463] (00/20) No match (V2 was not tested)
06 [22e0922d] (00/20) No match (V2 was not tested)
07 [5675cf32] (00/20) No match (V2 was not tested)
08 [58608f79] (02/22) Accurately ripped

Track Peak [ CRC32 ] [W/O NULL] [ LOG ]
– 98,8 [DB0F2EE1] [8EA1A6C5] CRC32
01 98,8 [D2DE2337] [6D9F2753]
02 98,8 [33937868] [8EAF450B]
03 98,8 [9F4465D9] [7CF08468]
04 98,8 [57310B58] [87BFAF22]
05 98,4 [89C235E1] [3AB44049]
06 98,8 [06A20F44] [B1C1D72C]
07 98,8 [C38A0430] [5553A7A2]
08 98,8 [CE5CFB7B] [F6056149]

Thanks to arizonadream

See also: