Subcategories

Sonny Rollins - Modern Jazz Archive [Recorded 1951-1954] (2004)

Posted By: gribovar
Sonny Rollins - Modern Jazz Archive [Recorded 1951-1954] (2004)

Sonny Rollins - Modern Jazz Archive [Recorded 1951-1954] (2004)
EAC Rip | FLAC (image+.cue+log) - 689 MB | MP3 CBR 320 kbps (LAME 3.93) - 294 MB | Covers - 21 MB
Genre: Jazz | RAR 3% Rec. | Label: Membran Music (221955-306)

Sonny Rollins will go down in history as not only the single most enduring tenor saxophonist of the bebop and hard bop eras, but also as one of the greatest jazz saxophonists of all time. His fluid and harmonically innovative ideas, effortless manner, and easily identifiable and accessible sound have influenced generations of players. In addition, these skills have fueled the notion that mainstream jazz can be widely enjoyed, recognized, and proliferated. Rollins served early apprenticeships with Babs Gonzalez, J.J. Johnson, Bud Powell, Miles Davis, and Max Roach & Clifford Brown. His co-billing on a 1953 date with the Modern Jazz Quartet, and his recordings with Thelonious Monk, served to clue in the jazz establishment that a bright young star was in their midst who was not only a fine and remarkable soloist, but a supreme stylist. By the time 1956's classic Saxophone Colossus was issued, he was heralded as jazz's top tenorist. A year later when issuing the equally compelling Way Out West, and A Night at the Village Vanguard (two pioneering pianoless trio dates), he was regarded by critics in a class of his own – a reputation he never relinquished. At the same time, Rollins also established himself as a noted composer. Several of his tunes - "St. Thomas," "Oleo," "Doxy," "Pent-Up House," and "Airegin" - have become jazz standards. Rollins' two "retirements" - the first from the summer of 1959 through the end of 1961, when he practiced his horn on the Williamsburg Bridge, resulting in 1962's comeback album The Bridge - and the second from 1969-1971, when he went on a spiritual sojourn in Jamaica and India - only enhanced his abilities and reputation. In between, he issued three more influential albums: the soundtrack to the film Alfie, Sonny Rollins on Impulse!, and East Broadway Run Down. After returning the second time, the saxophonist had changed his style of play and, to a degree, his tone, which had become much more physical, soulful, and urgent, resulting in albums that reflected the influence of funk, pop, and R&B in his music as it met hard post-bop jazz - as evidenced by the live date Don't Stop the Carnival in 1978. As one of jazz's elder statesmen in the '90s and early 21st centuries, he held an unbreakable connection between the music's historical lineage and modernity. Rollins continued to set the creative bar high: He won Grammys for 2000's This Is What I Do and 2005's Without a Song: The 9/11 Concert, and a Lifetime Achievement Award. Rollins is such a cultural icon that he made an appearance on The Simpsons. He stopped performing in public in 2012 due to respiratory issues and was eventually forced to stop playing altogether.

CD 1 Tracklist (The Stopper):
01. Scoops
02. With a Song in My Heart
03. Newk's Fadeaway
04. Time on My Hands
05. This Love of Mine
06. Shadrack
07. On a Slow Boat to China
08. Mambo Bounce
09. I Know
10. Dig
11. It's Only a Paper Moon
12. Denial
13. Out of the Blue
14. Almost Like Being in Love
15. In a Sentimental Mood
16. No Moe
17. The Stopper
18. Friday the 13th

Total time: 01:12:31

CD 2 Tracklist (Oleo):
01. Soft Shoe
02. Airegin
03. Oleo
04. Doxy
05. Swingin' For Bumsy
06. Solid
07. Moving Out
08. Silk 'n' Satin
09. More Than You Know
10. The Way You Look Tonight

Total time: 52:23

Exact Audio Copy V1.0 beta 3 from 29. August 2011

EAC extraction logfile from 13. December 2013, 17:58

Sonny Rollins / Scoops

Used drive : Optiarc DVD RW AD-5200A Adapter: 0 ID: 0

Read mode : Secure
Utilize accurate stream : Yes
Defeat audio cache : Yes
Make use of C2 pointers : No

Read offset correction : 48
Overread into Lead-In and Lead-Out : No
Fill up missing offset samples with silence : Yes
Delete leading and trailing silent blocks : No
Null samples used in CRC calculations : Yes
Used interface : Native Win32 interface for Win NT & 2000

Used output format : User Defined Encoder
Selected bitrate : 128 kBit/s
Quality : High
Add ID3 tag : No
Command line compressor : C:\Program Files\Exact Audio Copy\Flac\flac.exe
Additional command line options : -V -8 -T "Genre=%genre%" -T "Artist=%artist%" -T "Title=%title%" -T "Album=%albumtitle%" -T "Date=%year%" -T "Tracknumber=%tracknr%" -T "Comment=%comment%" %source%


TOC of the extracted CD

Track | Start | Length | Start sector | End sector
––––––––––––––––––––––––––––-
1 | 0:00.00 | 2:14.58 | 0 | 10107
2 | 2:14.58 | 3:07.25 | 10108 | 24157
3 | 5:22.08 | 3:12.23 | 24158 | 38580
4 | 8:34.31 | 2:41.43 | 38581 | 50698
5 | 11:15.74 | 2:25.17 | 50699 | 61590
6 | 13:41.16 | 2:33.25 | 61591 | 73090
7 | 16:14.41 | 2:40.31 | 73091 | 85121
8 | 18:54.72 | 2:23.11 | 85122 | 95857
9 | 21:18.08 | 2:32.65 | 95858 | 107322
10 | 23:50.73 | 7:34.30 | 107323 | 141402
11 | 31:25.28 | 5:24.54 | 141403 | 165756
12 | 36:50.07 | 5:40.02 | 165757 | 191258
13 | 42:30.09 | 6:16.02 | 191259 | 219460
14 | 48:46.11 | 3:24.13 | 219461 | 234773
15 | 52:10.24 | 3:19.16 | 234774 | 249714
16 | 55:29.40 | 3:30.33 | 249715 | 265497
17 | 58:59.73 | 2:57.71 | 265498 | 278843
18 | 61:57.69 | 10:33.21 | 278844 | 326339


Range status and errors

Selected range

Filename F:\2004.Sonny Rollins - Modern Jazz Archive (2CD)\CD1 - The Stopper\Sonny Rollins - Scoops.wav

Peak level 100.0 %
Extraction speed 3.8 X
Range quality 99.9 %
Test CRC 5E6710B7
Copy CRC 5E6710B7
Copy OK

No errors occurred


AccurateRip summary

Track 1 not present in database
Track 2 not present in database
Track 3 not present in database
Track 4 not present in database
Track 5 not present in database
Track 6 not present in database
Track 7 not present in database
Track 8 not present in database
Track 9 not present in database
Track 10 not present in database
Track 11 not present in database
Track 12 not present in database
Track 13 not present in database
Track 14 not present in database
Track 15 not present in database
Track 16 not present in database
Track 17 not present in database
Track 18 not present in database

None of the tracks are present in the AccurateRip database

End of status report

==== Log checksum 3A068A5B21EE07D2A096BC94EBBC6C539E174492B06B331873C8174A3D92A9C7 ====

[CUETools log; Date: 09.09.2018 22:38:04; Version: 2.1.4]
[CTDB TOCID: EszBjH8FZkX9YeDKySdK2VX2sqE-] found.
Track | CTDB Status
1 | (7/7) Accurately ripped
2 | (7/7) Accurately ripped
3 | (7/7) Accurately ripped
4 | (7/7) Accurately ripped
5 | (7/7) Accurately ripped
6 | (7/7) Accurately ripped
7 | (7/7) Accurately ripped
8 | (7/7) Accurately ripped
9 | (7/7) Accurately ripped
10 | (7/7) Accurately ripped
11 | (7/7) Accurately ripped
12 | (7/7) Accurately ripped
13 | (7/7) Accurately ripped
14 | (7/7) Accurately ripped
15 | (7/7) Accurately ripped
16 | (7/7) Accurately ripped
17 | (7/7) Accurately ripped
18 | (7/7) Accurately ripped
[AccurateRip ID: 0027f8be-022ab07f-ee10ff12] found.
Track [ CRC | V2 ] Status
01 [7b74f790|5bf3a92c] (0+0/1) No match
02 [312fdbc3|4e278c0e] (0+0/1) No match
03 [d3614031|fbe2a8ac] (0+0/1) No match
04 [aabab926|843f1cb1] (0+0/1) No match
05 [7fdf31e9|9a33dcdb] (0+0/1) No match
06 [38cc4492|e5fc17db] (0+0/1) No match
07 [c9c56879|1f6ee4ad] (0+0/1) No match
08 [5fa34b84|5f85a247] (0+0/1) No match
09 [651180ee|330fd72c] (0+0/1) No match
10 [2f8bb8fb|1102a348] (0+0/1) No match
11 [a64b6d32|d2bf857a] (0+0/1) No match
12 [966d07bc|765fb2d5] (0+0/1) No match
13 [0468d3a8|2a9376b6] (0+0/1) No match
14 [9c7469fd|33ac3dde] (0+0/1) No match
15 [5e9be973|3ca94880] (0+0/1) No match
16 [fc4a2c35|ba5b6198] (0+0/1) No match
17 [f2520a8d|53e34b41] (0+0/1) No match
18 [d75ba6bd|dfc0b754] (0+0/1) No match
Offsetted by -664:
01 [e1459d47] (0/1) No match (V2 was not tested)
02 [441c356b] (0/1) No match (V2 was not tested)
03 [24c3f269] (0/1) No match (V2 was not tested)
04 [8e2b8e2e] (0/1) No match (V2 was not tested)
05 [537022e1] (0/1) No match (V2 was not tested)
06 [3ca5262a] (0/1) No match (V2 was not tested)
07 [f0d92209] (0/1) No match (V2 was not tested)
08 [2c8ab5bc] (0/1) No match (V2 was not tested)
09 [5c0e5e7e] (0/1) No match (V2 was not tested)
10 [53a16c63] (0/1) No match (V2 was not tested)
11 [5d3287ca] (0/1) No match (V2 was not tested)
12 [b4ed94ec] (0/1) No match (V2 was not tested)
13 [8e4c4610] (0/1) No match (V2 was not tested)
14 [1e719675] (0/1) No match (V2 was not tested)
15 [a1035a8b] (0/1) No match (V2 was not tested)
16 [f4be9eb5] (0/1) No match (V2 was not tested)
17 [1272b665] (0/1) No match (V2 was not tested)
18 [9fb63509] (0/1) No match (V2 was not tested)

Track Peak [ CRC32 ] [W/O NULL] [ LOG ]
– 100,0 [5E6710B7] [DE9FD2FB] CRC32
01 99,3 [EFCB7E38] [4E4C7B6F]
02 100,0 [BC1F57B4] [0624D198]
03 99,2 [3E76ABAA] [33AA282E]
04 99,2 [9F2B52D7] [343B49FA]
05 100,0 [FF445FDA] [AFF40997]
06 99,8 [DC2979FF] [FD71ECC7]
07 99,5 [03DE9FC5] [77BE20E5]
08 100,0 [DE42457A] [5B3AA7A9]
09 100,0 [26634418] [5BA7F502]
10 98,0 [23320237] [FD7A4121]
11 98,5 [A8941B58] [2B993C5A]
12 99,2 [B33D81D3] [4037201C]
13 100,0 [6CA259DA] [AE5C4131]
14 97,7 [D7E149AC] [D03D6338]
15 100,0 [5148B10A] [E873DD4C]
16 98,6 [930F01E0] [2CC00757]
17 98,7 [33FE18CE] [9136FB77]
18 100,0 [C7CD858E] [F0B71381]

Exact Audio Copy V1.0 beta 3 from 29. August 2011

EAC extraction logfile from 13. December 2013, 18:39

Sonny Rollins / Oleo

Used drive : Optiarc DVD RW AD-5200A Adapter: 0 ID: 0

Read mode : Secure
Utilize accurate stream : Yes
Defeat audio cache : Yes
Make use of C2 pointers : No

Read offset correction : 48
Overread into Lead-In and Lead-Out : No
Fill up missing offset samples with silence : Yes
Delete leading and trailing silent blocks : No
Null samples used in CRC calculations : Yes
Used interface : Native Win32 interface for Win NT & 2000

Used output format : User Defined Encoder
Selected bitrate : 128 kBit/s
Quality : High
Add ID3 tag : No
Command line compressor : C:\Program Files\Exact Audio Copy\Flac\flac.exe
Additional command line options : -V -8 -T "Genre=%genre%" -T "Artist=%artist%" -T "Title=%title%" -T "Album=%albumtitle%" -T "Date=%year%" -T "Tracknumber=%tracknr%" -T "Comment=%comment%" %source%


TOC of the extracted CD

Track | Start | Length | Start sector | End sector
––––––––––––––––––––––––––––-
1 | 0:00.00 | 5:00.37 | 0 | 22536
2 | 5:00.37 | 5:03.27 | 22537 | 45288
3 | 10:03.64 | 5:16.74 | 45289 | 69062
4 | 15:20.63 | 4:50.17 | 69063 | 90829
5 | 20:11.05 | 5:44.17 | 90830 | 116646
6 | 25:55.22 | 6:24.69 | 116647 | 145515
7 | 32:20.16 | 4:29.18 | 145516 | 165708
8 | 36:49.34 | 3:59.04 | 165709 | 183637
9 | 40:48.38 | 6:25.21 | 183638 | 212533
10 | 47:13.59 | 5:08.56 | 212534 | 235689


Range status and errors

Selected range

Filename F:\2004.Sonny Rollins - Modern Jazz Archive (2CD)\CD2 - Oleo\Sonny Rollins - Oleo.wav

Peak level 100.0 %
Extraction speed 3.7 X
Range quality 100.0 %
Test CRC 550E1196
Copy CRC 550E1196
Copy OK

No errors occurred


AccurateRip summary

Track 1 not present in database
Track 2 not present in database
Track 3 not present in database
Track 4 not present in database
Track 5 not present in database
Track 6 not present in database
Track 7 not present in database
Track 8 not present in database
Track 9 not present in database
Track 10 not present in database

None of the tracks are present in the AccurateRip database

End of status report

==== Log checksum F4F7930A042F1AAFB740C7F849C50746A4A1B1EAF0B8AAD0AF7123ED9C9536CC ====

[CUETools log; Date: 09.09.2018 22:38:42; Version: 2.1.4]
[CTDB TOCID: K2Gr56hfVlZe7DnlB0nAv5QmrPs-] found.
Track | CTDB Status
1 | (7/7) Accurately ripped
2 | (7/7) Accurately ripped
3 | (7/7) Accurately ripped
4 | (7/7) Accurately ripped
5 | (7/7) Accurately ripped
6 | (7/7) Accurately ripped
7 | (7/7) Accurately ripped
8 | (7/7) Accurately ripped
9 | (7/7) Accurately ripped
10 | (7/7) Accurately ripped
[AccurateRip ID: 0013a51d-009d90a6-6b0c460a] found.
Track [ CRC | V2 ] Status
01 [75d4a97f|be8d405b] (0+1/1) Accurately ripped
02 [f599fe40|9c70f6d7] (0+1/1) Accurately ripped
03 [6351691e|915f778d] (0+1/1) Accurately ripped
04 [f4994e4e|d1818807] (0+1/1) Accurately ripped
05 [984009f8|d0f86b58] (0+1/1) Accurately ripped
06 [ae3605b2|d2a21511] (0+1/1) Accurately ripped
07 [45810b50|d87b7530] (0+1/1) Accurately ripped
08 [fd37ccb4|b8278d76] (0+1/1) Accurately ripped
09 [fe16f06f|2ecd8f24] (0+1/1) Accurately ripped
10 [f262e8be|09136726] (0+1/1) Accurately ripped

Track Peak [ CRC32 ] [W/O NULL] [ LOG ]
– 100,0 [550E1196] [69F00EA5] CRC32
01 100,0 [297032F0] [97E6A5D1]
02 100,0 [9C785863] [F2283E46]
03 100,0 [256827A1] [EDEEE0C1]
04 100,0 [6AC0A60F] [14379095]
05 100,0 [79C8E10B] [BFFF503B]
06 100,0 [1DC55A31] [376427F8]
07 99,9 [8367C7B7] [869164EC]
08 100,0 [29AB6FD9] [FBD86D05]
09 99,9 [31ACC082] [068E3CCC]
10 79,4 [F668BEFE] [545D3871]

Thanks to ssagwebster

See also:
Sonny Rollins - Moving Out (1956) [Reissue 1987]
Sonny Rollins - Sonny Rollins and The Contemporary Leaders (1958)
Sonny Rollins - Sonny Boy (1961) [Reissue 2006]
Sonny Rollins - Easy Living (1977) [Reissue 2006]