Subcategories

Sonny Rollins - Sonny Rollins and The Contemporary Leaders (1958) (Repost)

Posted By: gribovar
Sonny Rollins - Sonny Rollins and The Contemporary Leaders (1958) (Repost)

Sonny Rollins - Sonny Rollins and The Contemporary Leaders (1958)
EAC Rip | FLAC (image+.cue+log) - 343 MB | MP3 CBR 320 kbps (LAME 3.93) - 148 MB | Covers (7 MB) included
Genre: Jazz | RAR 3% Rec. | Label: Contemporary/Victor (VDJ-1552), 1987

The last of the classic Sonny Rollins albums prior to his unexpected three-year retirement features the great tenor with pianist Hampton Hawes, guitarist Barney Kessel, bassist Leroy Vinnegar, and drummer Shelly Manne (all bandleaders for Contemporary Records during this era) on an unusual but inspired list of standards. Rollins creates explorative and often witty improvisations on such songs as "Rock-A-Bye Your Baby with a Dixie Melody," "You," "In the Chapel in the Moonlight," and roaring versions of "I've Found a New Baby" and "The Song Is You." Great music.
Tracklist:
01. I've Told Ev'ry Little Star
02. Rock-A-Bye Your Baby with a Dixie Melody
03. How High the Moon
04. You
05. You (Alternate Take)
06. I've Found a New Baby
07. I've Found a New Baby (Alternate Take)
08. Alone Together
09. In the Chapel in the Moonlight
10. The Song Is You
11. The Song Is You (Alternate Take)

Total time: 59:28

Exact Audio Copy V0.99 prebeta 4 from 23. January 2008

EAC extraction logfile from 14. October 2008, 5:36

Sonny Rollins / "The Contemporary Leaders" Plus

Used drive : TSSTcorpCDDVDW SH-S223Q Adapter: 2 ID: 1

Read mode : Secure
Utilize accurate stream : Yes
Defeat audio cache : Yes
Make use of C2 pointers : No

Read offset correction : 6
Overread into Lead-In and Lead-Out : No
Fill up missing offset samples with silence : Yes
Delete leading and trailing silent blocks : No
Null samples used in CRC calculations : Yes
Used interface : Installed external ASPI interface

Used output format : User Defined Encoder
Selected bitrate : 768 kBit/s
Quality : High
Add ID3 tag : No
Command line compressor : C:\Program Files (x86)\Exact Audio Copy\FLAC\FLAC.EXE
Additional command line options : -V -8 -T "artist=%a" -T "title=%t" -T "album=%g" -T "date=%y" -T "tracknumber=%n" -T "genre=%m" %s


TOC of the extracted CD

Track | Start | Length | Start sector | End sector
––––––––––––––––––––––––––––-
1 | 0:00.37 | 5:27.13 | 37 | 24574
2 | 5:27.50 | 4:54.27 | 24575 | 46651
3 | 10:22.02 | 7:45.00 | 46652 | 81526
4 | 18:07.02 | 4:15.45 | 81527 | 100696
5 | 22:22.47 | 4:17.23 | 100697 | 119994
6 | 26:39.70 | 3:40.02 | 119995 | 136496
7 | 30:19.72 | 4:25.10 | 136497 | 156381
8 | 34:45.07 | 5:59.63 | 156382 | 183369
9 | 40:44.70 | 6:41.22 | 183370 | 213466
10 | 47:26.17 | 5:44.55 | 213467 | 239321
11 | 53:10.72 | 6:17.53 | 239322 | 267649


Range status and errors

Selected range

Filename C:\Audio\WinRar\Sonny Rollins - The Contemporary Leaders (1958)[FLAC Full Scans]\Sonny Rollins - The Contemporary Leaders Plus.wav

Peak level 99.4 %
Range quality 100.0 %
Test CRC 3FF7674E
Copy CRC 3FF7674E
Copy OK

No errors occurred


AccurateRip summary

Track 1 not present in database
Track 2 not present in database
Track 3 not present in database
Track 4 not present in database
Track 5 not present in database
Track 6 not present in database
Track 7 not present in database
Track 8 not present in database
Track 9 not present in database
Track 10 not present in database
Track 11 not present in database

None of the tracks are present in the AccurateRip database

End of status report

[CUETools log; Date: 09.02.2018 1:38:04; Version: 2.1.4]
Pregap length 00:00:37.
[CTDB TOCID: aP_u4m1oShGblxXdQKjQno4QqMo-] found.
Track | CTDB Status
1 | (6/6) Accurately ripped
2 | (6/6) Accurately ripped
3 | (6/6) Accurately ripped
4 | (6/6) Accurately ripped
5 | (6/6) Accurately ripped
6 | (6/6) Accurately ripped
7 | (6/6) Accurately ripped
8 | (6/6) Accurately ripped
9 | (6/6) Accurately ripped
10 | (6/6) Accurately ripped
11 | (6/6) Accurately ripped
[AccurateRip ID: 0017f57b-00cf21b7-940df00b] found.
Track [ CRC | V2 ] Status
01 [a7c2499f|2167cda0] (07+07/14) Accurately ripped
02 [8e68040c|a0ff1fd4] (07+07/14) Accurately ripped
03 [fb9ff6f0|4726abf4] (07+07/14) Accurately ripped
04 [b317f499|e01688e1] (07+06/13) Accurately ripped
05 [ecfeee1e|6bf7de57] (06+06/12) Accurately ripped
06 [a66f3c41|c904b075] (07+05/12) Accurately ripped
07 [966dddc0|949c9cc5] (06+05/11) Accurately ripped
08 [820743f4|add81ecc] (07+05/12) Accurately ripped
09 [56937470|9ac74836] (07+05/12) Accurately ripped
10 [7207833c|dde370d9] (07+06/13) Accurately ripped
11 [d8180cba|dc32b4f4] (06+05/11) Accurately ripped
Offsetted by -71:
01 [446cc68b] (00/14) No match (V2 was not tested)
02 [9fd3fc26] (00/14) No match (V2 was not tested)
03 [4e73cc51] (00/14) No match (V2 was not tested)
04 [4b1ec0e1] (00/13) No match (V2 was not tested)
05 [5060fca6] (00/12) No match (V2 was not tested)
06 [7159c218] (00/12) No match (V2 was not tested)
07 [693e95cb] (00/11) No match (V2 was not tested)
08 [dde783b6] (00/12) No match (V2 was not tested)
09 [e92336b8] (00/12) No match (V2 was not tested)
10 [ccec9711] (00/13) No match (V2 was not tested)
11 [8e6ad2b5] (00/11) No match (V2 was not tested)

Track Peak [ CRC32 ] [W/O NULL] [ LOG ]
– 99,4 [3FF7674E] [DBF08D3F] CRC32
01 99,4 [781C997E] [29716424]
02 90,7 [D25526B0] [2BD67F65]
03 97,0 [51DDC1B4] [1779EC3A]
04 96,4 [CC9C0A67] [8B0C553F]
05 66,3 [01F1869E] [30E01DD4]
06 96,4 [1CFC766B] [8CBE2AE3]
07 66,3 [03BF8107] [3AE5C85F]
08 96,9 [0BA1411F] [E2DFAD69]
09 65,9 [41EE75F0] [6F52AAF8]
10 96,4 [6412606F] [B7314257]
11 85,7 [B9585787] [606521C5]

Thanks to Mazeppa

See also:
Sonny Rollins - Easy Living (1977) [Reissue 2006]