Subcategories

Soul Doctor - Soul Doctor (2001) [Japanese Ed.]

Posted By: Andi_Deris
Soul Doctor - Soul Doctor (2001) [Japanese Ed.]

Soul Doctor - Soul Doctor (2001) [Japanese Ed.]
EAC Rip | FLAC: Image+Cue+Log | 527 Mb | MP3 CBR 320 kbps | 178 Mb | Scans | 102 Mb | Time: 01:04:28
Genre: Hard Rock, Melodic Rock | Label: Marquee Inc./Avalon | Cat.: MICP-10238

Soul Doctor is the band led by former Fair Warning vocalist Tommy Heart. Well comparison with Fair Warning make no sense. Well Fair Warning is closer to Survivor, Journey but Soul Doctor is straight American rock'n roll maybe Mr.Big or Whitesnake vain.

It is fine rock album indeed! So even though you have not heard Fair Warning you will be sure to enjoy this album. Opening track Soul Doctor comes from Foreigner track in The Very Best And Beyond. If you are Fair Warning fan you will enjoy Before The Night Is Over most Fair Warning like track in this album.

Soul Doctor - Soul Doctor (2001) [Japanese Ed.]




Soul Doctor - Soul Doctor (2001) [Japanese Ed.]


Track Listing

01. Soul Doctor (5:25)
02. Shake 'Em On Down (5:36)
03. Goodbye (5:24)
04. Before The Night Is Over (6:02)
05. Unspoken Words (6:20)
06. What Do U Want (4:06)
07. Who Will Be There (6:18)
08. You're All That I Want (7:11)
09. Down The Blvd. (4:06)
10. Emotion In Motion (5:00)
11. Does It Feel Like Love (4:35)
12. Wild And On The Run (Bonus track for Japan) (4:25)

Produced by Soul Doctor & Jim Voxx

The Band

• Tommy Heart - Vocals
• Chris Lyne - Guitar
• Jogy Rautenberg (J.D.) - Bass
• Michael Wolpers - Drums

Notes

This album contains some fine tunes as the Foreigner cover "Soul Doctor" (the reason the band named that way), "Goodbye", "Before The Night Is Over", "What Do You Want" and the best song from the album "Down The Blvd".

Soul Doctor - Soul Doctor (2001) [Japanese Ed.]


Exact Audio Copy V1.0 beta 3 from 29. August 2011

EAC extraction logfile from 19. June 2013, 0:02

Soul Doctor / Soul Doctor

Used drive : SlimtypeDVD A DS8A5SH Adapter: 0 ID: 1

Read mode : Secure
Utilize accurate stream : Yes
Defeat audio cache : Yes
Make use of C2 pointers : No

Read offset correction : 6
Overread into Lead-In and Lead-Out : No
Fill up missing offset samples with silence : Yes
Delete leading and trailing silent blocks : No
Null samples used in CRC calculations : Yes
Used interface : Native Win32 interface for Win NT & 2000

Used output format : User Defined Encoder
Selected bitrate : 320 kBit/s
Quality : High
Add ID3 tag : No
Command line compressor : C:\Program Files (x86)\Exact Audio Copy\Flac\flac.exe
Additional command line options : -V -8 -T "Date=%year%" -T "Genre=%genre%" %source%


TOC of the extracted CD

Track | Start | Length | Start sector | End sector
––––––––––––––––––––––––––––-
1 | 0:00.00 | 5:25.40 | 0 | 24414
2 | 5:25.40 | 5:36.39 | 24415 | 49653
3 | 11:02.04 | 5:24.04 | 49654 | 73957
4 | 16:26.08 | 6:02.69 | 73958 | 101176
5 | 22:29.02 | 6:20.56 | 101177 | 129732
6 | 28:49.58 | 4:06.65 | 129733 | 148247
7 | 32:56.48 | 6:18.47 | 148248 | 176644
8 | 39:15.20 | 7:11.61 | 176645 | 209030
9 | 46:27.06 | 4:06.21 | 209031 | 227501
10 | 50:33.27 | 5:00.41 | 227502 | 250042
11 | 55:33.68 | 4:35.20 | 250043 | 270687
12 | 60:09.13 | 4:25.52 | 270688 | 290614


Range status and errors

Selected range

Filename D:\My Music\Soul Doctor - 2001 Soul Doctor\Soul Doctor - Soul Doctor.wav

Peak level 98.0 %
Extraction speed 2.0 X
Range quality 100.0 %
Test CRC 8798309E
Copy CRC 8798309E
Copy OK

No errors occurred


AccurateRip summary

Track 1 not present in database
Track 2 not present in database
Track 3 not present in database
Track 4 not present in database
Track 5 not present in database
Track 6 not present in database
Track 7 not present in database
Track 8 not present in database
Track 9 not present in database
Track 10 not present in database
Track 11 not present in database
Track 12 not present in database

None of the tracks are present in the AccurateRip database

End of status report

==== Log checksum B9600B9E4AA54C1F0A2302A2A2271B77B6A94B284411C3196CCA01391DA792A9 ====


Many thanks to the original uploader: kolushew


Dreamtide 2001 What You Believe In (EP) [Japanese Ed.]
Dreamtide 2001 Here Comes The Flood [Japanese Ed.]
Dreamtide 2003 Dreams For The Darling [Japanese Ed.]
Dreamtide 2008 Dream And Deliver [Japanese Ed.]

Drive, She Said 1989 Drive, She Said
Drive, She Said 1991 Drivin' Wheel
Drive, She Said 1993 Excelerator
Drive, She Said 2016 Pedal To The Metal

Fair Warning 1992 Fair Warning [Japan 1st Press]
Fair Warning 1993 Live In Japan [Japan 1st Press]
Fair Warning 1995 Rainmaker [Japan 1st Press]
Fair Warning 1995 Rainmaker [Japanese Ed. 2006]
Fair Warning 1997 Go! [Japan 1st Press]
Fair Warning 1997 Go! [Japan SHM-CD, 2009] 2CD
Fair Warning 1997 Early Warnings: '92~'95 [Japan 1st Press]
Fair Warning 1998 Live And More [Japan 1st Press] 2CD
Fair Warning 2000 4 (Four) [Japan 1st Press]
Fair Warning 2001 A Decade Of Fair Warning •Complete Best• [Japanese Ed.] 2CD
Fair Warning 2006 Brother's Keeper [Japanese Ed.]
Fair Warning 2006 Brother's Keeper [Japan SHM-CD, 2009]
Fair Warning 2009 Aura [Limited Ed. Digipak]
Fair Warning 2009 Aura [Deluxe Ed., Japan SHM-CD] 2CD
Fair Warning 2010 Talking Ain't Enough - Live In Tokyo [2xDVD]
Fair Warning 2013 Sundancer [Japan SHM-CD] 2CD

Last Autumn's Dream 2003-2011 Studio Discography [Japanese Ed.]
Last Autumn's Dream 2012 Ten Tangerine Tales [Japanese Ed.]
Last Autumn's Dream 2013 Platform ~10th Anniversary Best~ [Japanese Ed.]
Last Autumn's Dream 2014 Level Eleven [Japanese Ed.] 2CD
Last Autumn's Dream 2015 Paintings [Japanese Ed.]

Soul Doctor 2002 System Go Wild![Japanese Ed.]
Soul Doctor 2005 For A Fistful Of Dollars [Japanese Ed.]
Soul Doctor 2007 Blood Runs Cold [Japanese Ed.]
Soul Doctor 2008 That's Live! [Japanese Ed. 2009]
Soul Doctor 2009 Way Back To The Bone [Japanese Ed.]

Zeno 1986 Zeno (1st Press/Remastered) [Japanese Ed.]
Zeno 1995 Zenology [Japanese Ed. 2005]
Zeno 1998 Listen To The Light [Japanese Ed. 2005]
Zeno 2005 Zenology II [Japanese Ed.]
Zeno 2006 Runway To The Gods [Japanese Ed.]
––––––––––
Nitroflare