Tags
Language
Tags

Stan Getz - Stan Getz With Cal Tjader (1958) [XRCD, Reissue 1998]

Posted By: gribovar
Stan Getz - Stan Getz With Cal Tjader (1958) [XRCD, Reissue 1998]

Stan Getz - Stan Getz With Cal Tjader (1958) [XRCD, Reissue 1998]
EAC Rip | WavPack (image+.cue+log) - 256 MB | Covers - 37 MB
Genre: Jazz | RAR 3% Rec. | Label: JVC (JVCXR-0218-2)

In the vein of many a smooth West Coast jazz outing, this 1958 disc finds original cool stylist Getz paired with vibraphonist Cal Tjader on a very enjoyable selection of jazz standards and Tjader originals. The lineup includes pianist Vince Guaraldi, guitarist Eddie Duran, bassist Scott La Faro, and drummer Billy Higgins (this was one of the earliest record dates for either La Faro or Higgins, both of whom were playing with Getz at San Francisco's Black Hawk in between recording sessions). Guaraldi's spry "Ginza Samba" kicks thing off with nimble and imaginative statements by all the soloists. Tjader's swinging originals "Crow's Nest" and "Big Bear" provide prime solo vehicles as well, while his lovely waltz number "Liz-Anne" adds some nice contrast to the set, eliciting one of Getz's best solos in the process. The group rounds things out with fine ballad readings of "I've Grown Accustomed to Her Face" and "For All We Know." A recommended title for both Getz and Tjader fans.
Tracklist:
01. Ginza Samba
02. I've Grown Accustomed To Her Face
03. For All We Know
04. Crow's Nest
05. Liz-Anne
06. Big Bear
07. My Buddy

Total time: 42:46

Exact Audio Copy V0.99 prebeta 4 from 23. January 2008

EAC extraction logfile from 13. September 2009, 20:12

Stan Getz Sextet / Stan Getz With Cal Tjader

Used drive : HL-DT-STDVDRAM GH20NS10 Adapter: 2 ID: 1

Read mode : Secure
Utilize accurate stream : Yes
Defeat audio cache : Yes
Make use of C2 pointers : No

Read offset correction : 667
Overread into Lead-In and Lead-Out : No
Fill up missing offset samples with silence : Yes
Delete leading and trailing silent blocks : No
Null samples used in CRC calculations : Yes
Used interface : Installed external ASPI interface

Used output format : Internal WAV Routines
Sample format : 44.100 Hz; 16 Bit; Stereo


TOC of the extracted CD

Track | Start | Length | Start sector | End sector
––––––––––––––––––––––––––––-
1 | 0:00.00 | 11:01.42 | 0 | 49616
2 | 11:01.42 | 3:58.70 | 49617 | 67536
3 | 15:00.37 | 5:45.00 | 67537 | 93411
4 | 20:45.37 | 8:20.10 | 93412 | 130921
5 | 29:05.47 | 3:49.13 | 130922 | 148109
6 | 32:54.60 | 4:35.67 | 148110 | 168801
7 | 37:30.52 | 5:15.53 | 168802 | 192479


Range status and errors

Selected range

Filename Z:\Stan Getz Sextet - Stan Getz with Cal Tjader (1958) {XRCD2 JVCXR-0218}\Stan Getz, Cal Tjader - Stan Getz With Cal Tjader.wav

Peak level 100.0 %
Range quality 100.0 %
Test CRC EA4250B7
Copy CRC EA4250B7
Copy OK

No errors occurred


AccurateRip summary

Track 1 accurately ripped (confidence 5) [6921B41E]
Track 2 accurately ripped (confidence 5) [EC856523]
Track 3 accurately ripped (confidence 5) [2F109419]
Track 4 accurately ripped (confidence 5) [17F3E25B]
Track 5 accurately ripped (confidence 5) [F7838C9D]
Track 6 accurately ripped (confidence 5) [582E6E55]
Track 7 accurately ripped (confidence 5) [997292AC]

All tracks accurately ripped

End of status report

[CUETools log; Date: 19.04.2019 15:41:02; Version: 2.1.4]
[CTDB TOCID: WHmUZiclCW02cJjYpX9B3fpugWg-] found.
Track | CTDB Status
1 | (22/23) Accurately ripped
2 | (23/23) Accurately ripped
3 | (23/23) Accurately ripped
4 | (23/23) Accurately ripped
5 | (22/23) Accurately ripped
6 | (23/23) Accurately ripped
7 | (22/23) Accurately ripped
[AccurateRip ID: 000cfbc0-004b61ba-5f0a0607] found.
Track [ CRC | V2 ] Status
01 [6921b41e|9d72890c] (14+15/31) Accurately ripped
02 [ec856523|5c06ffc1] (14+15/31) Accurately ripped
03 [2f109419|2063559a] (14+15/31) Accurately ripped
04 [17f3e25b|b4c88537] (14+15/31) Accurately ripped
05 [f7838c9d|909231bf] (14+15/31) Accurately ripped
06 [582e6e55|ea28f0f8] (14+15/31) Accurately ripped
07 [997292ac|8d4bc1ab] (15+15/32) Accurately ripped
Offsetted by -664:
01 [0fa6419e] (00/31) No match (V2 was not tested)
02 [31b2e93b] (00/31) No match (V2 was not tested)
03 [a95b0229] (00/31) No match (V2 was not tested)
04 [ee3cccdb] (00/31) No match (V2 was not tested)
05 [8483abcd] (00/31) No match (V2 was not tested)
06 [264f4ccd] (00/31) No match (V2 was not tested)
07 [c0fffa94] (00/32) No match (V2 was not tested)

Track Peak [ CRC32 ] [W/O NULL] [ LOG ]
– 100,0 [EA4250B7] [2933C47B] CRC32
01 98,3 [A93F5744] [2E681B2B]
02 86,8 [AF1B0DF6] [7BED391C]
03 94,8 [694A2324] [CDEF0F7F]
04 98,9 [6E1E53F3] [0BC7FFE3]
05 82,4 [913C0B2E] [6A62909E]
06 100,0 [F0BEB33C] [4EABFE47]
07 100,0 [E661DEC7] [9FCCDCEC]

Thanks to pr3ss