Subcategories

Stars On 45 - Let's Dance (2004)

Posted By: jclane
Stars On 45 - Let's Dance (2004)

Stars On 45 - Let's Dance (2004)
EAC Rip | APE Image + Cue + Log - 562 MB | MP3 CBR @320 kbps - 192 MB | Full scans - 14.3 MB
Label: Music Collection Int / Red Bullet Productions | Catalog.#: ESCD 200304 | Genre: Disco

The Hits of Dicotheque 70s - 80s: Eruption, Cashmere, Claudia Barry, Goombay Dance Band , The Three Degrees, Arabesque, Sandy Wilson, Deborah Kinley, Grant Miller, Dance Department and many more.
Disco 70's Medley:

01. Stars On 45 (Part One) - 0:58
02. Eruption - Runaway - 1:43
03. Cashmere - Hey Baby - 3:27
04. Fantastique - Maria No Mas - 2:22
05. Neoton Familia - Santa Maria - 2:13
06. Claudia Barry - Boogie Woogie Dancing Shoes - 3:54
07. Stars On 45 (Part Two) - 0:36
08. Total Coelo - Dracula's Tango - 2:13
09. Goombay Dance Band - Marrakesh - 2:13
10. The Three Degrees - Jump The Gun - 2:51
11. Belle Epoque - Jump Down - 1:56
12. Arabesque - Give It Up - 3:24

Disco 80's Medley "Move Your Body":

Stars on 45 (Part Three)
13. Panther Rex - High Or Low - 1:45
14. Twenty One - The Eyes of Don Johnson - 2:07
15. Sandy Wilson - Give Me Your Love Tonight - 2:00
16. Kermit & Uwe - It's a Heart - 3:02

Disco 80's Medley "Let's Dance":

Stars on 45 (Part Four)
17. Mozzart - Money - 1:20
18. Medley - 5:40
18.01. Dolce Vita
18.02. Hands Up (Give Me Your Heart)
18.03. Ring My Bell
18.04. Feels Like I'm Love
18.05. Do You Wanna Funk
18.06. Menergy
18.07. Use It Up And Wear It Out
18.08. One For You, One For Me
18.09. Don't You Want My love
18.10. On The Beat
18.11. Boogie Nights
18.12. Once You Get Started
18.13. Stars Theme ''Let's Dance''

Disco 80's Medley "Max-Mix Disco X":

19. Deborah Kinley - All For You - 2:42
20. Costas Charitodiplomenos - Lost In The Night - 1:23
21. Vivien Vee - Higher - 1:48
22. Nina Pee - You're The Sun Of My Life - 2:53
23. Tibor Levay - Gipsy Boobie - 2:12
24. Mozzart - Malice & Vice - 1:29
25. Digitronic - Disco Night - 3:01
26. Okay ! - O-Kay ! - 2:20
27. Tragic Error - Klatsche In Die Haende - 1:50
28. Sinery - Don't You Know - 4:04
29. Grant Miller - Wings Of Love - 3:14
30. Happy Hour - Wie Gehts - 2:18
31. Dance Department - Paradise - 2:21
32. Confetti's - C Countdoun - 3:37


Exact Audio Copy V0.99 prebeta 5 from 4. May 2009

Отчёт EAC об извлечении, выполненном 6. сентября 2009, 13:30

Stars On 45 / Let's Dance !

Дисковод: Optiarc DVD RW AD-5200A Adapter: 0 ID: 0

Режим чтения : Достоверность
Использование точного потока : Да
Отключение кэша аудио : Да
Использование указателей C2 : Нет

Коррекция смещения при чтении : 48
Способность читать области Lead-in и Lead-out : Нет
Заполнение пропущенных сэмплов тишиной : Да
Удаление блоков с тишиной в начале и конце : Нет
При вычислениях CRC использовались нулевые сэмплы : Да
Интерфейс : Установленный внешний ASPI-интерфейс

Выходной формат : Внутренние WAV-операции
Формат сэмплов : 44.100 Гц; 16 бит; стерео

TOC извлечённого CD

Трек | Старт | Длительность | Начальный сектор | Конечный сектор
––––––––––––––––––––––––––––––––––-
1 | 0:00.00 | 0:58.55 | 0 | 4404
2 | 0:58.55 | 1:43.18 | 4405 | 12147
3 | 2:41.73 | 3:27.39 | 12148 | 27711
4 | 6:09.37 | 2:22.05 | 27712 | 38366
5 | 8:31.42 | 2:13.07 | 38367 | 48348
6 | 10:44.49 | 3:54.20 | 48349 | 65918
7 | 14:38.69 | 0:36.48 | 65919 | 68666
8 | 15:15.42 | 2:13.03 | 68667 | 78644
9 | 17:28.45 | 2:13.59 | 78645 | 88678
10 | 19:42.29 | 2:51.47 | 88679 | 101550
11 | 22:34.01 | 1:56.69 | 101551 | 110319
12 | 24:30.70 | 3:24.64 | 110320 | 125683
13 | 27:55.59 | 1:45.08 | 125684 | 133566
14 | 29:40.67 | 2:07.42 | 133567 | 143133
15 | 31:48.34 | 2:00.62 | 143134 | 152195
16 | 33:49.21 | 3:02.45 | 152196 | 165890
17 | 36:51.66 | 1:20.18 | 165891 | 171908
18 | 38:12.09 | 5:40.41 | 171909 | 197449
19 | 43:52.50 | 2:42.23 | 197450 | 209622
20 | 46:34.73 | 1:23.15 | 209623 | 215862
21 | 47:58.13 | 1:48.64 | 215863 | 224026
22 | 49:47.02 | 2:53.10 | 224027 | 237011
23 | 52:40.12 | 2:12.70 | 237012 | 246981
24 | 54:53.07 | 1:29.31 | 246982 | 253687
25 | 56:22.38 | 3:01.09 | 253688 | 267271
26 | 59:23.47 | 2:20.24 | 267272 | 277795
27 | 61:43.71 | 1:50.58 | 277796 | 286103
28 | 63:34.54 | 4:04.16 | 286104 | 304419
29 | 67:38.70 | 3:14.32 | 304420 | 319001
30 | 70:53.27 | 2:18.16 | 319002 | 329367
31 | 73:11.43 | 2:21.54 | 329368 | 339996
32 | 75:33.22 | 3:27.43 | 339997 | 355564

Характеристики диапазона извлечения и сообщения об ошибках

Выбранный диапазон

Имя файла E:\Stars On 45 - Let's Dance !\Stars On 45 - Let's Dance !.wav

Пиковый уровень 100.0 %
Качество диапазона 99.9 %
CRC теста 61D8E033
CRC копии 61D8E033
Копирование… OK

Ошибок не произошло

AccurateRip: сводка

Трек 1 нет в базе данных
Трек 2 нет в базе данных
Трек 3 нет в базе данных
Трек 4 нет в базе данных
Трек 5 нет в базе данных
Трек 6 нет в базе данных
Трек 7 нет в базе данных
Трек 8 нет в базе данных
Трек 9 нет в базе данных
Трек 10 нет в базе данных
Трек 11 нет в базе данных
Трек 12 нет в базе данных
Трек 13 нет в базе данных
Трек 14 нет в базе данных
Трек 15 нет в базе данных
Трек 16 нет в базе данных
Трек 17 нет в базе данных
Трек 18 нет в базе данных
Трек 19 нет в базе данных
Трек 20 нет в базе данных
Трек 21 нет в базе данных
Трек 22 нет в базе данных
Трек 23 нет в базе данных
Трек 24 нет в базе данных
Трек 25 нет в базе данных
Трек 26 нет в базе данных
Трек 27 нет в базе данных
Трек 28 нет в базе данных
Трек 29 нет в базе данных
Трек 30 нет в базе данных
Трек 31 нет в базе данных
Трек 32 нет в базе данных

Ни одного трека нет в базе AccurateRip

Конец отчёта


[CUETools log; Date: 5/30/2014 5:58:34 PM; Version: 2.1.4]
[CTDB TOCID: S1oqgPt2bQA51jNdqZNLib4nLnU-] disk not present in database.
[AccurateRip ID: 00557820-07a8aa92-d2128420] found.
Track [ CRC | V2 ] Status
01 [5b095121|cdcde462] (0+0/2) No match
02 [3ae3ea00|2cfc77a8] (0+0/2) No match
03 [1509f1cb|5a9cf901] (0+0/2) No match
04 [3b3ff94a|d91bcb3f] (0+0/2) No match
05 [c2bbde6c|d4d69e66] (0+0/2) No match
06 [33ec6600|38a933f0] (0+0/2) No match
07 [71ac287a|ef714e5c] (0+0/2) No match
08 [f9be074a|66608e43] (0+0/2) No match
09 [c1e6a355|b8b5ec80] (0+0/2) No match
10 [34d13314|633b7bdf] (0+0/2) No match
11 [830cfa82|b1e6f59a] (0+0/2) No match
12 [86b9d611|aaee328c] (0+0/2) No match
13 [c4c7be2c|d7b7cea9] (0+0/2) No match
14 [d7d56e89|51076e2a] (0+0/2) No match
15 [4fdc594b|58c60430] (0+0/2) No match
16 [9f8acc87|a0fe4c62] (0+0/2) No match
17 [8019d55b|573c860e] (0+0/2) No match
18 [92584add|dda3145c] (0+0/2) No match
19 [315260cf|c7bff681] (0+0/2) No match
20 [b5bc4a37|6d8c6078] (0+0/2) No match
21 [3288a782|1d4745c6] (0+0/2) No match
22 [72503c3f|37227bdc] (0+0/2) No match
23 [8fa9ddb7|c88589b3] (0+0/2) No match
24 [f1793ce8|976f08a5] (0+0/2) No match
25 [4fac8422|653cadee] (0+0/2) No match
26 [2e144565|704464dc] (0+0/2) No match
27 [7cd9725a|6ae2d420] (0+0/2) No match
28 [13a27c56|d2bb215b] (0+0/2) No match
29 [8dd7f98a|a2bc8aaf] (0+0/2) No match
30 [6ca4caad|f157c4e8] (0+0/2) No match
31 [a3e791a0|067a1692] (0+0/2) No match
32 [6e4c43d5|36fc139d] (0+0/2) No match

Track Peak [ CRC32 ] [W/O NULL]
– 100.0 [61D8E033] [EFE526DB]
01 98.3 [92B97D89] [9905727B]
02 95.2 [6FF3594B] [A8796421]
03 100.0 [190E0FDE] [4C24519F]
04 100.0 [4FE1BDAE] [477333AE]
05 100.0 [38560844] [BD8A7ADC]
06 99.2 [F34A1FAF] [C8305AEE]
07 99.4 [BC959FEA] [F9DA8728]
08 96.0 [A01E2BDA] [AAF2212B]
09 100.0 [183548B2] [5EDF2FA7]
10 97.6 [9EC6E16B] [E971BA98]
11 97.1 [0DBEB93F] [A64FB9F2]
12 97.7 [A9E49FB3] [1BD28CC8]
13 100.0 [77B9CD15] [28EE5064]
14 100.0 [F4E930B2] [4CD992CE]
15 94.3 [79DF099E] [955B5BA5]
16 100.0 [D5690BBB] [9BEBCBD7]
17 100.0 [8E9F2CBE] [E3D349C2]
18 100.0 [DF9B999F] [5BC800A5]
19 100.0 [D33B5D42] [BEE86703]
20 100.0 [DF58B9EC] [F9B4AAB5]
21 96.6 [E2D3B4B0] [F6D9ED71]
22 93.0 [3332F6E2] [C2BEEE49]
23 96.6 [5E8496AB] [A9606FD1]
24 90.1 [9F7601AE] [69CCFF2A]
25 89.4 [97A7B10B] [B297BBCE]
26 96.0 [52BED0AB] [13E6944F]
27 99.8 [82FB80F9] [4B59F943]
28 98.8 [A8B3F4F6] [2226F59D]
29 84.5 [AEFD9CB0] [133A46D1]
30 99.9 [A7E9B772] [D8DDA841]
31 97.7 [0C0A99CD] [AD503B81]
32 91.1 [FABC78D3] [433BE595]


foobar2000 1.2.8 / Dynamic Range Meter 1.1.1
log date: 2014-05-30 18:02:59

––––––––––––––––––––––––––––––––––––––––
Analyzed: Stars On 45 / Let's Dance !
––––––––––––––––––––––––––––––––––––––––

DR Peak RMS Duration Track
––––––––––––––––––––––––––––––––––––––––
DR12 -0.15 dB -12.79 dB 0:59 01-Stars On 45 / PartOne
DR9 -0.42 dB -10.90 dB 1:43 02-Eruption / Runaway
DR10 0.00 dB -11.21 dB 3:28 03-Cashmere / Hey Baby
DR8 0.00 dB -9.62 dB 2:22 04-Fantastique / Maria No Mas
DR8 0.00 dB -8.98 dB 2:13 05-Neoton Familia / Santa Maria
DR9 -0.07 dB -10.43 dB 3:54 06-Claudia Barry / Boogie Woogie Dancing Shoes
DR11 -0.05 dB -11.64 dB 0:37 07-Stars On 45 / Part Two
DR11 -0.35 dB -12.76 dB 2:13 08-Total Coelo / Dracula's Tango
DR12 0.00 dB -12.91 dB 2:14 09-Goombay Dance Band / Marrakesh
DR11 -0.20 dB -12.86 dB 2:52 10-The Three Degrees / Jump The Gun
DR12 -0.26 dB -13.09 dB 1:57 11-Belle Epoque / Jump Down
DR9 -0.20 dB -10.78 dB 3:25 12-Arabesque / Give It Up
DR11 0.00 dB -12.18 dB 1:45 13-Panther Rex / High Or Low
DR12 0.00 dB -12.58 dB 2:08 14-Twenty One / The Eyes Of Don Johnson
DR11 -0.50 dB -12.98 dB 2:01 15-Sandy Wilson / Give Me Your Love Tonight
DR9 0.00 dB -10.16 dB 3:03 16-Kermit & Uwe / It's A Heart
DR9 0.00 dB -10.70 dB 1:20 17-Mozzart / Money
DR8 0.00 dB -9.88 dB 5:41 18-Disco 80's Medley / Dolce Vita…
DR12 0.00 dB -13.52 dB 2:42 19-Deborah Kinley / All For You
DR12 0.00 dB -12.64 dB 1:23 20-Costas Charitodiplomenos / Lost In The Night
DR12 -0.30 dB -13.69 dB 1:49 21-Vivien Vee / Higher
DR11 -0.63 dB -13.04 dB 2:53 22-Nina Pee / You're The Sun Of My Life
DR12 -0.30 dB -13.13 dB 2:13 23-Tibor Levay / Gipsy Boobie
DR12 -0.90 dB -14.02 dB 1:29 24-Mozzart / Malice & Vice
DR10 -0.97 dB -11.44 dB 3:01 25-Digitronic / Disco Night
DR11 -0.35 dB -12.18 dB 2:20 26-Okay ! / O-Kay !
DR9 -0.01 dB -9.45 dB 1:51 27-Tragic Error / Klatsche In Die Haende
DR11 -0.10 dB -12.91 dB 4:04 28-Sinery / Don't You Know
DR12 -1.46 dB -14.19 dB 3:14 29-Grant Miller / Wings Of Love
DR10 0.00 dB -12.12 dB 2:18 30-Happy Hour / Wie Gehts
DR11 -0.20 dB -11.63 dB 2:22 31-Dance Department / Paradise
DR11 -0.80 dB -13.45 dB 3:28 32-Confetti's / C Countdoun
––––––––––––––––––––––––––––––––––––––––

Number of tracks: 32
Official DR value: DR11

Samplerate: 44100 Hz
Channels: 2
Bits per sample: 16
Bitrate: 966 kbps
Codec: Monkey's Audio
================================================================================



Released Date: 2004
Format: CD, Compilation
Length: 1:19:00

Stars On 45 - Let's Dance (2004)
Stars On 45 - Let's Dance (2004)

Many thanks to the original releaser


All links are interchangeable!

Dead Links? please send me a private message.