Status Quo - Under The Influence (1999)

Posted By: uff
Status Quo - Under The Influence (1999)

Status Quo - Under The Influence (1999)
Rock | 1cd | EAC Rip | Flac + Cue + Log | covers
Eagle, EAGCD076 | rel: 1999 | 385Mb

Who would've thought that 35 years into their career, Status Quo would release their finest album long after the general public lost interest? Leaving Polygram, their major-label home for nearly all of their career, Quo (guitarists Francis Rossi and Rick Parfitt, bassist John "Rhino" Edwards, keyboardist Andy Bown, and drummer Jeff Rich) signed with Eagle Records in the U.K. and proceeded to record a new platter. What came out was an amazing collection of pop songs by one of England's top rock & roll bands. Though they've left their trademark boogie behind, Quo proved on this album that they could still rock out and write great songs. Rossi's vocals are still smooth and his and Parfitt's riffs are rich and plentiful, while Bown, Edwards, and Rich prove that they are more than hired sidemen. "Twenty Wild Horses" starts the album with a successful blend of rock smarts and folk riffs. "Under the Influence" and "Round and Round" are splendid blasts of melodic rock with a bit of boogie creeping back into the mix. "Shine On" is Parfitt's tale of his recent bypass surgery with a bluesy/folk backdrop. "Little White Lies" is Quo's most overtly pop track on the album and would've been a huge hit had it been on a major label. And so it goes on. There are plenty more gems to be found on this album, and the message will remain the same: This is the finest Quo album of their career and if you're interested in starting a Quo collection, you should start here! ~Allmusic

Track listing
01. Twenty Wild Horses (4:59)
02. Under The Influence (4:03)
03. Round And Round (3:25)
04. Shine On (4:49)
05. Little White Lies (4:19)
06. Keep 'em Coming (3:26)
07. Little Me And You (3:48)
08. Making Waves (3:56)
09. Blessed Are The Meek (4:19)
10. Roll The Dice (4:05)
11. Not Fade Away (3:09)
12. The Way It Goes (4:02)

Personnel
- Francis Rossi – Vocals & lead guitar
- Rick Parfitt – Vocals & guitar
- John Edwards – Bass, guitar, backing vocals
- Andy Bown – Keyboards, guitars, backing vocals
- Jeff Rich – Drums & Percussion


EAC extraction logfile from 29. November 2006, 16:05 for CD
Status Quo / Under The Influence

Used drive : _NEC DVD_RW ND-3500AG Adapter: 0 ID: 1
Read mode : Secure with NO C2, accurate stream, disable cache
Read offset correction : 48
Overread into Lead-In and Lead-Out : No

Used output format : Internal WAV Routines
44.100 Hz; 16 Bit; Stereo

Other options :
Fill up missing offset samples with silence : Yes
Delete leading and trailing silent blocks : No
Installed external ASPI interface


Track 1
Filename H:\UPLOAD\Status Quo - Under The Influence (1999) [FLAC]\01 - Twenty Wild Horses.wav

Pre-gap length 0:00:02.00

Peak level 99.6 %
Track quality 99.9 %
Test CRC E1FBA73E
Copy CRC E1FBA73E
Copy OK

Track 2
Filename H:\UPLOAD\Status Quo - Under The Influence (1999) [FLAC]\02 - Under The Influence.wav

Pre-gap length 0:00:00.40

Peak level 99.6 %
Track quality 100.0 %
Test CRC 4338A000
Copy CRC 4338A000
Copy OK

Track 3
Filename H:\UPLOAD\Status Quo - Under The Influence (1999) [FLAC]\03 - Round And Round.wav

Peak level 99.6 %
Track quality 100.0 %
Test CRC 3CEAD89D
Copy CRC 3CEAD89D
Copy OK

Track 4
Filename H:\UPLOAD\Status Quo - Under The Influence (1999) [FLAC]\04 - Shine On.wav

Peak level 99.6 %
Track quality 100.0 %
Test CRC A6CA3026
Copy CRC A6CA3026
Copy OK

Track 5
Filename H:\UPLOAD\Status Quo - Under The Influence (1999) [FLAC]\05 - Little White Lies.wav

Pre-gap length 0:00:00.13

Peak level 99.6 %
Track quality 100.0 %
Test CRC E6CB474B
Copy CRC E6CB474B
Copy OK

Track 6
Filename H:\UPLOAD\Status Quo - Under The Influence (1999) [FLAC]\06 - Keep 'em Coming.wav

Pre-gap length 0:00:01.01

Peak level 99.6 %
Track quality 100.0 %
Test CRC 8786DE27
Copy CRC 8786DE27
Copy OK

Track 7
Filename H:\UPLOAD\Status Quo - Under The Influence (1999) [FLAC]\07 - Little Me And You.wav

Peak level 99.6 %
Track quality 100.0 %
Test CRC 4F5F1DD3
Copy CRC 4F5F1DD3
Copy OK

Track 8
Filename H:\UPLOAD\Status Quo - Under The Influence (1999) [FLAC]\08 - Making Waves.wav

Pre-gap length 0:00:00.85

Peak level 99.6 %
Track quality 100.0 %
Test CRC 91ACD5DB
Copy CRC 91ACD5DB
Copy OK

Track 9
Filename H:\UPLOAD\Status Quo - Under The Influence (1999) [FLAC]\09 - Blessed Are The Meek.wav

Peak level 99.6 %
Track quality 100.0 %
Test CRC 0DFFECF4
Copy CRC 0DFFECF4
Copy OK

Track 10
Filename H:\UPLOAD\Status Quo - Under The Influence (1999) [FLAC]\10 - Roll The Dice.wav

Peak level 99.6 %
Track quality 100.0 %
Test CRC 4F4184C2
Copy CRC 4F4184C2
Copy OK

Track 11
Filename H:\UPLOAD\Status Quo - Under The Influence (1999) [FLAC]\11 - Not Fade Away.wav

Peak level 99.6 %
Track quality 100.0 %
Test CRC 26CC7E9E
Copy CRC 26CC7E9E
Copy OK

Track 12
Filename H:\UPLOAD\Status Quo - Under The Influence (1999) [FLAC]\12 - The Way It Goes.wav

Peak level 99.6 %
Track quality 100.0 %
Test CRC 56228FCC
Copy CRC 56228FCC
Copy OK

No errors occured


End of status report



[CUETools log; Date: 2017. 03. 05. 22:12:57; Version: 2.1.6]
[CTDB TOCID: e7a.8KjXW8uVQbzWKxsJNoMSyQM-] found.
Track | CTDB Status
1 | (48/49) Accurately ripped
2 | (48/49) Accurately ripped
3 | (48/49) Accurately ripped
4 | (48/49) Accurately ripped
5 | (48/49) Accurately ripped
6 | (48/49) Accurately ripped
7 | (47/49) Accurately ripped
8 | (48/49) Accurately ripped
9 | (47/49) Accurately ripped
10 | (48/49) Accurately ripped
11 | (44/49) Accurately ripped, or (2/49) differs in 31 samples @02:57:09-02:57:10,03:08:36
12 | (45/49) Accurately ripped, or (2/49) differs in 1 samples @03:52:46
[AccurateRip ID: 00163db3-00cdcae0-920b5d0c] found.
Track [ CRC | V2 ] Status
01 [3b864bc2|2a2e92c6] (20+23/45) Accurately ripped
02 [844050d2|ab47f896] (20+23/45) Accurately ripped
03 [58d5bd66|7a149a0c] (20+23/45) Accurately ripped
04 [c21fb26a|3c6311a0] (20+23/45) Accurately ripped
05 [a465ba46|46263f9f] (20+23/45) Accurately ripped
06 [a84c3094|bb91fda0] (20+23/45) Accurately ripped
07 [1f9f496f|23d73545] (20+23/45) Accurately ripped
08 [92f0e7cd|ba5306e4] (20+23/45) Accurately ripped
09 [28b0dccf|4885708c] (20+23/45) Accurately ripped
10 [ea213806|5edba3a1] (20+23/45) Accurately ripped
11 [3349e243|750813d9] (20+23/45) Accurately ripped
12 [eabd0d00|4401036c] (19+23/44) Accurately ripped
Offsetted by -648:
01 [502cf5db] (02/45) Accurately ripped
02 [b50d19e5] (02/45) Accurately ripped
03 [38ab172f] (02/45) Accurately ripped
04 [8d1937fa] (02/45) Accurately ripped
05 [71a9ef7f] (02/45) Accurately ripped
06 [e5549e00] (02/45) Accurately ripped
07 [749abc92] (02/45) Accurately ripped
08 [feb48f25] (02/45) Accurately ripped
09 [730b9401] (02/45) Accurately ripped
10 [68c16d41] (02/45) Accurately ripped
11 [b17fee4d] (02/45) Accurately ripped
12 [b7f652a1] (00/44) No match (V2 was not tested)

Track Peak [ CRC32 ] [W/O NULL] [ LOG ]
– 99,6 [B41E6F97] [D608EAA4]
01 99,6 [E1FBA73E] [76893D33] CRC32
02 99,6 [4338A000] [38DBB6D3] CRC32
03 99,6 [3CEAD89D] [5F1C2066] CRC32
04 99,6 [A6CA3026] [EF080EFD] CRC32
05 99,6 [E6CB474B] [C055DADD] CRC32
06 99,6 [8786DE27] [78AD6D08] CRC32
07 99,6 [4F5F1DD3] [F47C8435] CRC32
08 99,6 [91ACD5DB] [0E6F4C26] CRC32
09 99,6 [0DFFECF4] [9AA2C8AE] CRC32
10 99,6 [4F4184C2] [F57AB6B6] CRC32
11 99,6 [26CC7E9E] [F6298EC1] CRC32
12 99,6 [56228FCC] [5D67B063] CRC32


Thx to oak13