Tags
Language
Tags

Stephane Grappelli - Plays Cole Porter [Recorded 1975-1976] (2001)

Posted By: gribovar
Stephane Grappelli - Plays Cole Porter [Recorded 1975-1976] (2001)

Stephane Grappelli - Plays Cole Porter [Recorded 1975-1976] (2001)
EAC Rip | FLAC (tracks+.cue+log) - 455 MB | Covers - 43 MB
Genre: Jazz | RAR 3% Rec. | Label: Universal Music (014 061-2)

These two 1975-1976 LPs reunited on 1 CD are to say the least very enjoyable. This is not the usual songbook devoted to the composer. Grappelli manages to play with those Porter tunes and ends up winning in the process to make them sounds his own with his instrument. It's a good example of the way a musician can pay tribute to a composer and let his personnality express his true musicianship, without losing grip of the general focus of the project.
Tracklist:
01. It's All Right With Me
02. You're The Top
03. Anything Goes
04. In The Still Of The Night
05. You've Got A Thing
06. Miss Otis Regrets
07. I've Got You Under My Skin
08. Love For Sale
09. Easy To Love
10. You'd Be So Nice To Come Home To
11. Let's Do It, Let's Fall In Love
12. My Heart Belongs To Daddy

Total time: 01:14:36

Exact Audio Copy V1.0 beta 1 from 15. November 2010

EAC extraction logfile from 15. January 2012, 11:59

Stephane Grappelli / Stephane Grappelli plays Cole Porter

Used drive : HL-DT-STDVD+-RW GSA-T21N Adapter: 0 ID: 0

Read mode : Secure
Utilize accurate stream : Yes
Defeat audio cache : Yes
Make use of C2 pointers : No

Read offset correction : 667
Overread into Lead-In and Lead-Out : No
Fill up missing offset samples with silence : Yes
Delete leading and trailing silent blocks : No
Null samples used in CRC calculations : Yes
Used interface : Native Win32 interface for Win NT & 2000
Gap handling : Appended to previous track

Used output format : User Defined Encoder
Selected bitrate : 896 kBit/s
Quality : High
Add ID3 tag : No
Command line compressor : C:\Program Files\Audio\Exact Audio Copy\Flac\flac.exe
Additional command line options : -8 -V -T "ARTIST=%a" -T "TITLE=%t" -T "ALBUM=%g" -T "DATE=%y" -T "TRACKNUMBER=%n" -T "TOTALTRACKS=%x" -T "GENRE=%m" -T "ALBUMARTIST=%v" -T "ALBUM ARTIST=%v" -T "COMMENT=EAC Secure Mode, Test & Copy, AccurateRip, FLAC -8" %s


TOC of the extracted CD

Track | Start | Length | Start sector | End sector
––––––––––––––––––––––––––––-
1 | 0:00.00 | 6:11.29 | 0 | 27853
2 | 6:11.29 | 4:45.21 | 27854 | 49249
3 | 10:56.50 | 7:49.46 | 49250 | 84470
4 | 18:46.21 | 7:37.61 | 84471 | 118806
5 | 26:24.07 | 6:41.54 | 118807 | 148935
6 | 33:05.61 | 4:43.51 | 148936 | 170211
7 | 37:49.37 | 10:16.21 | 170212 | 216432
8 | 48:05.58 | 3:28.00 | 216433 | 232032
9 | 51:33.58 | 4:53.48 | 232033 | 254055
10 | 56:27.31 | 5:51.59 | 254056 | 280439
11 | 62:19.15 | 6:49.68 | 280440 | 311182
12 | 69:09.08 | 5:27.06 | 311183 | 335713


Track 1

Filename C:\Torrents\Stephane Grappelli - Stephane Grappelli plays Cole Porter (1975-76) [FLAC] {Gitanes 014 061-2}\01 - It's all right with me.wav

Pre-gap length 0:00:02.00

Peak level 80.0 %
Extraction speed 3.1 X
Track quality 100.0 %
Test CRC 10642433
Copy CRC 10642433
Accurately ripped (confidence 4) [518F6663]
Copy OK

Track 2

Filename C:\Torrents\Stephane Grappelli - Stephane Grappelli plays Cole Porter (1975-76) [FLAC] {Gitanes 014 061-2}\02 - You're the top.wav

Pre-gap length 0:00:02.00

Peak level 72.2 %
Extraction speed 3.4 X
Track quality 100.0 %
Test CRC EF2640BF
Copy CRC EF2640BF
Accurately ripped (confidence 4) [766AEDD3]
Copy OK

Track 3

Filename C:\Torrents\Stephane Grappelli - Stephane Grappelli plays Cole Porter (1975-76) [FLAC] {Gitanes 014 061-2}\03 - Anything goes.wav

Pre-gap length 0:00:02.00

Peak level 87.2 %
Extraction speed 4.0 X
Track quality 100.0 %
Test CRC 58EEA252
Copy CRC 58EEA252
Accurately ripped (confidence 4) [3C026234]
Copy OK

Track 4

Filename C:\Torrents\Stephane Grappelli - Stephane Grappelli plays Cole Porter (1975-76) [FLAC] {Gitanes 014 061-2}\04 - In the still of the night.wav

Pre-gap length 0:00:02.00

Peak level 80.9 %
Extraction speed 4.3 X
Track quality 100.0 %
Test CRC 4B97080B
Copy CRC 4B97080B
Accurately ripped (confidence 4) [52CFAAEC]
Copy OK

Track 5

Filename C:\Torrents\Stephane Grappelli - Stephane Grappelli plays Cole Porter (1975-76) [FLAC] {Gitanes 014 061-2}\05 - You've got a thing.wav

Pre-gap length 0:00:02.00

Peak level 86.7 %
Extraction speed 4.6 X
Track quality 100.0 %
Test CRC 4230F077
Copy CRC 4230F077
Accurately ripped (confidence 4) [B0AD2C74]
Copy OK

Track 6

Filename C:\Torrents\Stephane Grappelli - Stephane Grappelli plays Cole Porter (1975-76) [FLAC] {Gitanes 014 061-2}\06 - Miss Otis regrets.wav

Pre-gap length 0:00:02.00

Peak level 70.5 %
Extraction speed 4.8 X
Track quality 100.0 %
Test CRC 452DDAEB
Copy CRC 452DDAEB
Accurately ripped (confidence 4) [7ABB0E44]
Copy OK

Track 7

Filename C:\Torrents\Stephane Grappelli - Stephane Grappelli plays Cole Porter (1975-76) [FLAC] {Gitanes 014 061-2}\07 - I've got you under my skin.wav

Pre-gap length 0:00:04.00

Peak level 89.7 %
Extraction speed 4.9 X
Track quality 99.9 %
Test CRC AB4C4FE7
Copy CRC AB4C4FE7
Accurately ripped (confidence 4) [4D13756E]
Copy OK

Track 8

Filename C:\Torrents\Stephane Grappelli - Stephane Grappelli plays Cole Porter (1975-76) [FLAC] {Gitanes 014 061-2}\08 - Love for sale.wav

Pre-gap length 0:00:02.00

Peak level 79.5 %
Extraction speed 5.1 X
Track quality 100.0 %
Test CRC ECF7D6BC
Copy CRC ECF7D6BC
Accurately ripped (confidence 4) [F2AAB40F]
Copy OK

Track 9

Filename C:\Torrents\Stephane Grappelli - Stephane Grappelli plays Cole Porter (1975-76) [FLAC] {Gitanes 014 061-2}\09 - Easy to love.wav

Pre-gap length 0:00:02.00

Peak level 80.5 %
Extraction speed 5.4 X
Track quality 100.0 %
Test CRC 69936C57
Copy CRC 69936C57
Accurately ripped (confidence 4) [E5CFA4F7]
Copy OK

Track 10

Filename C:\Torrents\Stephane Grappelli - Stephane Grappelli plays Cole Porter (1975-76) [FLAC] {Gitanes 014 061-2}\10 - You'd be so nice to come home to.wav

Pre-gap length 0:00:02.00

Peak level 90.2 %
Extraction speed 5.8 X
Track quality 100.0 %
Test CRC EE98CF3A
Copy CRC EE98CF3A
Accurately ripped (confidence 4) [E946D720]
Copy OK

Track 11

Filename C:\Torrents\Stephane Grappelli - Stephane Grappelli plays Cole Porter (1975-76) [FLAC] {Gitanes 014 061-2}\11 - Let's do it, let's fall in love.wav

Pre-gap length 0:00:02.00

Peak level 89.2 %
Extraction speed 6.1 X
Track quality 100.0 %
Test CRC ECC17278
Copy CRC ECC17278
Accurately ripped (confidence 4) [B9A3D9EA]
Copy OK

Track 12

Filename C:\Torrents\Stephane Grappelli - Stephane Grappelli plays Cole Porter (1975-76) [FLAC] {Gitanes 014 061-2}\12 - My heart belongs to daddy.wav

Pre-gap length 0:00:02.00

Peak level 79.7 %
Extraction speed 6.1 X
Track quality 100.0 %
Test CRC 7411E8F4
Copy CRC 7411E8F4
Accurately ripped (confidence 4) [BA38CC12]
Copy OK


All tracks accurately ripped

No errors occurred

End of status report

==== Log checksum 219773099B67FBA520D8CF3A31B48DC8EE43C799F8E3A9EBB1F6DA22D93D9C0A ====

[CUETools log; Date: 24.05.2018 19:52:43; Version: 2.1.4]
[CTDB TOCID: VV2Y2QKmxf5dsOGwsv2GbVmjCKM-] found.
Track | CTDB Status
1 | (43/46) Accurately ripped
2 | (45/46) Accurately ripped
3 | (45/46) Accurately ripped
4 | (43/46) Accurately ripped
5 | (44/46) Accurately ripped
6 | (45/46) Accurately ripped
7 | (44/46) Accurately ripped
8 | (44/46) Accurately ripped
9 | (44/46) Accurately ripped
10 | (42/46) Accurately ripped
11 | (45/46) Accurately ripped
12 | (45/46) Accurately ripped
[AccurateRip ID: 0022048d-013cd5d5-c2117c0c] found.
Track [ CRC | V2 ] Status
01 [518f6663|22014abc] (04+05/43) Accurately ripped
02 [766aedd3|7e5aba08] (04+05/42) Accurately ripped
03 [3c026234|0639d42a] (04+05/43) Accurately ripped
04 [52cfaaec|d3032f11] (04+05/43) Accurately ripped
05 [b0ad2c74|d5d49ea4] (04+05/42) Accurately ripped
06 [7abb0e44|2c02890b] (04+05/43) Accurately ripped
07 [4d13756e|6a952c32] (04+05/43) Accurately ripped
08 [f2aab40f|2d4f84c6] (04+05/41) Accurately ripped
09 [e5cfa4f7|6c2ac4fc] (04+05/43) Accurately ripped
10 [e946d720|12a28fc8] (04+05/43) Accurately ripped
11 [b9a3d9ea|013d9072] (04+05/42) Accurately ripped
12 [ba38cc12|a3443fb0] (04+05/42) Accurately ripped
Offsetted by 670:
01 [544421fb] (10/43) Accurately ripped
02 [9907073d] (10/42) Accurately ripped
03 [885ee92a] (10/43) Accurately ripped
04 [e894d970] (10/43) Accurately ripped
05 [092a309e] (10/42) Accurately ripped
06 [957eaf5c] (10/43) Accurately ripped
07 [19e6c540] (10/43) Accurately ripped
08 [a5d0cf5b] (09/41) Accurately ripped
09 [05377e0d] (10/43) Accurately ripped
10 [c17e315c] (10/43) Accurately ripped
11 [e62c8a1c] (09/42) Accurately ripped
12 [53f9a164] (10/42) Accurately ripped
Offsetted by -9:
01 [82d0384f] (00/43) No match (V2 was not tested)
02 [f9643f40] (00/42) No match (V2 was not tested)
03 [eb824977] (00/43) No match (V2 was not tested)
04 [d50099de] (00/43) No match (V2 was not tested)
05 [ddb87c41] (00/42) No match (V2 was not tested)
06 [2ba924f0] (00/43) No match (V2 was not tested)
07 [b3c805ef] (00/43) No match (V2 was not tested)
08 [4451edc5] (00/41) No match (V2 was not tested)
09 [54f59aca] (00/43) No match (V2 was not tested)
10 [15c05d8e] (00/43) No match (V2 was not tested)
11 [5551031b] (00/42) No match (V2 was not tested)
12 [c1b57153] (00/42) No match (V2 was not tested)
Offsetted by 3:
01 [412475bf] (00/43) No match (V2 was not tested)
02 [f56d2804] (00/42) No match (V2 was not tested)
03 [01826a73] (00/43) No match (V2 was not tested)
04 [7cbf5b46] (00/43) No match (V2 was not tested)
05 [f6febc85] (00/42) No match (V2 was not tested)
06 [ea6bb160] (00/43) No match (V2 was not tested)
07 [2ad74543] (00/43) No match (V2 was not tested)
08 [2cc84b7d] (00/41) No match (V2 was not tested)
09 [16185306] (00/43) No match (V2 was not tested)
10 [2fc8ffa6] (00/43) No match (V2 was not tested)
11 [db14cc2f] (00/42) No match (V2 was not tested)
12 [0d0f3fa7] (00/42) No match (V2 was not tested)
Offsetted by 604:
01 [bd74d013] (00/43) No match (V2 was not tested)
02 [aed60707] (00/42) No match (V2 was not tested)
03 [8f5e33c0] (00/43) No match (V2 was not tested)
04 [4dfbb1b4] (00/43) No match (V2 was not tested)
05 [fe27cf28] (00/42) No match (V2 was not tested)
06 [fc50aaf4] (00/43) No match (V2 was not tested)
07 [0b12e8f2] (00/43) No match (V2 was not tested)
08 [a745cbe7] (00/41) No match (V2 was not tested)
09 [def888c3] (00/43) No match (V2 was not tested)
10 [b24eb5d8] (00/43) No match (V2 was not tested)
11 [0677b82e] (00/42) No match (V2 was not tested)
12 [358bb296] (00/42) No match (V2 was not tested)
Offsetted by 635:
01 [6923c41f] (00/43) No match (V2 was not tested)
02 [2497b5ac] (00/42) No match (V2 was not tested)
03 [8833de4b] (00/43) No match (V2 was not tested)
04 [ff532556] (00/43) No match (V2 was not tested)
05 [d4c7f52d] (00/42) No match (V2 was not tested)
06 [291c95c0] (00/43) No match (V2 was not tested)
07 [53fa4c8b] (00/43) No match (V2 was not tested)
08 [ffcce8ad] (00/41) No match (V2 was not tested)
09 [d1e78f5e] (00/43) No match (V2 was not tested)
10 [e03a5896] (00/43) No match (V2 was not tested)
11 [6006d4f7] (00/42) No match (V2 was not tested)
12 [e2de5cef] (00/42) No match (V2 was not tested)

Track Peak [ CRC32 ] [W/O NULL] [ LOG ]
– 90,2 [B5BCCF07] [6CBE89C7]
01 80,0 [10642433] [1B73E575] CRC32
02 72,2 [EF2640BF] [E48F3E19] CRC32
03 87,2 [58EEA252] [6DF137EC] CRC32
04 80,9 [4B97080B] [409C7684] CRC32
05 86,7 [4230F077] [F3B06C9F] CRC32
06 70,5 [452DDAEB] [D7CF436B] CRC32
07 89,7 [AB4C4FE7] [B3246CD8] CRC32
08 79,5 [ECF7D6BC] [B17C1BD3] CRC32
09 80,5 [69936C57] [F48D0528] CRC32
10 90,2 [EE98CF3A] [42BFAD37] CRC32
11 89,2 [ECC17278] [E86A2447] CRC32
12 79,7 [7411E8F4] [6941BA33] CRC32

Thanks to the original releaser

See also:
Stephane Grappelli - Improvisations (1957) [Reissue 2000]
Oscar Peterson - Stephane Grap...ol. 1-2 [Recorded 1973] (2001)