Tags
Language
Tags

Stephen Cleobury, Academy of Ancient Music, Choir of King's College Cambridge - Bach: St. Matthew Passion (2020)

Posted By: ArlegZ
Stephen Cleobury, Academy of Ancient Music, Choir of King's College Cambridge - Bach: St. Matthew Passion (2020)

Stephen Cleobury, Academy of Ancient Music, Choir of King's College Cambridge - Johann Sebastian Bach: St. Matthew Passion (2020)
EAC | FLAC | Image (Cue & Log) ~ 722 Mb | Total time: 163:36 | Scans included
Classical | Label: Kings College | KGS0037 | Recorded: 2019

Recorded before Sir Stephen Cleobury’s untimely passing in November 2019, King’s College presents a new account of one of the greatest masterpieces in sacred music, Bach’s St Matthew Passion. For this recording Cleobury led the King’s Choir and the Academy of Ancient Music alongside some of the most outstanding British singers performing today, headed by one of the finest Evangelists of our time, James Gilchrist. The album is accompanied by a booklet with over 60 pages of texts and photographs, including a full translation by Michael Marissen and a specially-commissioned essay by John Butt.

Performer:
James Gilchrist, tenor (Evangelist)
Matthew Rose, bass (Jesus)
Sophie Bevan, soprano
David Allsopp, countertenor
Mark Le Brocq, tenor
William Gaunt, bass
King's College School Choir
The Choir of King's College, Cambridge
Academy of Ancient Music
Stephen Cleobury, conductor

Track List:
CD1:
PART I
01. No. 1. Kommt. ihr Töchter. helft mir klagen
02. No. 2. Da Jesus diese Rede vollendet hatte
03. No. 3. Herzliebster Jesu. was hast du verbrochen
04. No. 4. Da versammleten sich die Hohenpriester
05. No. 5. Du lieber Heiland du
06. No. 6. Buß und Reu
07. No. 7. Da ging hin der Zwölfen einer
08. No. 8. Blute nur. du liebes Herz
09. No. 9. Aber am ersten Tage der süßen Brot
10. No. 10. Ich bins. ich sollte büßen
11. No. 11. Er antwortete und sprach
12. No. 12. Wiewohl mein Herz in Tränen schwimmt
13. No. 13. Ich will dir mein Herze schenken
14. No. 14. Und da sie den Lobgesang gesprochen hatten
15. No. 15. Erkenne mich. mein Hüter
16. No. 16. Petrus aber antwortete und sprach zu ihm
17. No. 17. Ich will hier bei dir stehen
18. No. 18. Da kam Jesus mit ihnen zu einem Hofe
19. No. 19. O Schmerz! Hier zittert das gequälte Herz
20. No. 20. Ich will bei meinem Jesu wachen
21. No. 21. Und ging hin ein wenig
22. No. 22. Der Heiland fällt vor seinem Vater nieder
23. No. 23. Gerne will ich mich bequemen
24. No. 24. Und er kam zu seinen Jüngern
25. No. 25. Was mein Gott will. das g'scheh allzeit
26. No. 26. Und er kam und fand sie aber schlafend
27. No. 27. So ist mein Jesus nun gefangen
28. No. 28. Und siehe. einer aus denen
29. No. 29. O Mensch. bewein dein Sünde groß
CD2:
PART II
01. No. 30, Ach, nun ist mein Jesus hin
02. No. 31. Die aber Jesum gegriffen hatten
03. No. 32. Mir hat die Welt trüglich gericht'
04. No. 33. Und wiewohl viel falsche Zeugen herzutraten
05. No. 34. Mein Jesus schweigt
06. No. 35. Geduld! Wenn mich falsche Zungen stechen
07. No. 36. Und der Hohepriester antwortete
08. No. 37. Wer hat dich so geschlagen
09. No. 38. Petrus aber saß draußen im Palast
10. No. 39. Erbarme dich. mein Gott
11. No. 40. Bin ich gleich von dir gewichen
12. No. 41. Des Morgens aber hielten alle Hohepriester
13. No. 42. Gebt mir meinen Jesum wieder
14. No. 43. Sie hielten aber einen Rat
15. No. 44. Befiehl du deine Wege
16. No. 45. Auf das Fest aber hatte der Landpfleger Gewohnheit
17. No. 46. Wie wunderbarlich ist doch diese Strafe
18. No. 47. Der Landpfleger sagte
19. No. 48. Er hat uns allen wohlgetan
20. No. 49. Aus Liebe will mein Heiland sterben
21. No. 50. Sie schrieen aber noch mehr
22. No. 51. Erbarm es Gott
23. No. 52. Können Tränen meiner Wangen
CD3:
01. No. 53. Da nahmen die Kriegsknechte des Landpflegers
02. No. 54. O Haupt voll Blut und Wunden
03. No. 55. Und da sie ihn verspottet hatten
04. No. 56. Ja freilich will in uns das Fleisch und Blut
05. No. 57. Komm. süßes Kreuz. so will ich sagen
06. No. 58. Und da sie an die Stätte kamen
07. No. 59. Ach Golgatha. unselges Golgatha
08. No. 60. Sehet. Jesus hat die Hand
09. No. 61. Und von der sechsten Stunde an
10. No. 62. Wenn ich einmal soll scheiden
11. No. 63. Und siehe da. der Vorhang im Tempel zerriß
12. No. 64. Am Abend. da es kühle war
13. No. 65. Mache dich. mein Herze. rein
14. No. 66. Und Joseph nahm den Leib
15. No. 67. Nun ist der Herr zur Ruh gebracht
16. No. 68. Wir setzen uns mit Tränen nieder


Exact Audio Copy V1.5 from 20. February 2020

EAC extraction logfile from 13. May 2020, 7:13

Stephen Cleobury / Bach - St Matthew Passion

Used drive : HL-DT-STBD-RE WH16NS40 Adapter: 1 ID: 0

Read mode : Secure
Utilize accurate stream : Yes
Defeat audio cache : Yes
Make use of C2 pointers : No

Read offset correction : 6
Overread into Lead-In and Lead-Out : No
Fill up missing offset samples with silence : Yes
Delete leading and trailing silent blocks : No
Null samples used in CRC calculations : Yes
Used interface : Native Win32 interface for Win NT & 2000

Used output format : User Defined Encoder
Selected bitrate : 1024 kBit/s
Quality : High
Add ID3 tag : No
Command line compressor : C:\Program Files (x86)\Exact Audio Copy\FLAC\FLAC.EXE
Additional command line options : -6 -V -T "ARTIST=%artist%" -T "TITLE=%title%" -T "ALBUM=%albumtitle%" -T "DATE=%year%" -T "TRACKNUMBER=%tracknr%" -T "GENRE=%genre%" -T "COMMENT=%comment%" -T "BAND=%albuminterpret%" -T "ALBUMARTIST=%albuminterpret%" -T "COMPOSER=%composer%" %haslyrics%–tag-from-file=LYRICS="%lyricsfile%"%haslyrics% -T "DISCNUMBER=%cdnumber%" -T "TOTALDISCS=%totalcds%" -T "TOTALTRACKS=%numtracks%" %hascover%–picture="%coverfile%"%hascover% %source% -o %dest%


TOC of the extracted CD

Track | Start | Length | Start sector | End sector
––––––––––––––––––––––––––––-
1 | 0:00.00 | 6:58.24 | 0 | 31373
2 | 6:58.24 | 0:37.57 | 31374 | 34205
3 | 7:36.06 | 0:39.66 | 34206 | 37196
4 | 8:15.72 | 3:03.61 | 37197 | 50982
5 | 11:19.58 | 0:51.45 | 50983 | 54852
6 | 12:11.28 | 4:09.66 | 54853 | 73593
7 | 16:21.19 | 0:39.43 | 73594 | 76561
8 | 17:00.62 | 4:36.42 | 76562 | 97303
9 | 21:37.29 | 2:13.65 | 97304 | 107343
10 | 23:51.19 | 0:45.06 | 107344 | 110724
11 | 24:36.25 | 3:00.41 | 110725 | 124265
12 | 27:36.66 | 1:26.40 | 124266 | 130755
13 | 29:03.31 | 3:45.69 | 130756 | 147699
14 | 32:49.25 | 1:05.24 | 147700 | 152598
15 | 33:54.49 | 0:54.57 | 152599 | 156705
16 | 34:49.31 | 1:06.01 | 156706 | 161656
17 | 35:55.32 | 0:56.59 | 161657 | 165915
18 | 36:52.16 | 1:36.30 | 165916 | 173145
19 | 38:28.46 | 2:01.11 | 173146 | 182231
20 | 40:29.57 | 5:04.26 | 182232 | 205057
21 | 45:34.08 | 0:40.73 | 205058 | 208130
22 | 46:15.06 | 0:56.32 | 208131 | 212362
23 | 47:11.38 | 4:08.23 | 212363 | 230985
24 | 51:19.61 | 1:10.15 | 230986 | 236250
25 | 52:30.01 | 1:00.29 | 236251 | 240779
26 | 53:30.30 | 2:19.41 | 240780 | 251245
27 | 55:49.71 | 4:32.29 | 251246 | 271674
28 | 60:22.25 | 2:10.65 | 271675 | 281489
29 | 62:33.15 | 6:12.36 | 281490 | 309425


Range status and errors

Selected range

Filename C:\Users\Grant\Desktop\Stephen Cleobury - Bach - St Matthew Passion.wav

Peak level 98.7 %
Extraction speed 8.5 X
Range quality 100.0 %
Test CRC 71F41E79
Copy CRC 71F41E79
Copy OK

No errors occurred


AccurateRip summary

Track 1 not present in database
Track 2 not present in database
Track 3 not present in database
Track 4 not present in database
Track 5 not present in database
Track 6 not present in database
Track 7 not present in database
Track 8 not present in database
Track 9 not present in database
Track 10 not present in database
Track 11 not present in database
Track 12 not present in database
Track 13 not present in database
Track 14 not present in database
Track 15 not present in database
Track 16 not present in database
Track 17 not present in database
Track 18 not present in database
Track 19 not present in database
Track 20 not present in database
Track 21 not present in database
Track 22 not present in database
Track 23 not present in database
Track 24 not present in database
Track 25 not present in database
Track 26 not present in database
Track 27 not present in database
Track 28 not present in database
Track 29 not present in database

None of the tracks are present in the AccurateRip database

End of status report

–– CUETools DB Plugin V2.1.6

[CTDB TOCID: .8j6YD8eSXrbYZ0j.yFvkvdoU2A-] found
Submit result: .8j6YD8eSXrbYZ0j.yFvkvdoU2A- has been confirmed
Track | CTDB Status
1 | (1/1) Accurately ripped
2 | (1/1) Accurately ripped
3 | (1/1) Accurately ripped
4 | (1/1) Accurately ripped
5 | (1/1) Accurately ripped
6 | (1/1) Accurately ripped
7 | (1/1) Accurately ripped
8 | (1/1) Accurately ripped
9 | (1/1) Accurately ripped
10 | (1/1) Accurately ripped
11 | (1/1) Accurately ripped
12 | (1/1) Accurately ripped
13 | (1/1) Accurately ripped
14 | (1/1) Accurately ripped
15 | (1/1) Accurately ripped
16 | (1/1) Accurately ripped
17 | (1/1) Accurately ripped
18 | (1/1) Accurately ripped
19 | (1/1) Accurately ripped
20 | (1/1) Accurately ripped
21 | (1/1) Accurately ripped
22 | (1/1) Accurately ripped
23 | (1/1) Accurately ripped
24 | (1/1) Accurately ripped
25 | (1/1) Accurately ripped
26 | (1/1) Accurately ripped
27 | (1/1) Accurately ripped
28 | (1/1) Accurately ripped
29 | (1/1) Accurately ripped


==== Log checksum 3F81AB3CAADC22CA7FAC111C0D173903AA07332746A12156D18B66486CC46181 ====


Exact Audio Copy V1.5 from 20. February 2020

EAC extraction logfile from 13. May 2020, 7:31

Stephen Cleobury / Bach - St Matthew Passion CD2

Used drive : HL-DT-STBD-RE WH16NS40 Adapter: 1 ID: 0

Read mode : Secure
Utilize accurate stream : Yes
Defeat audio cache : Yes
Make use of C2 pointers : No

Read offset correction : 6
Overread into Lead-In and Lead-Out : No
Fill up missing offset samples with silence : Yes
Delete leading and trailing silent blocks : No
Null samples used in CRC calculations : Yes
Used interface : Native Win32 interface for Win NT & 2000

Used output format : User Defined Encoder
Selected bitrate : 1024 kBit/s
Quality : High
Add ID3 tag : No
Command line compressor : C:\Program Files (x86)\Exact Audio Copy\FLAC\FLAC.EXE
Additional command line options : -6 -V -T "ARTIST=%artist%" -T "TITLE=%title%" -T "ALBUM=%albumtitle%" -T "DATE=%year%" -T "TRACKNUMBER=%tracknr%" -T "GENRE=%genre%" -T "COMMENT=%comment%" -T "BAND=%albuminterpret%" -T "ALBUMARTIST=%albuminterpret%" -T "COMPOSER=%composer%" %haslyrics%–tag-from-file=LYRICS="%lyricsfile%"%haslyrics% -T "DISCNUMBER=%cdnumber%" -T "TOTALDISCS=%totalcds%" -T "TOTALTRACKS=%numtracks%" %hascover%–picture="%coverfile%"%hascover% %source% -o %dest%


TOC of the extracted CD

Track | Start | Length | Start sector | End sector
––––––––––––––––––––––––––––-
1 | 0:00.00 | 3:50.49 | 0 | 17298
2 | 3:50.49 | 1:08.06 | 17299 | 22404
3 | 4:58.55 | 0:40.62 | 22405 | 25466
4 | 5:39.42 | 1:18.55 | 25467 | 31371
5 | 6:58.22 | 1:04.58 | 31372 | 36229
6 | 8:03.05 | 3:32.39 | 36230 | 52168
7 | 11:35.44 | 2:03.47 | 52169 | 61440
8 | 13:39.16 | 0:44.16 | 61441 | 64756
9 | 14:23.32 | 2:31.00 | 64757 | 76081
10 | 16:54.32 | 6:20.64 | 76082 | 104645
11 | 23:15.21 | 0:57.24 | 104646 | 108944
12 | 24:12.45 | 1:55.54 | 108945 | 117623
13 | 26:08.24 | 2:52.01 | 117624 | 130524
14 | 29:00.25 | 2:03.34 | 130525 | 139783
15 | 31:03.59 | 0:55.71 | 139784 | 143979
16 | 31:59.55 | 2:28.59 | 143980 | 155138
17 | 34:28.39 | 0:39.36 | 155139 | 158099
18 | 35:08.00 | 0:14.59 | 158100 | 159208
19 | 35:22.59 | 1:10.41 | 159209 | 164499
20 | 36:33.25 | 5:07.21 | 164500 | 187545
21 | 41:40.46 | 2:04.06 | 187546 | 196851
22 | 43:44.52 | 0:58.17 | 196852 | 201218
23 | 44:42.69 | 6:36.10 | 201219 | 230928


Range status and errors

Selected range

Filename C:\Users\Grant\Desktop\Stephen Cleobury - Bach - St Matthew Passion CD2.wav

Peak level 98.7 %
Extraction speed 8.0 X
Range quality 100.0 %
Test CRC 6284C237
Copy CRC 6284C237
Copy OK

No errors occurred


AccurateRip summary

Track 1 not present in database
Track 2 not present in database
Track 3 not present in database
Track 4 not present in database
Track 5 not present in database
Track 6 not present in database
Track 7 not present in database
Track 8 not present in database
Track 9 not present in database
Track 10 not present in database
Track 11 not present in database
Track 12 not present in database
Track 13 not present in database
Track 14 not present in database
Track 15 not present in database
Track 16 not present in database
Track 17 not present in database
Track 18 not present in database
Track 19 not present in database
Track 20 not present in database
Track 21 not present in database
Track 22 not present in database
Track 23 not present in database

None of the tracks are present in the AccurateRip database

End of status report

–– CUETools DB Plugin V2.1.6

[CTDB TOCID: tdx1OMS.NxmYG77KCyfSViTGPmo-] found
Submit result: tdx1OMS.NxmYG77KCyfSViTGPmo- has been confirmed
Track | CTDB Status
1 | (1/1) Accurately ripped
2 | (1/1) Accurately ripped
3 | (1/1) Accurately ripped
4 | (1/1) Accurately ripped
5 | (1/1) Accurately ripped
6 | (1/1) Accurately ripped
7 | (1/1) Accurately ripped
8 | (1/1) Accurately ripped
9 | (1/1) Accurately ripped
10 | (1/1) Accurately ripped
11 | (1/1) Accurately ripped
12 | (1/1) Accurately ripped
13 | (1/1) Accurately ripped
14 | (1/1) Accurately ripped
15 | (1/1) Accurately ripped
16 | (1/1) Accurately ripped
17 | (1/1) Accurately ripped
18 | (1/1) Accurately ripped
19 | (1/1) Accurately ripped
20 | (1/1) Accurately ripped
21 | (1/1) Accurately ripped
22 | (1/1) Accurately ripped
23 | (1/1) Accurately ripped


==== Log checksum EA7C730E5941F9FA094113493C0D2A18C233BBC0C4E25B87836A7F671A02DDCE ====


Exact Audio Copy V1.5 from 20. February 2020

EAC extraction logfile from 13. May 2020, 7:47

Stephen Cleobury / Bach - St Matthew Passion CD3

Used drive : HL-DT-STBD-RE WH16NS40 Adapter: 1 ID: 0

Read mode : Secure
Utilize accurate stream : Yes
Defeat audio cache : Yes
Make use of C2 pointers : No

Read offset correction : 6
Overread into Lead-In and Lead-Out : No
Fill up missing offset samples with silence : Yes
Delete leading and trailing silent blocks : No
Null samples used in CRC calculations : Yes
Used interface : Native Win32 interface for Win NT & 2000

Used output format : User Defined Encoder
Selected bitrate : 1024 kBit/s
Quality : High
Add ID3 tag : No
Command line compressor : C:\Program Files (x86)\Exact Audio Copy\FLAC\FLAC.EXE
Additional command line options : -6 -V -T "ARTIST=%artist%" -T "TITLE=%title%" -T "ALBUM=%albumtitle%" -T "DATE=%year%" -T "TRACKNUMBER=%tracknr%" -T "GENRE=%genre%" -T "COMMENT=%comment%" -T "BAND=%albuminterpret%" -T "ALBUMARTIST=%albuminterpret%" -T "COMPOSER=%composer%" %haslyrics%–tag-from-file=LYRICS="%lyricsfile%"%haslyrics% -T "DISCNUMBER=%cdnumber%" -T "TOTALDISCS=%totalcds%" -T "TOTALTRACKS=%numtracks%" %hascover%–picture="%coverfile%"%hascover% %source% -o %dest%


TOC of the extracted CD

Track | Start | Length | Start sector | End sector
––––––––––––––––––––––––––––-
1 | 0:00.00 | 1:15.25 | 0 | 5649
2 | 1:15.25 | 1:57.58 | 5650 | 14482
3 | 3:13.08 | 1:09.44 | 14483 | 19701
4 | 4:22.52 | 0:40.34 | 19702 | 22735
5 | 5:03.11 | 5:13.16 | 22736 | 46226
6 | 10:16.27 | 3:43.28 | 46227 | 62979
7 | 13:59.55 | 1:24.50 | 62980 | 69329
8 | 15:24.30 | 3:29.50 | 69330 | 85054
9 | 18:54.05 | 2:22.02 | 85055 | 95706
10 | 21:16.07 | 1:06.24 | 95707 | 100680
11 | 22:22.31 | 2:42.20 | 100681 | 112850
12 | 25:04.51 | 1:48.73 | 112851 | 121023
13 | 26:53.49 | 6:42.34 | 121024 | 151207
14 | 33:36.08 | 2:49.27 | 151208 | 163909
15 | 36:25.35 | 1:42.67 | 163910 | 171626
16 | 38:08.27 | 5:23.07 | 171627 | 195858


Range status and errors

Selected range

Filename C:\Users\Grant\Desktop\Stephen Cleobury - Bach - St Matthew Passion CD3.wav

Peak level 98.7 %
Extraction speed 7.7 X
Range quality 100.0 %
Test CRC C09B1CAA
Copy CRC C09B1CAA
Copy OK

No errors occurred


AccurateRip summary

Track 1 not present in database
Track 2 not present in database
Track 3 not present in database
Track 4 not present in database
Track 5 not present in database
Track 6 not present in database
Track 7 not present in database
Track 8 not present in database
Track 9 not present in database
Track 10 not present in database
Track 11 not present in database
Track 12 not present in database
Track 13 not present in database
Track 14 not present in database
Track 15 not present in database
Track 16 not present in database

None of the tracks are present in the AccurateRip database

End of status report

–– CUETools DB Plugin V2.1.6

[CTDB TOCID: hXxuLzvVtVLzaZLi4dEHquIxRZo-] found
Submit result: hXxuLzvVtVLzaZLi4dEHquIxRZo- has been confirmed
Track | CTDB Status
1 | (1/1) Accurately ripped
2 | (1/1) Accurately ripped
3 | (1/1) Accurately ripped
4 | (1/1) Accurately ripped
5 | (1/1) Accurately ripped
6 | (1/1) Accurately ripped
7 | (1/1) Accurately ripped
8 | (1/1) Accurately ripped
9 | (1/1) Accurately ripped
10 | (1/1) Accurately ripped
11 | (1/1) Accurately ripped
12 | (1/1) Accurately ripped
13 | (1/1) Accurately ripped
14 | (1/1) Accurately ripped
15 | (1/1) Accurately ripped
16 | (1/1) Accurately ripped


==== Log checksum 210FAEE0F2A44ECE37FA5D5F2E40CA4A6823720696247AD1EDC595397A4CAF7F ====

Stephen Cleobury, Academy of Ancient Music, Choir of King's College Cambridge - Bach: St. Matthew Passion (2020)

Thanks to the original releaser