Tags
Language
Tags

Stephen Stubbs, Paul O’Dette, Boston Early Music Festival Orchestra - Handel: Almira (2020)

Posted By: ArlegZ
Stephen Stubbs, Paul O’Dette, Boston Early Music Festival Orchestra - Handel: Almira (2020)

Stephen Stubbs, Paul O’Dette, Boston Early Music Festival Orchestra - Handel: Almira (2020)
EAC | FLAC | Image (Cue & Log) ~ 1.17 Gb | Total time: 241:55 | Scans included
Classical | Label: CPO | 555 205-2 | Recorded: 2018

The Boston Early Music Festival has recorded George Frideric Handel’s very first opera, Almira, Queen of Castile, with a superlatively sumptuous ensemble. For its previous recordings of Baroque operas this successful ensemble has won prizes such as the Grammy, the German Record Critics Annual Prize, and the Echo Klassik. The Hungarian soprano Emõke Baráth sings the role of Almira with a choice ensemble of singers, all of whom have performed in the world’s most renowned concert halls and opera houses. Handel’s Almira is based on a freely invented plot featuring fine entertainment in the form of love and marriage schemes among the nobility, infidelity and mistaken identities, and a happy ending brought about by a court servant’s negotiations. This work was presented at the Hamburg Opera House in 1705 about twenty times and with great success.

Performer:
Almira - Emőke Baráth (soprano)
Edilia - Amanda Forsythe (soprano)
Fernando - Colin Balzer (tenor)
Consalvo - Christian Immler (baritone)
Osman - Zachary Wilder (tenor)
Raymondo - Jesse Blumberg (baritone)
Bellante - Teresa Wakim (soprano)
Tabarco - Jan Kobow (tenor)
Boston Early Music Festival Orchestra
Robert Mealy, concertmaster
Paul O’Dette & Stephen Stubbs, musical directors

Track List:
CD1:
Erster Handlung / Act One
01. Ouverture
Erster Auftritt / Scene One
02. Recitativo: Durchlauchtigste (Consalvo)
03. Aria: Almire regiere (Consalvo)
04. Coro: Viva Almira
05. Chaconne
06. Sarabande
Zweiter Auftritt / Scene Two
07. Recitativo: Die Nachwelt (Almira, Consalvo, Osman, Fernando)
08. Aria: Ach wiltu die Herzen (Osman)
09. Recitativo: Du hebst mich, grosse Königin (Fernando, Almira)
10. Aria: So ben che regnante (Fernando)
Dritter Auftritt / Scene Three
11. Recitativo: Durchlauchtigste, des Vaters letzten Willen (Consalvo, Almira)
12. Aria: Leset, ihr funkelnden Augen (Consalvo)
13. Recitativo: Ach, Schmerz! (Almira)
14. Aria: Chi più mi piace (Almira)
Vierter Auftritt / Scene Four
15. Aria: Schönste Rosen (Edilia)
16. Recitativo: Ist hier Edilia? (Osman, Edilia)
17. Aria: Du irrst dich, mein Licht (Osman)
18. Recitativo: Ich bin versöhnt (Edilia, Osman)
19. Aria: Proverai (Edilia)
20. Recitativo: Schäum’ immer Gift und Gallen (Osman)
21. Aria: Zürne was hin (Osman)
Fünfter Auftritt / Scene Five
22. Aria: Liebliche Wälder (Fernando)
23. Recitativo: Die Königin ist meiner Liebe Ziel (Fernando)
Sechster Auftritt / Scene Six
24. Aria: Vollkommene Hände (Almira)
25. Recitativo: ICH LIEBE DI… (Fernando, Almira)
26 Aria: Geloso tormento (Almira)
Siebter Auftritt / Scene Seven
27. Recitativo: Auf diesen angenehmen Wegen (Consalvo, Edilia)
28. Aria: Wer um Geld und Hoheit willen (Consalvo)
29. Recitativo: Ich stimme solchen Worten bei (Edilia)
30. Aria: Più non vuo (Edilia)
CD2:
Achter Auftritt / Scene Eight
01. Ritornello
02. Recitativo: Weil es die Königin befohlen (Tabarco)
03. Aria: Am Hofe zu heissen galant (Tabarco)
Neunter Auftritt / Scene Nine
04. Recitativo: Auf, auf, mein Herz! (Fernando)
05. Aria: Lass das Schicksal blitzen (Fernando)
06. Recitativo: Dort wird sich Osman finden ein (Fernando)
07. Aria: Ich will euch verdammen (Osman)
Zehnter Auftritt / Scene Ten
08. Recitativo: Nein, Amor, nein (Edilia, Osman)
09. Duetto: Ich will gar von nichtes wissen (Edilia, Osman)
Elfter Auftritt / Scene Eleven
10. Recitativo: Die Königin Almira (Consalvo, Edilia, Osman, Fernando, Bellante)
11. Aria: Der Mund spricht zwar (Bellante)
12. Recitativo: Sie wird mich in Verzweiflung stürzen (Osman, Tabarco)
13. Courante
14. Bourrée
15. Menuet
16. Rigaudon
Zwölfter Auftritt / Scene Twelve
17. Recitativo: Wie, träum’ ich (Almira, Fernando, Edilia, Osman, Bellante, Consalvo)
18. Aria: Ingrato, spietato (Almira)
Zweiter Handlung / Act Two
Erster Auftritt / Scene One
19. Recitativo: Durchlauchtigste, aus Mauritanien (Fernando, Almira)
Zweiter Auftritt / Scene Two
20. Recitativo: Raymondo, der das Reich (Raymondo, Consalvo, Almira, Fernando)
Dritter Auftritt / Scene Three
21. Aria: Chi sa, mia speme (Bellante)
22. Recitativo: Doch leerer Trost (Bellante, Consalvo, Tabarco)
23. Aria: Lass ein sanftes Händedrücken (Consalvo)
24. Recitativo: Verdruss und Unmut (Bellante, Consalvo, Tabarco)
25. Aria: Alter schadt der Torheit nicht (Tabarco)
Vierter Auftritt / Scene Four
26. Recitativo: Ich muss allein in dieser Zimmer bleiben (Fernando, Tabarco)
27. Aria: Habbiate pazienza (Tabarco)
28. Recitativo: Tabarco, lass ihn nur herein (Fernando, Tabarco)
Fünfter Auftritt / Scene Five
Recitativo: Es ist mir leid (Osman, Fernando)
29. Aria: Sprich vor mir ein süsses Wort (Osman)
30. Recitativo: Wie werd ich mich doch seiner Bitt’ entbrechen? (Fernando, Osman)
Sechster Auftritt / Scene Six
31. Recitativo: Entzeuch das Blatt nur meinen Augen nicht (Almira, Fernando)
32. Aria: Schöne Flammen (Fernando)
33. Recitativo: Nein, nein, Fernando, nein! (Almira, Osman, Fernando)
Siebter Auftritt / Scene Seven
34. Recitativo: Durchlauchtigste, darf ich die Gnad’ erbitten (Consalvo)
Aria: No, no, non voglio, no (Almira)
35. Recitativo: Nein, Osman muss, was er versprochen (Consalvo)
36. Aria: Scepter und Kron (Osman)
37. Recitativo: Mein Vater wird zu den zerrissnen Banden (Osman, Consalvo)
Ritornello
CD3:
Achter Auftritt / Scene Eight
01. Aria: Mi da speranza al core (Raymondo)
02. Recitativo: Almira kommt (Raymondo, Almira)
03. Aria: Zweier Augen Majestät (Raymondo)
04. Recitativo: Und wo wird sich hie (Almira, Raymondo)
Neunter Auftritt / Scene Nine
05. Accompagnato: Ich kann nicht mehr (Almira)
06. Aria: Move i passi (Almira)
07. Recitativo: Hilf, Himmel! Osman kommt (Almira)
Zehnter Auftritt / Scene Ten
08. Aria: Svenerò (Osman)
09. Recitativo: Dort eben kommt (Osman, Fernando, Almira)
10. Aria: Ob dein Mund (Fernando)
Elfter Auftritt / Scene Eleven
11. Recitativo: Beglückter Tag (Almira)
12. Aria: Sanerà la piaga (Almira)
13. Recitativo: Raymondo hat mir seinen Fürstenstand entdeckt (Almira, Consalvo)
Zwölfter Auftritt / Scene Twelve
14. Recitativo: Ich komme von Almirens Zimmer her (Edilia, Osman)
15. Aria: Der Himmel wird strafen (Edilia)
Dreizehnter Auftritt / Scene Thirteen
16. Recitativo: Wie muss sich doch Tabarco (Tabarco)
17. Aria: Schürzchen mit dem Falbala (Tabarco)
Recitativo: Genug, genug (Tabarco)
Ritornello
Dritter Handlung / Act Three
Erster Auftritt / Scene One
18. Entrée
19. Aria: Bücke dich (Fernando)
20. Entrée reprise
Zweiter Auftritt / Scene Two
21. Aria: Meiner Pracht (Osman)
22. Rigaudon
Dritter Auftritt / Scene Three
23. Aria: Du stolzer Erdenkreis (Consalvo)
24. Sarabande
25. Recitativo: Gefällt dir nicht (Raymondo, Almira, Edilia, Bellante)
Vierter Auftritt / Scene Four
26. Aria: Kommt, vermehrt der Torheit Ruhm (Tabarco)
Gigue
Fünfter Auftritt / Scene Five
27. Aria: Quillt, ihr überhäuften Zähren (Edilia)
28. Recitativo: Was ist, das deinen Geist (Raymondo, Edilia)
29. Aria: Gönne nach den Tränengüssen (Raymondo)
Recitativo: Entschliesse dich (Raymondo, Edilia)
Sechster Auftritt / Scene Six
30. Accompagnato: Ja, Amor, deine Grausamkeit (Bellante)
31. Aria: Blinder Schütz (Bellante)
Recitativo: Und will dein Herz (Consalvo, Bellante)
32. Aria: Unartige Schöne (Consalvo)
CD4:
Siebter Auftritt / Scene Seven
01. Aria: Edle Sinnen (Fernando)
02. Recitativo: Fernando, gib mir deinen Degen (Consalvo, Fernando)
03. Aria: Was ist des Hofes Gunst? (Fernando)
04. Recitativo: Geh, Unvorsichtiger (Consalvo)
Achter Auftritt / Scene Eight
Recitativo: Durchlauchtigste, Fernando liegt gefangen (Consalvo, Almira)
05. Aria: Vedrai, s’a tuo dispetto (Almira)
Neunter Auftritt / Scene Nine
06. Aria: Edilia! (Raymondo)
Recitativo: Ja, ja! (Edilia, Raymondo)
Zehnter Auftritt / Scene Ten
07. Accompagnato: Treuloser Mensch (Almira)
08. Aria: Kochet, ihr Adern (Almira)
Elfter Auftritt / Scene Eleven
09. Recitativo: Durchlauchtigste, der Himmel muss verehren (Osman, Almira, Tabarco)
10. Aria: Werthe Schrift (Almira)
Zwölfter Auftritt / Scene Twelve
11. Recitativo: Entweich, verlasse mich! (Edilia, Osman)
Dreizehnter Auftritt / Scene Thirteen
12. Aria: Quel labbro di coral (Raymondo)
Vierzehnter Auftritt / Scene Fourteen
13. Aria: Der kann in Blitz (Fernando)
14. Recitativo: Was bringt Tabarco mir vor Trost? (Fernando, Tabarco)
Fünfzehnter Auftritt / Scene Fifteen
15. Accompagnato: Verhängnis (Fernando)
Aria: Fernando stirbet dein (Fernando, Almira)
Recitativo: Nein, nein, Fernando, nein (Almira, Fernando)
16. Duetto: Spielet, ihr blitzenden Augen (Almira, Fernando)
Sechzehnter Auftritt / Scene Sixteen
17. Aria: Ich brenne zwar (Bellante)
18. Recitativo: Glaub, Schöne (Osman, Bellante)
19. Duetto: Mein Betrüben muss verschwinden (Bellante, Osman)
Siebzehnter Auftritt / Scene Seventeen
20. Recitativo: Fernando hat sich zwar erklärt (Almira, Consalvo, Bellante, Osman, Fernando)
21. Coro: Hoffe, hoffe
Achtzehnter Auftritt / Scene Eighteen
22. Recitativo: Durchlauchtigste, des Himmels hohe Gunst
(Raymondo, Osman, Almira, Consalvo, Tabarco, Fernando, Edilia, Bellante)
23. Coro: Wir hoffen


Exact Audio Copy V1.3 from 2. September 2016

EAC extraction logfile from 15. January 2020, 0:02

Emőke Baráth, Amanda Forsythe, Colin Balzer, Christian Immler, Zachary Wilder, Jesse Blumberg, Teresa Wakim, Jan Kobow, Nina Bö / Handel - Almira (Disc 1)

Used drive : ATAPI iHAS124 F Adapter: 1 ID: 0

Read mode : Secure
Utilize accurate stream : Yes
Defeat audio cache : Yes
Make use of C2 pointers : No

Read offset correction : 6
Overread into Lead-In and Lead-Out : No
Fill up missing offset samples with silence : Yes
Delete leading and trailing silent blocks : No
Null samples used in CRC calculations : Yes
Used interface : Native Win32 interface for Win NT & 2000

Used output format : User Defined Encoder
Selected bitrate : 1024 kBit/s
Quality : High
Add ID3 tag : No
Command line compressor : C:\Program Files (x86)\Exact Audio Copy\FLAC\FLAC.EXE
Additional command line options : -6 -V -T "ARTIST=%artist%" -T "TITLE=%title%" -T "ALBUM=%albumtitle%" -T "DATE=%year%" -T "TRACKNUMBER=%tracknr%" -T "GENRE=%genre%" -T "COMMENT=%comment%" -T "BAND=%albuminterpret%" -T "ALBUMARTIST=%albuminterpret%" -T "COMPOSER=%composer%" %haslyrics%–tag-from-file=LYRICS="%lyricsfile%"%haslyrics% -T "DISCNUMBER=%cdnumber%" -T "TOTALDISCS=%totalcds%" -T "TOTALTRACKS=%numtracks%" %hascover%–picture="%coverfile%"%hascover% %source% -o %dest%


TOC of the extracted CD

Track | Start | Length | Start sector | End sector
––––––––––––––––––––––––––––-
1 | 0:00.00 | 2:47.53 | 0 | 12577
2 | 2:47.53 | 1:11.65 | 12578 | 17967
3 | 3:59.43 | 2:31.38 | 17968 | 29330
4 | 6:31.06 | 0:26.18 | 29331 | 31298
5 | 6:57.24 | 1:27.44 | 31299 | 37867
6 | 8:24.68 | 2:01.59 | 37868 | 47001
7 | 10:26.52 | 1:50.23 | 47002 | 55274
8 | 12:17.00 | 1:37.62 | 55275 | 62611
9 | 13:54.62 | 0:39.58 | 62612 | 65594
10 | 14:34.45 | 2:33.68 | 65595 | 77137
11 | 17:08.38 | 0:37.40 | 77138 | 79952
12 | 17:46.03 | 1:17.47 | 79953 | 85774
13 | 19:03.50 | 0:48.22 | 85775 | 89396
14 | 19:51.72 | 4:10.02 | 89397 | 108148
15 | 24:01.74 | 4:37.31 | 108149 | 128954
16 | 28:39.30 | 0:42.52 | 128955 | 132156
17 | 29:22.07 | 2:56.53 | 132157 | 145409
18 | 32:18.60 | 0:47.56 | 145410 | 148990
19 | 33:06.41 | 4:05.39 | 148991 | 167404
20 | 37:12.05 | 0:17.19 | 167405 | 168698
21 | 37:29.24 | 1:03.51 | 168699 | 173474
22 | 38:33.00 | 4:36.58 | 173475 | 194232
23 | 43:09.58 | 1:38.33 | 194233 | 201615
24 | 44:48.16 | 1:37.34 | 201616 | 208924
25 | 46:25.50 | 1:48.10 | 208925 | 217034
26 | 48:13.60 | 6:43.16 | 217035 | 247275
27 | 54:57.01 | 2:04.21 | 247276 | 256596
28 | 57:01.22 | 0:57.04 | 256597 | 260875
29 | 57:58.26 | 0:17.15 | 260876 | 262165
30 | 58:15.41 | 2:22.06 | 262166 | 272821


Range status and errors

Selected range

Filename C:\EACRip\HANDEL\Handel - Almira (Paul O'Dette & Stephen Stubbs) (2019)\CD1\Handel - Almira (Disc 1) - Paul O'Dette & Stephen Stubbs.wav

Peak level 100.0 %
Extraction speed 9.1 X
Range quality 100.0 %
Test CRC F97C1D57
Copy CRC F97C1D57
Copy OK

No errors occurred


AccurateRip summary

Track 1 not present in database
Track 2 not present in database
Track 3 not present in database
Track 4 not present in database
Track 5 not present in database
Track 6 not present in database
Track 7 not present in database
Track 8 not present in database
Track 9 not present in database
Track 10 not present in database
Track 11 not present in database
Track 12 not present in database
Track 13 not present in database
Track 14 not present in database
Track 15 not present in database
Track 16 not present in database
Track 17 not present in database
Track 18 not present in database
Track 19 not present in database
Track 20 not present in database
Track 21 not present in database
Track 22 not present in database
Track 23 not present in database
Track 24 not present in database
Track 25 not present in database
Track 26 not present in database
Track 27 not present in database
Track 28 not present in database
Track 29 not present in database
Track 30 not present in database

None of the tracks are present in the AccurateRip database

End of status report

–– CUETools DB Plugin V2.1.6

[CTDB TOCID: 4.iqWaPquALQdJ4Gt6Iu5f5pJus-] disk not present in database
Submit result: 4.iqWaPquALQdJ4Gt6Iu5f5pJus- has been uploaded


==== Log checksum 7833233FD070BDACA3C74A230207D842FD8A84AD318C54ED01F710F5B4DF22D8 ====


Exact Audio Copy V1.3 from 2. September 2016

EAC extraction logfile from 15. January 2020, 1:37

Emőke Baráth, Amanda Forsythe, Colin Balzer, Christian Immler, Zachary Wilder, Jesse Blumberg, Teresa Wakim, Jan Kobow, Nina Bö / Handel - Almira (Disc 2)

Used drive : ATAPI iHAS124 F Adapter: 1 ID: 0

Read mode : Secure
Utilize accurate stream : Yes
Defeat audio cache : Yes
Make use of C2 pointers : No

Read offset correction : 6
Overread into Lead-In and Lead-Out : No
Fill up missing offset samples with silence : Yes
Delete leading and trailing silent blocks : No
Null samples used in CRC calculations : Yes
Used interface : Native Win32 interface for Win NT & 2000

Used output format : User Defined Encoder
Selected bitrate : 1024 kBit/s
Quality : High
Add ID3 tag : No
Command line compressor : C:\Program Files (x86)\Exact Audio Copy\FLAC\FLAC.EXE
Additional command line options : -6 -V -T "ARTIST=%artist%" -T "TITLE=%title%" -T "ALBUM=%albumtitle%" -T "DATE=%year%" -T "TRACKNUMBER=%tracknr%" -T "GENRE=%genre%" -T "COMMENT=%comment%" -T "BAND=%albuminterpret%" -T "ALBUMARTIST=%albuminterpret%" -T "COMPOSER=%composer%" %haslyrics%–tag-from-file=LYRICS="%lyricsfile%"%haslyrics% -T "DISCNUMBER=%cdnumber%" -T "TOTALDISCS=%totalcds%" -T "TOTALTRACKS=%numtracks%" %hascover%–picture="%coverfile%"%hascover% %source% -o %dest%


TOC of the extracted CD

Track | Start | Length | Start sector | End sector
––––––––––––––––––––––––––––-
1 | 0:00.00 | 0:33.38 | 0 | 2512
2 | 0:33.38 | 0:29.30 | 2513 | 4717
3 | 1:02.68 | 1:24.08 | 4718 | 11025
4 | 2:27.01 | 0:26.37 | 11026 | 13012
5 | 2:53.38 | 3:37.62 | 13013 | 29349
6 | 6:31.25 | 0:17.39 | 29350 | 30663
7 | 6:48.64 | 2:35.24 | 30664 | 42312
8 | 9:24.13 | 0:43.65 | 42313 | 45602
9 | 10:08.03 | 2:11.62 | 45603 | 55489
10 | 12:19.65 | 1:26.68 | 55490 | 62007
11 | 13:46.58 | 2:38.09 | 62008 | 73866
12 | 16:24.67 | 0:30.58 | 73867 | 76174
13 | 16:55.50 | 1:14.55 | 76175 | 81779
14 | 18:10.30 | 0:34.20 | 81780 | 84349
15 | 18:44.50 | 1:03.69 | 84350 | 89143
16 | 19:48.44 | 0:50.06 | 89144 | 92899
17 | 20:38.50 | 1:21.45 | 92900 | 99019
18 | 22:00.20 | 4:50.60 | 99020 | 120829
19 | 26:51.05 | 0:42.30 | 120830 | 124009
20 | 27:33.35 | 2:23.67 | 124010 | 134801
21 | 29:57.27 | 2:46.03 | 134802 | 147254
22 | 32:43.30 | 1:51.00 | 147255 | 155579
23 | 34:34.30 | 2:08.68 | 155580 | 165247
24 | 36:43.23 | 0:27.66 | 165248 | 167338
25 | 37:11.14 | 1:21.42 | 167339 | 173455
26 | 38:32.56 | 1:18.09 | 173456 | 179314
27 | 39:50.65 | 0:55.49 | 179315 | 183488
28 | 40:46.39 | 1:33.46 | 183489 | 190509
29 | 42:20.10 | 1:49.53 | 190510 | 198737
30 | 44:09.63 | 0:39.68 | 198738 | 201730
31 | 44:49.56 | 1:10.47 | 201731 | 207027
32 | 46:00.28 | 2:57.18 | 207028 | 220320
33 | 48:57.46 | 2:26.53 | 220321 | 231323
34 | 51:24.24 | 2:09.26 | 231324 | 241024
35 | 53:33.50 | 0:21.59 | 241025 | 242658
36 | 53:55.34 | 1:07.00 | 242659 | 247683
37 | 55:02.34 | 1:18.27 | 247684 | 253560


Range status and errors

Selected range

Filename C:\EACRip\HANDEL\Handel - Almira (Paul O'Dette & Stephen Stubbs) (2019)\CD2\Handel - Almira (Disc 2) - Paul O'Dette & Stephen Stubbs.wav

Peak level 100.0 %
Extraction speed 8.5 X
Range quality 100.0 %
Test CRC F99F7017
Copy CRC F99F7017
Copy OK

No errors occurred


AccurateRip summary

Track 1 not present in database
Track 2 not present in database
Track 3 not present in database
Track 4 not present in database
Track 5 not present in database
Track 6 not present in database
Track 7 not present in database
Track 8 not present in database
Track 9 not present in database
Track 10 not present in database
Track 11 not present in database
Track 12 not present in database
Track 13 not present in database
Track 14 not present in database
Track 15 not present in database
Track 16 not present in database
Track 17 not present in database
Track 18 not present in database
Track 19 not present in database
Track 20 not present in database
Track 21 not present in database
Track 22 not present in database
Track 23 not present in database
Track 24 not present in database
Track 25 not present in database
Track 26 not present in database
Track 27 not present in database
Track 28 not present in database
Track 29 not present in database
Track 30 not present in database
Track 31 not present in database
Track 32 not present in database
Track 33 not present in database
Track 34 not present in database
Track 35 not present in database
Track 36 not present in database
Track 37 not present in database

None of the tracks are present in the AccurateRip database

End of status report

–– CUETools DB Plugin V2.1.6

[CTDB TOCID: iVjPusMEiEQgzXTWKwPubPEvzTI-] disk not present in database
Submit result: iVjPusMEiEQgzXTWKwPubPEvzTI- has been uploaded


==== Log checksum A28AD142D8177FD6B1F5B2318407AB45E24351309A99FB679AE39418C6543DFE ====


Exact Audio Copy V1.3 from 2. September 2016

EAC extraction logfile from 16. January 2020, 2:51

Emőke Baráth, Amanda Forsythe, Colin Balzer, Christian Immler, Zachary Wilder, Jesse Blumberg, Teresa Wakim, Jan Kobow, Nina Bö / Handel - Almira (Disc 3)

Used drive : ATAPI iHAS124 F Adapter: 1 ID: 0

Read mode : Secure
Utilize accurate stream : Yes
Defeat audio cache : Yes
Make use of C2 pointers : No

Read offset correction : 6
Overread into Lead-In and Lead-Out : No
Fill up missing offset samples with silence : Yes
Delete leading and trailing silent blocks : No
Null samples used in CRC calculations : Yes
Used interface : Native Win32 interface for Win NT & 2000

Used output format : User Defined Encoder
Selected bitrate : 1024 kBit/s
Quality : High
Add ID3 tag : No
Command line compressor : C:\Program Files (x86)\Exact Audio Copy\FLAC\FLAC.EXE
Additional command line options : -6 -V -T "ARTIST=%artist%" -T "TITLE=%title%" -T "ALBUM=%albumtitle%" -T "DATE=%year%" -T "TRACKNUMBER=%tracknr%" -T "GENRE=%genre%" -T "COMMENT=%comment%" -T "BAND=%albuminterpret%" -T "ALBUMARTIST=%albuminterpret%" -T "COMPOSER=%composer%" %haslyrics%–tag-from-file=LYRICS="%lyricsfile%"%haslyrics% -T "DISCNUMBER=%cdnumber%" -T "TOTALDISCS=%totalcds%" -T "TOTALTRACKS=%numtracks%" %hascover%–picture="%coverfile%"%hascover% %source% -o %dest%


TOC of the extracted CD

Track | Start | Length | Start sector | End sector
––––––––––––––––––––––––––––-
1 | 0:00.00 | 3:51.25 | 0 | 17349
2 | 3:51.25 | 0:41.22 | 17350 | 20446
3 | 4:32.47 | 3:47.46 | 20447 | 37517
4 | 8:20.18 | 0:16.45 | 37518 | 38762
5 | 8:36.63 | 1:35.12 | 38763 | 45899
6 | 10:12.00 | 3:52.66 | 45900 | 63365
7 | 14:04.66 | 0:19.09 | 63366 | 64799
8 | 14:24.00 | 1:01.45 | 64800 | 69419
9 | 15:25.45 | 2:25.70 | 69420 | 80364
10 | 17:51.40 | 3:07.22 | 80365 | 94411
11 | 20:58.62 | 0:44.17 | 94412 | 97728
12 | 21:43.04 | 3:55.34 | 97729 | 115387
13 | 25:38.38 | 0:28.72 | 115388 | 117559
14 | 26:07.35 | 2:10.70 | 117560 | 127379
15 | 28:18.30 | 5:22.71 | 127380 | 151600
16 | 33:41.26 | 2:55.11 | 151601 | 164736
17 | 36:36.37 | 3:54.18 | 164737 | 182304
18 | 40:30.55 | 1:09.56 | 182305 | 187535
19 | 41:40.36 | 2:44.34 | 187536 | 199869
20 | 44:24.70 | 1:38.41 | 199870 | 207260
21 | 46:03.36 | 2:41.59 | 207261 | 219394
22 | 48:45.20 | 0:51.29 | 219395 | 223248
23 | 49:36.49 | 2:24.61 | 223249 | 234109
24 | 52:01.35 | 2:03.00 | 234110 | 243334
25 | 54:04.35 | 0:23.41 | 243335 | 245100
26 | 54:28.01 | 2:16.63 | 245101 | 255363
27 | 56:44.64 | 5:58.26 | 255364 | 282239
28 | 62:43.15 | 1:39.59 | 282240 | 289723
29 | 64:22.74 | 3:40.48 | 289724 | 306271
30 | 68:03.47 | 1:02.50 | 306272 | 310971
31 | 69:06.22 | 2:20.03 | 310972 | 321474
32 | 71:26.25 | 1:16.19 | 321475 | 327193


Range status and errors

Selected range

Filename C:\EACRip\HANDEL\Handel - Almira (Paul O'Dette & Stephen Stubbs) (2019)\CD3\Handel - Almira (Disc 3) - Paul O'Dette & Stephen Stubbs.wav

Peak level 100.0 %
Extraction speed 9.5 X
Range quality 100.0 %
Test CRC 9F12ED5B
Copy CRC 9F12ED5B
Copy OK

No errors occurred


AccurateRip summary

Track 1 not present in database
Track 2 not present in database
Track 3 not present in database
Track 4 not present in database
Track 5 not present in database
Track 6 not present in database
Track 7 not present in database
Track 8 not present in database
Track 9 not present in database
Track 10 not present in database
Track 11 not present in database
Track 12 not present in database
Track 13 not present in database
Track 14 not present in database
Track 15 not present in database
Track 16 not present in database
Track 17 not present in database
Track 18 not present in database
Track 19 not present in database
Track 20 not present in database
Track 21 not present in database
Track 22 not present in database
Track 23 not present in database
Track 24 not present in database
Track 25 not present in database
Track 26 not present in database
Track 27 not present in database
Track 28 not present in database
Track 29 not present in database
Track 30 not present in database
Track 31 not present in database
Track 32 not present in database

None of the tracks are present in the AccurateRip database

End of status report

–– CUETools DB Plugin V2.1.6

[CTDB TOCID: bNqpe1zL4FjOKD3bWu4mskun3nc-] disk not present in database
Submit result: bNqpe1zL4FjOKD3bWu4mskun3nc- has been uploaded


==== Log checksum C4418A07F313989A86C61FF08172BBC39D75CF3459413B8DF42FC615A196FFDA ====


Exact Audio Copy V1.3 from 2. September 2016

EAC extraction logfile from 16. January 2020, 18:58

Emőke Baráth, Amanda Forsythe, Colin Balzer, Christian Immler, Zachary Wilder, Jesse Blumberg, Teresa Wakim, Jan Kobow, Nina Bö / Handel - Almira (Disc 4)

Used drive : ATAPI iHAS124 F Adapter: 1 ID: 0

Read mode : Secure
Utilize accurate stream : Yes
Defeat audio cache : Yes
Make use of C2 pointers : No

Read offset correction : 6
Overread into Lead-In and Lead-Out : No
Fill up missing offset samples with silence : Yes
Delete leading and trailing silent blocks : No
Null samples used in CRC calculations : Yes
Used interface : Native Win32 interface for Win NT & 2000

Used output format : User Defined Encoder
Selected bitrate : 1024 kBit/s
Quality : High
Add ID3 tag : No
Command line compressor : C:\Program Files (x86)\Exact Audio Copy\FLAC\FLAC.EXE
Additional command line options : -6 -V -T "ARTIST=%artist%" -T "TITLE=%title%" -T "ALBUM=%albumtitle%" -T "DATE=%year%" -T "TRACKNUMBER=%tracknr%" -T "GENRE=%genre%" -T "COMMENT=%comment%" -T "BAND=%albuminterpret%" -T "ALBUMARTIST=%albuminterpret%" -T "COMPOSER=%composer%" %haslyrics%–tag-from-file=LYRICS="%lyricsfile%"%haslyrics% -T "DISCNUMBER=%cdnumber%" -T "TOTALDISCS=%totalcds%" -T "TOTALTRACKS=%numtracks%" %hascover%–picture="%coverfile%"%hascover% %source% -o %dest%


TOC of the extracted CD

Track | Start | Length | Start sector | End sector
––––––––––––––––––––––––––––-
1 | 0:00.00 | 2:30.33 | 0 | 11282
2 | 2:30.33 | 0:35.02 | 11283 | 13909
3 | 3:05.35 | 1:56.31 | 13910 | 22640
4 | 5:01.66 | 2:01.45 | 22641 | 31760
5 | 7:03.36 | 5:27.26 | 31761 | 56311
6 | 12:30.62 | 3:20.36 | 56312 | 71347
7 | 15:51.23 | 1:10.12 | 71348 | 76609
8 | 17:01.35 | 3:45.39 | 76610 | 93523
9 | 20:46.74 | 2:57.60 | 93524 | 106858
10 | 23:44.59 | 1:31.02 | 106859 | 113685
11 | 25:15.61 | 1:23.70 | 113686 | 119980
12 | 26:39.56 | 2:31.13 | 119981 | 131318
13 | 29:10.69 | 1:37.70 | 131319 | 138663
14 | 30:48.64 | 0:31.37 | 138664 | 141025
15 | 31:20.26 | 6:50.35 | 141026 | 171810
16 | 38:10.61 | 2:11.27 | 171811 | 181662
17 | 40:22.13 | 1:38.25 | 181663 | 189037
18 | 42:00.38 | 0:34.65 | 189038 | 191652
19 | 42:35.28 | 1:45.21 | 191653 | 199548
20 | 44:20.49 | 3:01.38 | 199549 | 213161
21 | 47:22.12 | 1:57.29 | 213162 | 221965
22 | 49:19.41 | 2:03.62 | 221966 | 231252
23 | 51:23.28 | 0:52.47 | 231253 | 235199


Range status and errors

Selected range

Filename C:\EACRip\HANDEL\Handel - Almira (Paul O'Dette & Stephen Stubbs) (2019)\CD4\Handel - Almira (Disc 4) - Paul O'Dette & Stephen Stubbs.wav

Peak level 100.0 %
Extraction speed 8.2 X
Range quality 100.0 %
Test CRC AB9C4515
Copy CRC AB9C4515
Copy OK

No errors occurred


AccurateRip summary

Track 1 not present in database
Track 2 not present in database
Track 3 not present in database
Track 4 not present in database
Track 5 not present in database
Track 6 not present in database
Track 7 not present in database
Track 8 not present in database
Track 9 not present in database
Track 10 not present in database
Track 11 not present in database
Track 12 not present in database
Track 13 not present in database
Track 14 not present in database
Track 15 not present in database
Track 16 not present in database
Track 17 not present in database
Track 18 not present in database
Track 19 not present in database
Track 20 not present in database
Track 21 not present in database
Track 22 not present in database
Track 23 not present in database

None of the tracks are present in the AccurateRip database

End of status report

–– CUETools DB Plugin V2.1.6

[CTDB TOCID: FE6c8gciUm.KUO8QhRBmhL5qDAY-] found
Submit result: FE6c8gciUm.KUO8QhRBmhL5qDAY- has been confirmed
Track | CTDB Status
1 | (1/1) Accurately ripped
2 | (1/1) Accurately ripped
3 | (1/1) Accurately ripped
4 | (1/1) Accurately ripped
5 | (1/1) Accurately ripped
6 | (1/1) Accurately ripped
7 | (1/1) Accurately ripped
8 | (1/1) Accurately ripped
9 | (1/1) Accurately ripped
10 | (1/1) Accurately ripped
11 | (1/1) Accurately ripped
12 | (1/1) Accurately ripped
13 | (1/1) Accurately ripped
14 | (1/1) Accurately ripped
15 | (1/1) Accurately ripped
16 | (1/1) Accurately ripped
17 | (1/1) Accurately ripped
18 | (1/1) Accurately ripped
19 | (1/1) Accurately ripped
20 | (1/1) Accurately ripped
21 | (1/1) Accurately ripped
22 | (1/1) Accurately ripped
23 | (1/1) Accurately ripped


==== Log checksum 39B7C1D1F92DAE88DA446C1564856301A03C633CF7F0DFFF7FBDB3BD012236A5 ====

Stephen Stubbs, Paul O’Dette, Boston Early Music Festival Orchestra - Handel: Almira (2020)

Thanks to the original releaser