Subcategories

Steve Hackett - Feedback 86 (2000)

Posted By: Andi_Deris
Steve Hackett - Feedback 86 (2000)

Steve Hackett - Feedback 86 (2000)
EAC Rip | FLAC: Image+Cue+Log | 267 Mb | MP3 CBR 320 kbps | 113 Mb | Scans | Time: 37:22
Genre: Pop Rock, Arena Rock | Label: Camino Records | Cat.: CAMCD21

Feedback 86 is a solo album by guitarist Steve Hackett. The album is a collection of songs written in 1986 but put on the shelf. Some of the songs were supposed to be on the aborted second GTR album. The album features guest appearances by singer Bonnie Tyler, Queen guitarist Brian May and Marillion members Ian Mosley and Pete Trewavas.

Steve Hackett - Feedback 86 (2000)




Steve Hackett - Feedback 86 (2000)


Track Listing

01. Cassandra (04:07)
02. Prizefighters (05:13)
03. Slot Machine (04:23)
04. Stadiums Of The Damned (04:42)
05. Don't Fall (04:25)
06. Oh How I Love You (03:58)
07. Notre Dame Les Fleurs (03:12)
08. The Gulf (07:19)

Produced by Steve Hackett

Musicians

• Steve Hackett - guitar, vocals (1, 2, 3, 4, 5, 8), harmonica (5)
• Brian May - guitar (1, 3), vocals (3)
• Pete Trewavas - bass (1)
• Nick Magnus - keyboards (1, 2, 3, 4, 5, 8), virtual drums (2, 3, 4, 5, 8), piano (6)
• Ian Mosley - drums (1)
• Bonnie Tyler - vocals (2)
• Chris Thompson - vocals (1, 2, 3, 5, 6)
• Terry Pack - bass (2)
• The Phil Henderson Orchestra : arranged by Phil Henderson (2)

Notes

All tracks written by Steve Hackett except Slot Machine written by Steve Hackett & Brian May and Prizefighters written by Steve Hackett & Steve Howe.

Described by those in the know as the former Genesis guitarist's "lost album of the 1980s", Feedback 86' was shelved due to the immense contractual problems generated by the stars responsible for it - including Queen's Brian May, Marillion's Pete Trewavas and Ian Mosley, Bonnie Tyler and Manfred Mann's vocalist Chris Thompson. As a bonus, the CD also contains 20 additional 'Greatest Hits' tracks and video footage encoded as high quality MP3 computer sound files."

Exact Audio Copy V1.0 beta 3 from 29. August 2011

EAC extraction logfile from 21. June 2012, 14:28

Steve Hackett / Feedback 86

Used drive : PIONEER DVD-RW DVR-115D Adapter: 1 ID: 0

Read mode : Secure
Utilize accurate stream : Yes
Defeat audio cache : Yes
Make use of C2 pointers : No

Read offset correction : 48
Overread into Lead-In and Lead-Out : No
Fill up missing offset samples with silence : Yes
Delete leading and trailing silent blocks : No
Null samples used in CRC calculations : Yes
Used interface : Installed external ASPI interface

Used output format : User Defined Encoder
Selected bitrate : 320 kBit/s
Quality : High
Add ID3 tag : No
Command line compressor : C:\Program Files\Exact Audio Copy 1.0\Flac\flac.exe
Additional command line options : -V -8 -T "Genre=%genre%" -T "Artist=%artist%" -T "Title=%title%" -T "Album=%albumtitle%" -T "Date=%year%" -T "Tracknumber=%tracknr%" -T "Comment=%comment%" %source%


TOC of the extracted CD

Track | Start | Length | Start sector | End sector
––––––––––––––––––––––––––––-
1 | 0:00.00 | 4:07.50 | 0 | 18574
2 | 4:07.50 | 5:13.20 | 18575 | 42069
3 | 9:20.70 | 4:23.05 | 42070 | 61799
4 | 13:44.00 | 4:42.52 | 61800 | 83001
5 | 18:26.52 | 4:25.58 | 83002 | 102934
6 | 22:52.35 | 3:58.27 | 102935 | 120811
7 | 26:50.62 | 3:11.73 | 120812 | 135209
8 | 30:02.60 | 7:19.32 | 135210 | 168166
9 | 39:54.17 | 36:27.72 | 179567 | 343663


Range status and errors

Selected range

Filename K:\Lossless Temp\Steve Hackett\Steve Hackett - Feedback 86 - 1986 (2000 Camino Records, CAMCD21)\Steve Hackett - Feedback 86.wav

Peak level 99.0 %
Extraction speed 5.8 X
Range quality 100.0 %
Test CRC 089EDB78
Copy CRC 089EDB78
Copy OK

No errors occurred


AccurateRip summary

Track 1 accurately ripped (confidence 13) [8132628D] (AR v1)
Track 2 accurately ripped (confidence 13) [6DE4ABF9] (AR v1)
Track 3 accurately ripped (confidence 13) [D28E13BA] (AR v1)
Track 4 accurately ripped (confidence 13) [DC4AC24F] (AR v1)
Track 5 accurately ripped (confidence 13) [5224D570] (AR v1)
Track 6 accurately ripped (confidence 13) [4A602743] (AR v1)
Track 7 accurately ripped (confidence 13) [7AC37D96] (AR v1)
Track 8 accurately ripped (confidence 13) [CC63A569] (AR v1)

All tracks accurately ripped

End of status report

==== Log checksum 002E48321817367B6C14CFB44C7A4A5AB85BFFA4D1DF14411BFBBE627F5FE24C ====


Many thanks to the original uploader: Swamp Fox


Genesis 1969 From Genesis To Revelation (Japan, 2004)
Genesis 2004 Platinum Collection [3CD-Box]

GTR 1986 GTR

Phil Collins 1985 No Jacket Required [Deluxe Edition, 2016] 2CD
Phil Collins 2002 Testify [Deluxe Edition, 2016] 2CD
Phil Collins 2004 Finally…The First Farewell Tour [2xDVD]

Steve Hackett 1975 Voyage Of The Acolyte [Remastered 2005]
Steve Hackett 1975 Voyage Of The Acolyte [Japan Mini-LP CD 2006]
Steve Hackett 1978 Please Don't Touch! [UK 1st Press, 1989]
Steve Hackett 1978 Please Don't Touch! [Remastered 2005]
Steve Hackett 1978 Please Don't Touch! [Japan Mini-LP CD 2006]
Steve Hackett 1979 Spectral Mornings [UK 1st Press, 1989]
Steve Hackett 1979 Spectral Mornings [Remastered 2005]
Steve Hackett 1979 Spectral Mornings [Japan Mini-LP CD 2006]
Steve Hackett 1980 Defector [UK 1st Press, 1989]
Steve Hackett 1980 Defector [Japan Mini-LP CD 2006]
Steve Hackett 1981 Cured [Remastered 2007]
Steve Hackett 1983 Highly Strung [Reissue 1989]
Steve Hackett 1983 Bay Of Kings [Japanese Ed. 2007]
Steve Hackett 1984 Till We Have Faces
Steve Hackett 1997 A Midsummer Night's Dream
Steve Hackett 1998 The Tokyo Tapes [SH Records, 2000] 2CD
Steve Hackett 1999 Darktown
Steve Hackett 2001 The Tokyo Tapes: Live In Japan [DVD9]
Steve Hackett 2005 Metamorpheus
Steve Hackett 2005 Spectral Mornings [DVD5]
Steve Hackett 2006 Wild Orchids
Steve Hackett 2006 Wild Orchids [Special Ed.]
Steve Hackett 2008 Tribute
Steve Hackett 2009 Out Of The Tunnel's Mouth
Steve Hackett 2010 Out Of The Tunnel's Mouth [Special Ed.] 2CD
Steve Hackett 2011 Fire And Ice [DVD9]
Steve Hackett 2013 Genesis Revisited II: Selection
Steve Hackett 2015 Wolflight [Special Ed.]
––––––––––
Nitroflare