Subcategories

Daniel Harding, Wiener Philharmoniker - Richard Strauss: Ariadne auf Naxos (2014) [Blu-Ray]

Posted By: Vilboa
Daniel Harding, Wiener Philharmoniker - Richard Strauss: Ariadne auf Naxos (2014) [Blu-Ray]

Daniel Harding, Wiener Philharmoniker - Richard Strauss: Ariadne auf Naxos (2014) [Blu-Ray]
BluRay | BDMV | MPEG-4 AVC Video / 23656 kbps / 1080i / 29,970 fps | 192 min | 42,4 Gb
Audio1: Deutsch / LPCM Audio / 2.0 / 24-bit | Audio2: DTS-HD Master Audio / 5.0 / 48 kHz / 3603 kbps / 24-bit
––––––
BluRay-rip | AVC | MKV 1920x1080 / 6215 kbps / 29,97 fps | 192 min | 10,4 Gb
Audio: Deutsch / DTS / 5ch / 48.0 KHz / 24 bits
Classical | Sony | Sub: English, French, German, Spanish, Korean, Chinese

This is the original, somewhat longer version of the opera, for which director Sven-Eric Bechtolf created, in place of Hugo von Hofmannsthal’s adaptation of Molières Le bourgeois gentilhomme, a fascinatingly entertaining intermezzo in which theatre, dance and the masterly music of Richard Strauss form an impressive unity. “It incorporates elements of Molière’s play and text from the later prologue, with which he and Strauss salvaged their hybrid flop to produce the masterpiece we know today,” wrote The Sunday Times. “In the abstract, it might sound ­rarefied, but on the Salzburg opera stage, it proved entrancing.” TheNew York Times reported, “Jonas Kaufmann was spectacular as Bacchus growing improbably stronger as his relatively brief stint progressed. Emily Magee was scarcely less impressive in the demanding longer role of Ariadne. And Elena Mosuc managed Zerbinetta’s vocal pyrotechnics with aplomb.”

Cast:
Emily Magee (Prima Donna/Ariadne)
Elena Moșuc (Zerbinetta)
Jonas Kaufmann (The Tenor/Bacchus)
Eva Liebau (Naiad/A Shepherdess)
Marie-Claude Chappuis (Dryad/A Shepherd)
Eleonora Buratto (Echo/A Singer)
Gabriel Bermúdez (Harlequin)
Michael Laurenz (Scaramuccio)
Tobias Kehrer (Truffaldino)
Martin Mitterrutzner (Brighella)
Peter Matić (The Major-Domo)
Wiener Philharmoniker
Conductor - Daniel Harding


Disc Title: ARIADNE AUF NAXOS
Disc Size: 45 632 388 285 bytes
Protection: AACS
BD-Java: No
Playlist: 00000.MPLS
Size: 45 293 168 640 bytes
Length: 3:12:22.764
Total Bitrate: 31,39 Mbps
Video: MPEG-4 AVC Video / 23656 kbps / 1080i / 29,970 fps / 16:9 / High Profile 4.1
Audio: German / LPCM Audio / 2.0 / 48 kHz / 2304 kbps / 24-bit
Audio: German / DTS-HD Master Audio / 5.0 / 48 kHz / 3603 kbps / 24-bit (DTS Core: 5.0 / 48 kHz / 1509 kbps / 24-bit)
Subtitle: English / 28,245 kbps
Subtitle: French / 30,622 kbps
Subtitle: German / 31,309 kbps
Subtitle: Spanish / 28,712 kbps
Subtitle: Korean / 21,143 kbps
Subtitle: Chinese / 18,095 kbps


General
Unique ID : 201178362630130021957230637443604075926 (0x97598B1415A615549612E6ADA7E0D596)
Complete name : C:\ARIADNE AUF NAXOS.mkv
Format : Matroska
Format version : Version 2
File size : 10.4 GiB
Duration : 3h 12mn
Overall bit rate : 7 766 Kbps
Movie name : ARIADNE AUF NAXOS
Encoded date : UTC 2020-01-02 12:03:09
Writing application : DVDFab 9.1.6.8
Writing library : libebml v0.7.8 + libmatroska v0.8.1

Video
ID : 1
Format : AVC
Format/Info : Advanced Video Codec
Format profile : High@L4.1
Format settings, CABAC : Yes
Format settings, ReFrames : 2 frames
Codec ID : V_MPEG4/ISO/AVC
Duration : 3h 12mn
Bit rate : 6 215 Kbps
Width : 1 920 pixels
Height : 1 080 pixels
Display aspect ratio : 16:9
Frame rate mode : Constant
Frame rate : 29.970 fps
Color space : YUV
Chroma subsampling : 4:2:0
Bit depth : 8 bits
Scan type : Progressive
Bits/(Pixel*Frame) : 0.100
Stream size : 8.20 GiB (79%)
Writing library : x264 core 142
Encoding settings : cabac=1 / ref=1 / deblock=1:-1:-1 / analyse=0x3:0 / me=hex / subme=5 / psy=0 / mixed_ref=0 / me_range=16 / chroma_me=1 / trellis=0 / 8x8dct=1 / cqm=0 / deadzone=21,11 / fast_pskip=1 / chroma_qp_offset=0 / threads=8 / lookahead_threads=2 / sliced_threads=0 / nr=0 / decimate=1 / interlaced=0 / bluray_compat=0 / constrained_intra=0 / bframes=2 / b_pyramid=0 / b_adapt=1 / b_bias=0 / direct=1 / weightb=1 / open_gop=0 / weightp=0 / keyint=24 / keyint_min=13 / scenecut=40 / intra_refresh=0 / rc=abr / mbtree=0 / bitrate=6215 / ratetol=1.0 / qcomp=0.60 / qpmin=0 / qpmax=69 / qpstep=4 / ip_ratio=1.40 / pb_ratio=1.30 / aq=1:1.00
Default : Yes
Forced : No
Color primaries : BT.709
Transfer characteristics : BT.709
Matrix coefficients : BT.709
Color range : Limited

Audio
ID : 2
Format : DTS
Format/Info : Digital Theater Systems
Mode : 16
Format settings, Endianness : Big
Codec ID : A_DTS
Duration : 3h 12mn
Bit rate mode : Constant
Bit rate : 1 509 Kbps
Channel(s) : 5 channels
Channel positions : Front: L C R, Side: L R
Sampling rate : 48.0 KHz
Bit depth : 24 bits
Compression mode : Lossy
Stream size : 2.03 GiB (19%)
Language : German
Default : Yes
Forced : No

Text #1
ID : 3
Format : VobSub
Codec ID : S_VOBSUB
Codec ID/Info : The same subtitle format used on DVDs
Language : English
Default : Yes
Forced : No

Text #2
ID : 4
Format : VobSub
Codec ID : S_VOBSUB
Codec ID/Info : The same subtitle format used on DVDs
Language : French
Default : No
Forced : No

Text #3
ID : 5
Format : VobSub
Codec ID : S_VOBSUB
Codec ID/Info : The same subtitle format used on DVDs
Language : German
Default : No
Forced : No

Text #4
ID : 6
Format : VobSub
Codec ID : S_VOBSUB
Codec ID/Info : The same subtitle format used on DVDs
Language : Spanish
Default : No
Forced : No

Text #5
ID : 7
Format : VobSub
Codec ID : S_VOBSUB
Codec ID/Info : The same subtitle format used on DVDs
Language : Korean
Default : No
Forced : No

Text #6
ID : 8
Format : VobSub
Codec ID : S_VOBSUB
Codec ID/Info : The same subtitle format used on DVDs
Language : Chinese
Default : No
Forced : No

Menu
00:00:00.000 : en:Chapter 01
00:00:42.142 : en:Chapter 02
00:04:50.590 : en:Chapter 03
00:11:21.013 : en:Chapter 04
00:12:10.129 : en:Chapter 05
00:21:46.171 : en:Chapter 06
00:24:58.163 : en:Chapter 07
00:29:28.833 : en:Chapter 08
00:32:32.383 : en:Chapter 09
00:36:09.367 : en:Chapter 10
00:41:49.940 : en:Chapter 11
00:52:00.717 : en:Chapter 12
00:55:24.688 : en:Chapter 13
01:00:29.392 : en:Chapter 14
01:08:00.409 : en:Chapter 15
01:10:41.370 : en:Chapter 16
01:16:18.340 : en:Chapter 17
01:20:40.235 : en:Chapter 18
01:25:10.004 : en:Chapter 19
01:29:44.145 : en:Chapter 20
01:33:27.768 : en:Chapter 21
01:37:54.301 : en:Chapter 22
01:40:51.612 : en:Chapter 23
01:48:06.413 : en:Chapter 24
01:50:13.807 : en:Chapter 25
01:55:54.847 : en:Chapter 26
02:00:53.045 : en:Chapter 27
02:09:16.415 : en:Chapter 28
02:16:29.948 : en:Chapter 29
02:21:58.810 : en:Chapter 30
02:25:22.013 : en:Chapter 31
02:29:31.963 : en:Chapter 32
02:34:48.379 : en:Chapter 33
02:40:08.265 : en:Chapter 34
02:44:59.022 : en:Chapter 35
02:49:20.617 : en:Chapter 36
02:54:08.504 : en:Chapter 37
03:01:31.380 : en:Chapter 38
03:04:30.726 : en:Chapter 39

All screenshots taken from BDRip

Daniel Harding, Wiener Philharmoniker - Richard Strauss: Ariadne auf Naxos (2014) [Blu-Ray]