Tags
Language
Tags

Supertramp - Breakfast in America (1979)

Posted By:
Supertramp - Breakfast in America (1979)

Supertramp - Breakfast in America (1979)
EAC | Flac(Image) + Cue + Log & MP3 CBR 320Kbps
1997 | A&M 393 708-2 | France | ~ 308 or 109 Mb | Artwork -> 115 Mb
Progressive Rock | Remastered

With Breakfast in America, Supertramp had a genuine blockbuster hit, topping the charts for four weeks in the U.S. and selling millions of copies worldwide; by the 1990s, the album had sold over 18 million units across the world. Although their previous records had some popular success, they never even hinted at the massive sales of Breakfast in America. Then again, Supertramp's earlier records weren't as pop-oriented as Breakfast. The majority of the album consisted of tightly written, catchy, well-constructed pop songs, like the hits "The Logical Song," "Take the Long Way Home," and "Goodbye Stranger." Supertramp still had a tendency to indulge themselves occasionally, but Breakfast in America had very few weak moments. It was clearly their high-water mark.

by Stephen Thomas Erlewine, allmusic
Supertramp - Breakfast in America (1979):

Supertramp - Breakfast in America (1979)

Tracklist:

01. Gone Hollywood [0:05:18.22]
02. The Logical Song [0:04:11.18]
03. Goodbye Stranger [0:05:50.37]
04. Breakfast in America [0:02:39.25]
05. Oh Darling [0:03:58.18]
06. Take the Long Way Home [0:05:07.55]
07. Lord Is It Mine [0:04:10.02]
08. Just Another Nervous Wreck [0:04:25.50]
09. Casual Conversations [0:02:58.65]
10. Child of Vision [0:07:28.03]

Exact Audio Copy V1.6 from 23. October 2020

EAC extraction logfile from 16. May 2021, 19:06

Supertramp / Breakfast in America

Used drive : Optiarc DVD RW AD-7263S Adapter: 1 ID: 0

Read mode : Secure
Utilize accurate stream : Yes
Defeat audio cache : Yes
Make use of C2 pointers : No

Read offset correction : 48
Overread into Lead-In and Lead-Out : No
Fill up missing offset samples with silence : Yes
Delete leading and trailing silent blocks : No
Null samples used in CRC calculations : Yes
Used interface : Native Win32 interface for Win NT & 2000

Used output format : User Defined Encoder
Selected bitrate : 1024 kBit/s
Quality : High
Add ID3 tag : No
Command line compressor : C:\Program Files (x86)\Exact Audio Copy\Flac\flac.exe
Additional command line options : -V -8 -T "Date=%year%" -T "Genre=%genre%" %source%


TOC of the extracted CD

Track | Start | Length | Start sector | End sector
––––––––––––––––––––––––––––-
1 | 0:00.00 | 5:18.22 | 0 | 23871
2 | 5:18.22 | 4:11.18 | 23872 | 42714
3 | 9:29.40 | 5:50.37 | 42715 | 69001
4 | 15:20.02 | 2:39.25 | 69002 | 80951
5 | 17:59.27 | 3:58.18 | 80952 | 98819
6 | 21:57.45 | 5:07.55 | 98820 | 121899
7 | 27:05.25 | 4:10.02 | 121900 | 140651
8 | 31:15.27 | 4:25.50 | 140652 | 160576
9 | 35:41.02 | 2:58.65 | 160577 | 173991
10 | 38:39.67 | 7:28.03 | 173992 | 207594


Range status and errors

Selected range

Filename H:\AUDIO\MUSIC\Supertramp\1979. Supertramp - Breakfast In America (A&M 393 708-2, France, RM)\Supertramp - Breakfast in America.wav

Peak level 100.0 %
Extraction speed 3.7 X
Range quality 100.0 %
Test CRC FE882FD3
Copy CRC FE882FD3
Copy OK

No errors occurred


AccurateRip summary

Track 1 accurately ripped (confidence 26) [2A949626] (AR v2)
Track 2 accurately ripped (confidence 27) [A3DAA4A4] (AR v2)
Track 3 accurately ripped (confidence 27) [FF6E87DA] (AR v2)
Track 4 accurately ripped (confidence 26) [0C677D36] (AR v2)
Track 5 accurately ripped (confidence 26) [5B2C100B] (AR v2)
Track 6 accurately ripped (confidence 26) [80CFCBD0] (AR v2)
Track 7 accurately ripped (confidence 26) [71F50F37] (AR v2)
Track 8 accurately ripped (confidence 26) [90054F06] (AR v2)
Track 9 accurately ripped (confidence 26) [615F74CE] (AR v2)
Track 10 accurately ripped (confidence 24) [3B3A3EDC] (AR v2)

All tracks accurately ripped

End of status report

==== Log checksum C1A1AE6D0E208CEC43BF00544A90AFA22A91F8E57B9FE62625CDF13E3131CBDE ====


[CUETools log; Date: 18.07.2021 13:29:09; Version: 2.1.4]
[AccurateRip ID: 0011174d-0087c0f0-720acf0a] found.
Track [ CRC | V2 ] Status
01 [3faf3f18|2a949626] (20+26/46) Accurately ripped
02 [f2406b2b|a3daa4a4] (22+27/49) Accurately ripped
03 [b2f23135|ff6e87da] (22+27/49) Accurately ripped
04 [f04ff3a1|0c677d36] (21+26/47) Accurately ripped
05 [990b487a|5b2c100b] (21+26/47) Accurately ripped
06 [42a8b0ea|80cfcbd0] (20+26/46) Accurately ripped
07 [6ed4f5b4|71f50f37] (21+26/47) Accurately ripped
08 [c7490cc3|90054f06] (20+26/46) Accurately ripped
09 [89f21cda|615f74ce] (21+26/47) Accurately ripped
10 [ac1e341e|3b3a3edc] (21+24/45) Accurately ripped

Track Peak [ CRC32 ] [W/O NULL] [ LOG ]
– 100,0 [FE882FD3] [6D160CA2] CRC32
01 99,9 [1859543C] [2A379720]
02 99,9 [6D31C927] [3D838281]
03 100,0 [D6D2611F] [39F93834]
04 99,9 [46DF1D9F] [F35C0A5F]
05 100,0 [7CF1DF8B] [B9563EE9]
06 99,9 [CB733C0F] [14F7B964]
07 99,9 [487B0FD4] [91FAEAEE]
08 99,9 [E5B8FA26] [A454B9AA]
09 99,9 [0D1620EB] [098239B3]
10 100,0 [38696F32] [B70107BB]


Supertramp - Breakfast in America (1979)

All thanks go to the original releaser

Supertramp in my Blog

Download Supertramp - Breakfast in America (1979):