Subcategories

Synkopy 61 - Festival / Xantipa / Formule 1 (1972-1975) [Reissue 2008]

Posted By: gribovar
Synkopy 61 - Festival / Xantipa / Formule 1 (1972-1975) [Reissue 2008]

Synkopy 61 - Festival / Xantipa / Formule 1 (1972-1975) [Reissue 2008]
EAC Rip | FLAC (tracks+.cue+log) - 817 MB | MP3 CBR 320 kbps (LAME 3.93) - 316 MB | Covers - 58 MB
Genre: Progressive Rock | RAR 3% Rec. | Label: FT Records (FT0104-2)

Synkopy (or Synkopy 61), translated as Syncopations, were born in 1960 in Brno, Moravia. The first line-up consisted of Jiri Rybar (drums, vocals), Pavel Pokorny (violin, vocals), Petr Smeja (guitar, vocals), Milos Orsag (accordion) and Petr Fischer (clarinet), a while later joined by Jiri Rybar on double bass and vocals. This early acoustic incarnation was geared towards dance halls, but in 1963 Smeja and Carvas started playing electric instruments and the sound become more rocking. Their name changed every year, ie. Synkopy 63, 64… until they finally settled on Synkopy 61.
The band took advantage of the fact that every member was a singer, and developed into a west-coast style outfit, similar to the Beach Boys, who they would open for in 1969. In 1966 a lead vocalist Michal Polak of Shakers joined them, and with his high falsetto voice brought them even closer to the west-coast aesthetic. Also around that same time they started collaborating with a talented keyboardist, singer and composer, Oldrich Vesely, though he didn't become a full-fledged member until 1974.
Come the early 70's, the era of lush harmony vocals is over and we enter an era of deep normalization. Synkopy 61 was now entering its second distinct phase, during which they looked up to Uriah Heep, of all bands, for inspiration, recording czech-language versions of some of their songs, ie. "Park" (The Park), "Bily Vrany" (Easy Livin'), and "Hrej se mnou fair" (Look at Yourself), and numerous original compositions. They released three mini albums during this time, Festival (1972), Xantipa (1973) and Formule 1 (1975), each more progressive than the last, culminating with the 13 minute epic "Touhy" (Desires). In 1975, Oldrich Vesely, the main composer, left to join Modry Efekt, and the band spent the late 70s in dance halls doing covers.
Vesely returned in 1980 and after his experience with Modry Efekt he decided to turn the band (now simply Synkopy) into a bona-fide progressive rock group, and thus begins the third phase. Most of the veterans (ie., Polak, Carvas, Smeji) that had carried the band since the early years had left by now and Vesely became the front-man and leader. He collaborated with renowned lyricist Pavel Vrba and another trilogy of albums was released: Slunecni hodiny (1981), Kridleni (1983), and Zrcadla (1986), each with a slightly different line-up. Of these, especially the first one is considered by many to be a classic of Czech progressive rock. The sound was synth-oriented and the style somewhat resembled classic Kansas. The band ceased to exist in 1990, though there was a small-scale live comeback in 1992.

CD 1 Tracklist (Festival, Xantipa, Formule 1):

Festival (1972)
01. Festival
02. Pár týdnů
03. Chci děvče stálý
04. Ďáblova známá
05. Lady Godiva
06. Bytost podivná
07. Žárlivá dívka

Xantipa (1974)
08. Xantipa
09. Zelený lučištník
10. Brouk
11. Bílý vrány
12. Balón
13. Ptačí sonáta
14. Hrej se mnou fair

Formule 1 (1975)
15. Formule 1
16. To se stává
17. Poselství dětem
18. Kámen mudrců
19. Touhy

Total time: 01:12:43

CD 2 Tracklist (Bonus tracks 1966-1977):
01. Hej, Pane můj [1966]
02. Když se tě ptám [1966]
03. Moje tajemství [1966]
04. Musím ti říct sbohem [1966]
05. Děvče napořád [1966]
06. Marťan [1966]
07. Válka je vůl [1967]
08. Zelená louka [1968]
09. Nenechte umíráček znít [1968]
10. Stálo to za to [1968]
11. Bůh lenosti [1969]
12. Casanova [1969]
13. Nenech si lhát [1969]
14. Robinson [1972]
15. Válka je vůl (verze 2) [1973]
16. Píseň bolavá [1975]
17. Konečná stanice [1976]
18. Mozaiky [1977]
19. Listopad [1977]

Total time: 01:01:22

Exact Audio Copy V1.0 beta 1 from 15. November 2010

EAC extraction logfile from 14. July 2013, 19:59

Synkopy 61 / Festival, Xantipa, Formule 1 (CD1)

Used drive : Optiarc DVD RW AD-7240S Adapter: 2 ID: 1

Read mode : Secure
Utilize accurate stream : Yes
Defeat audio cache : Yes
Make use of C2 pointers : No

Read offset correction : 48
Overread into Lead-In and Lead-Out : No
Fill up missing offset samples with silence : Yes
Delete leading and trailing silent blocks : No
Null samples used in CRC calculations : Yes
Used interface : Native Win32 interface for Win NT & 2000
Gap handling : Appended to previous track

Used output format : User Defined Encoder
Selected bitrate : 32 kBit/s
Quality : High
Add ID3 tag : No
Command line compressor : C:\Program Files (x86)\Exact Audio Copy New\FLAC\FLAC.EXE
Additional command line options : -8 -V -T "ARTIST=%a" -T "TITLE=%t" -T "ALBUM=%g" -T "DATE=%y" -T "TRACKNUMBER=%n" -T "GENRE=%m" -T "COMMENT=EAC" %s


TOC of the extracted CD

Track | Start | Length | Start sector | End sector
––––––––––––––––––––––––––––-
1 | 0:00.00 | 3:00.05 | 0 | 13504
2 | 3:00.05 | 2:33.17 | 13505 | 24996
3 | 5:33.22 | 3:06.03 | 24997 | 38949
4 | 8:39.25 | 2:18.13 | 38950 | 49312
5 | 10:57.38 | 3:57.18 | 49313 | 67105
6 | 14:54.56 | 3:50.58 | 67106 | 84413
7 | 18:45.39 | 2:13.61 | 84414 | 94449
8 | 20:59.25 | 2:44.64 | 94450 | 106813
9 | 23:44.14 | 4:03.44 | 106814 | 125082
10 | 27:47.58 | 2:57.11 | 125083 | 138368
11 | 30:44.69 | 2:30.50 | 138369 | 149668
12 | 33:15.44 | 4:20.17 | 149669 | 169185
13 | 37:35.61 | 3:43.25 | 169186 | 185935
14 | 41:19.11 | 4:47.57 | 185936 | 207517
15 | 46:06.68 | 3:00.28 | 207518 | 221045
16 | 49:07.21 | 3:15.08 | 221046 | 235678
17 | 52:22.29 | 3:26.63 | 235679 | 251191
18 | 55:49.17 | 3:36.15 | 251192 | 267406
19 | 59:25.32 | 13:17.56 | 267407 | 327237


Track 1

Filename C:\Lossless\Synkopy 61 - 2008 - Festival, Xantipa, Formule 1 [anthology] [flac]\CD1\01 - Festival.wav

Pre-gap length 0:00:02.00

Peak level 94.8 %
Extraction speed 2.4 X
Track quality 100.0 %
Test CRC A5E1B2F2
Copy CRC A5E1B2F2
Track not present in AccurateRip database
Copy OK

Track 2

Filename C:\Lossless\Synkopy 61 - 2008 - Festival, Xantipa, Formule 1 [anthology] [flac]\CD1\02 - Par tydnu.wav

Pre-gap length 0:00:02.00

Peak level 92.0 %
Extraction speed 2.5 X
Track quality 100.0 %
Test CRC 82117E01
Copy CRC 82117E01
Track not present in AccurateRip database
Copy OK

Track 3

Filename C:\Lossless\Synkopy 61 - 2008 - Festival, Xantipa, Formule 1 [anthology] [flac]\CD1\03 - Chci devce staly.wav

Pre-gap length 0:00:02.00

Peak level 96.7 %
Extraction speed 2.7 X
Track quality 100.0 %
Test CRC 59F90983
Copy CRC 59F90983
Track not present in AccurateRip database
Copy OK

Track 4

Filename C:\Lossless\Synkopy 61 - 2008 - Festival, Xantipa, Formule 1 [anthology] [flac]\CD1\04 - Dablova znama.wav

Pre-gap length 0:00:03.59

Peak level 96.8 %
Extraction speed 2.7 X
Track quality 100.0 %
Test CRC BFE5875B
Copy CRC BFE5875B
Track not present in AccurateRip database
Copy OK

Track 5

Filename C:\Lossless\Synkopy 61 - 2008 - Festival, Xantipa, Formule 1 [anthology] [flac]\CD1\05 - Lady Godiva.wav

Pre-gap length 0:00:02.72

Peak level 96.4 %
Extraction speed 3.2 X
Track quality 100.0 %
Test CRC 3667BD12
Copy CRC 3667BD12
Track not present in AccurateRip database
Copy OK

Track 6

Filename C:\Lossless\Synkopy 61 - 2008 - Festival, Xantipa, Formule 1 [anthology] [flac]\CD1\06 - Bytost podivna.wav

Pre-gap length 0:00:03.00

Peak level 93.0 %
Extraction speed 2.9 X
Track quality 99.9 %
Test CRC 66763038
Copy CRC 66763038
Track not present in AccurateRip database
Copy OK

Track 7

Filename C:\Lossless\Synkopy 61 - 2008 - Festival, Xantipa, Formule 1 [anthology] [flac]\CD1\07 - Zarliva divka.wav

Pre-gap length 0:00:03.04

Peak level 96.2 %
Extraction speed 2.5 X
Track quality 99.9 %
Test CRC 67C4AD20
Copy CRC 67C4AD20
Track not present in AccurateRip database
Copy OK

Track 8

Filename C:\Lossless\Synkopy 61 - 2008 - Festival, Xantipa, Formule 1 [anthology] [flac]\CD1\08 - Xantipa.wav

Pre-gap length 0:00:04.57

Peak level 96.6 %
Extraction speed 3.4 X
Track quality 100.0 %
Test CRC E0F49621
Copy CRC E0F49621
Track not present in AccurateRip database
Copy OK

Track 9

Filename C:\Lossless\Synkopy 61 - 2008 - Festival, Xantipa, Formule 1 [anthology] [flac]\CD1\09 - Zeleny lucistnik.wav

Pre-gap length 0:00:02.00

Peak level 95.5 %
Extraction speed 3.8 X
Track quality 100.0 %
Test CRC 3564656A
Copy CRC 3564656A
Track not present in AccurateRip database
Copy OK

Track 10

Filename C:\Lossless\Synkopy 61 - 2008 - Festival, Xantipa, Formule 1 [anthology] [flac]\CD1\10 - Brouk.wav

Pre-gap length 0:00:02.00

Peak level 96.3 %
Extraction speed 3.7 X
Track quality 100.0 %
Test CRC 3254D642
Copy CRC 3254D642
Track not present in AccurateRip database
Copy OK

Track 11

Filename C:\Lossless\Synkopy 61 - 2008 - Festival, Xantipa, Formule 1 [anthology] [flac]\CD1\11 - Bily vrany.wav

Pre-gap length 0:00:00.04

Peak level 96.1 %
Extraction speed 3.6 X
Track quality 100.0 %
Test CRC 09ECF952
Copy CRC 09ECF952
Track not present in AccurateRip database
Copy OK

Track 12

Filename C:\Lossless\Synkopy 61 - 2008 - Festival, Xantipa, Formule 1 [anthology] [flac]\CD1\12 - Balon.wav

Pre-gap length 0:00:02.43

Peak level 95.9 %
Extraction speed 4.2 X
Track quality 100.0 %
Test CRC E6B03941
Copy CRC E6B03941
Track not present in AccurateRip database
Copy OK

Track 13

Filename C:\Lossless\Synkopy 61 - 2008 - Festival, Xantipa, Formule 1 [anthology] [flac]\CD1\13 - Ptaci sonata.wav

Pre-gap length 0:00:02.54

Peak level 95.1 %
Extraction speed 4.3 X
Track quality 100.0 %
Test CRC 03891E1C
Copy CRC 03891E1C
Track not present in AccurateRip database
Copy OK

Track 14

Filename C:\Lossless\Synkopy 61 - 2008 - Festival, Xantipa, Formule 1 [anthology] [flac]\CD1\14 - Hrej se mnou fair.wav

Pre-gap length 0:00:02.00

Peak level 97.3 %
Extraction speed 4.5 X
Track quality 100.0 %
Test CRC C7567807
Copy CRC C7567807
Track not present in AccurateRip database
Copy OK

Track 15

Filename C:\Lossless\Synkopy 61 - 2008 - Festival, Xantipa, Formule 1 [anthology] [flac]\CD1\15 - Formule 1.wav

Pre-gap length 0:00:05.14

Peak level 95.5 %
Extraction speed 4.4 X
Track quality 100.0 %
Test CRC 069432A1
Copy CRC 069432A1
Track not present in AccurateRip database
Copy OK

Track 16

Filename C:\Lossless\Synkopy 61 - 2008 - Festival, Xantipa, Formule 1 [anthology] [flac]\CD1\16 - To se stava.wav

Pre-gap length 0:00:03.01

Peak level 95.9 %
Extraction speed 4.6 X
Track quality 100.0 %
Test CRC 5F7E4EDB
Copy CRC 5F7E4EDB
Track not present in AccurateRip database
Copy OK

Track 17

Filename C:\Lossless\Synkopy 61 - 2008 - Festival, Xantipa, Formule 1 [anthology] [flac]\CD1\17 - Poselstvi detem.wav

Pre-gap length 0:00:03.17

Peak level 93.3 %
Extraction speed 4.6 X
Track quality 100.0 %
Test CRC A968604B
Copy CRC A968604B
Track not present in AccurateRip database
Copy OK

Track 18

Filename C:\Lossless\Synkopy 61 - 2008 - Festival, Xantipa, Formule 1 [anthology] [flac]\CD1\18 - Kamen mudrcu.wav

Pre-gap length 0:00:03.19

Peak level 96.2 %
Extraction speed 4.9 X
Track quality 100.0 %
Test CRC A8C6E096
Copy CRC A8C6E096
Track not present in AccurateRip database
Copy OK

Track 19

Filename C:\Lossless\Synkopy 61 - 2008 - Festival, Xantipa, Formule 1 [anthology] [flac]\CD1\19 - Touhy.wav

Pre-gap length 0:00:00.02

Peak level 92.8 %
Extraction speed 5.8 X
Track quality 100.0 %
Test CRC A93E8C7B
Copy CRC A93E8C7B
Track not present in AccurateRip database
Copy OK


None of the tracks are present in the AccurateRip database

No errors occurred

End of status report

==== Log checksum 0CEB5155CBD0CAC3CEBB40EE915CE61AAB6907A00682B3F11D8CCE515501CDA2 ====

[CUETools log; Date: 22.05.2020 18:43:46; Version: 2.1.4]
[CTDB TOCID: PW3gaB2_Tag7TyS8_HP9Q01dHWE-] found.
Track | CTDB Status
1 | (5/5) Accurately ripped
2 | (5/5) Accurately ripped
3 | (5/5) Accurately ripped
4 | (5/5) Accurately ripped
5 | (5/5) Accurately ripped
6 | (5/5) Accurately ripped
7 | (5/5) Accurately ripped
8 | (5/5) Accurately ripped
9 | (5/5) Accurately ripped
10 | (5/5) Accurately ripped
11 | (5/5) Accurately ripped
12 | (5/5) Accurately ripped
13 | (5/5) Accurately ripped
14 | (5/5) Accurately ripped
15 | (5/5) Accurately ripped
16 | (5/5) Accurately ripped
17 | (5/5) Accurately ripped
18 | (5/5) Accurately ripped
19 | (5/5) Accurately ripped
[AccurateRip ID: 002a14f0-02590850-2c110b13] found.
Track [ CRC | V2 ] Status
01 [f80ed08b|24fccb26] (0+2/2) Accurately ripped
02 [64475715|49c7244d] (0+2/2) Accurately ripped
03 [8365865a|0ded0fde] (0+2/2) Accurately ripped
04 [39016aae|ed01379b] (0+2/2) Accurately ripped
05 [7cdecdad|3415b66a] (0+2/2) Accurately ripped
06 [9898f578|0004266f] (0+2/2) Accurately ripped
07 [18cfc4db|ba1097b0] (0+2/2) Accurately ripped
08 [02c2b805|09394047] (0+2/2) Accurately ripped
09 [816eb384|502809ad] (0+2/2) Accurately ripped
10 [fc308057|60421fc5] (0+2/2) Accurately ripped
11 [fd759652|64520896] (0+2/2) Accurately ripped
12 [1f65c273|3471ff82] (0+2/2) Accurately ripped
13 [c605ae13|62b1dae4] (0+2/2) Accurately ripped
14 [b81e5fd7|4fe76a13] (0+2/2) Accurately ripped
15 [481c191c|958dd7e4] (0+3/3) Accurately ripped
16 [34e46dba|e19185b7] (0+3/3) Accurately ripped
17 [2df05628|87e6ef68] (0+3/3) Accurately ripped
18 [16f5411c|e1579471] (0+3/3) Accurately ripped
19 [0423dc47|b36fb197] (0+3/3) Accurately ripped

Track Peak [ CRC32 ] [W/O NULL] [ LOG ]
– 97,3 [C8F3B1F3] [343D94E1]
01 94,8 [A5E1B2F2] [D5AE449D] CRC32
02 92,0 [82117E01] [0EAA1E89] CRC32
03 96,7 [59F90983] [D6A3E298] CRC32
04 96,8 [BFE5875B] [26BB5A11] CRC32
05 96,4 [3667BD12] [37D3C463] CRC32
06 93,0 [66763038] [1A0C5569] CRC32
07 96,2 [67C4AD20] [1E383046] CRC32
08 96,6 [E0F49621] [A075C091] CRC32
09 95,5 [3564656A] [AB8E7BF9] CRC32
10 96,3 [3254D642] [58C9E507] CRC32
11 96,1 [09ECF952] [939B51C1] CRC32
12 95,9 [E6B03941] [4D906B74] CRC32
13 95,1 [03891E1C] [FFD0C3B9] CRC32
14 97,3 [C7567807] [A870D57C] CRC32
15 95,5 [069432A1] [0C532C03] CRC32
16 95,9 [5F7E4EDB] [7210302F] CRC32
17 93,3 [A968604B] [184CB0D4] CRC32
18 96,2 [A8C6E096] [6785A70E] CRC32
19 92,8 [A93E8C7B] [9341C5A4] CRC32

Exact Audio Copy V1.0 beta 1 from 15. November 2010

EAC extraction logfile from 14. July 2013, 20:44

Synkopy 61 / Festival, Xantipa, Formule 1 (CD2)

Used drive : Optiarc DVD RW AD-7240S Adapter: 2 ID: 1

Read mode : Secure
Utilize accurate stream : Yes
Defeat audio cache : Yes
Make use of C2 pointers : No

Read offset correction : 48
Overread into Lead-In and Lead-Out : No
Fill up missing offset samples with silence : Yes
Delete leading and trailing silent blocks : No
Null samples used in CRC calculations : Yes
Used interface : Native Win32 interface for Win NT & 2000
Gap handling : Appended to previous track

Used output format : User Defined Encoder
Selected bitrate : 32 kBit/s
Quality : High
Add ID3 tag : No
Command line compressor : C:\Program Files (x86)\Exact Audio Copy New\FLAC\FLAC.EXE
Additional command line options : -8 -V -T "ARTIST=%a" -T "TITLE=%t" -T "ALBUM=%g" -T "DATE=%y" -T "TRACKNUMBER=%n" -T "GENRE=%m" -T "COMMENT=EAC" %s


TOC of the extracted CD

Track | Start | Length | Start sector | End sector
––––––––––––––––––––––––––––-
1 | 0:00.00 | 2:52.34 | 0 | 12933
2 | 2:52.34 | 2:49.20 | 12934 | 25628
3 | 5:41.54 | 2:27.71 | 25629 | 36724
4 | 8:09.50 | 3:38.38 | 36725 | 53112
5 | 11:48.13 | 2:33.73 | 53113 | 64660
6 | 14:22.11 | 2:45.37 | 64661 | 77072
7 | 17:07.48 | 2:18.07 | 77073 | 87429
8 | 19:25.55 | 3:45.66 | 87430 | 104370
9 | 23:11.46 | 3:44.60 | 104371 | 121230
10 | 26:56.31 | 2:50.56 | 121231 | 134036
11 | 29:47.12 | 2:34.50 | 134037 | 145636
12 | 32:21.62 | 2:22.27 | 145637 | 156313
13 | 34:44.14 | 2:56.50 | 156314 | 169563
14 | 37:40.64 | 2:32.65 | 169564 | 181028
15 | 40:13.54 | 2:44.69 | 181029 | 193397
16 | 42:58.48 | 4:16.47 | 193398 | 212644
17 | 47:15.20 | 4:03.45 | 212645 | 230914
18 | 51:18.65 | 2:35.08 | 230915 | 242547
19 | 53:53.73 | 7:26.59 | 242548 | 276056


Track 1

Filename C:\Lossless\Synkopy 61 - 2008 - Festival, Xantipa, Formule 1 [anthology] [flac]\CD2 (bonus)\01 - Hej, Pane muj.wav

Pre-gap length 0:00:02.00

Peak level 92.1 %
Extraction speed 2.2 X
Track quality 100.0 %
Test CRC 8240B460
Copy CRC 8240B460
Track not present in AccurateRip database
Copy OK

Track 2

Filename C:\Lossless\Synkopy 61 - 2008 - Festival, Xantipa, Formule 1 [anthology] [flac]\CD2 (bonus)\02 - Kdyz se te ptam.wav

Peak level 86.2 %
Extraction speed 2.3 X
Track quality 100.0 %
Test CRC C045B268
Copy CRC C045B268
Track not present in AccurateRip database
Copy OK

Track 3

Filename C:\Lossless\Synkopy 61 - 2008 - Festival, Xantipa, Formule 1 [anthology] [flac]\CD2 (bonus)\03 - Moje tajemstvi.wav

Peak level 81.0 %
Extraction speed 2.4 X
Track quality 100.0 %
Test CRC 44BF4A2B
Copy CRC 44BF4A2B
Track not present in AccurateRip database
Copy OK

Track 4

Filename C:\Lossless\Synkopy 61 - 2008 - Festival, Xantipa, Formule 1 [anthology] [flac]\CD2 (bonus)\04 - Musim ti rict sbohem.wav

Peak level 90.1 %
Extraction speed 2.5 X
Track quality 99.9 %
Test CRC A3C72D34
Copy CRC A3C72D34
Track not present in AccurateRip database
Copy OK

Track 5

Filename C:\Lossless\Synkopy 61 - 2008 - Festival, Xantipa, Formule 1 [anthology] [flac]\CD2 (bonus)\05 - Devce naporad.wav

Peak level 89.5 %
Extraction speed 2.8 X
Track quality 100.0 %
Test CRC F23259A4
Copy CRC F23259A4
Track not present in AccurateRip database
Copy OK

Track 6

Filename C:\Lossless\Synkopy 61 - 2008 - Festival, Xantipa, Formule 1 [anthology] [flac]\CD2 (bonus)\06 - Martan.wav

Peak level 84.1 %
Extraction speed 3.0 X
Track quality 100.0 %
Test CRC 521A3199
Copy CRC 521A3199
Track not present in AccurateRip database
Copy OK

Track 7

Filename C:\Lossless\Synkopy 61 - 2008 - Festival, Xantipa, Formule 1 [anthology] [flac]\CD2 (bonus)\07 - Valka je vul.wav

Peak level 88.0 %
Extraction speed 3.0 X
Track quality 100.0 %
Test CRC F722F3E6
Copy CRC F722F3E6
Track not present in AccurateRip database
Copy OK

Track 8

Filename C:\Lossless\Synkopy 61 - 2008 - Festival, Xantipa, Formule 1 [anthology] [flac]\CD2 (bonus)\08 - Zelena louka.wav

Peak level 89.0 %
Extraction speed 3.4 X
Track quality 100.0 %
Test CRC A72C4158
Copy CRC A72C4158
Track not present in AccurateRip database
Copy OK

Track 9

Filename C:\Lossless\Synkopy 61 - 2008 - Festival, Xantipa, Formule 1 [anthology] [flac]\CD2 (bonus)\09 - Nenechte umiracek znit.wav

Peak level 91.1 %
Extraction speed 3.1 X
Track quality 99.9 %
Test CRC 72E75EB6
Copy CRC 72E75EB6
Track not present in AccurateRip database
Copy OK

Track 10

Filename C:\Lossless\Synkopy 61 - 2008 - Festival, Xantipa, Formule 1 [anthology] [flac]\CD2 (bonus)\10 - Stalo to za to.wav

Peak level 84.0 %
Extraction speed 3.6 X
Track quality 100.0 %
Test CRC 01B380D6
Copy CRC 01B380D6
Track not present in AccurateRip database
Copy OK

Track 11

Filename C:\Lossless\Synkopy 61 - 2008 - Festival, Xantipa, Formule 1 [anthology] [flac]\CD2 (bonus)\11 - Buh lenosti.wav

Peak level 85.0 %
Extraction speed 3.5 X
Track quality 100.0 %
Test CRC FCA91100
Copy CRC FCA91100
Track not present in AccurateRip database
Copy OK

Track 12

Filename C:\Lossless\Synkopy 61 - 2008 - Festival, Xantipa, Formule 1 [anthology] [flac]\CD2 (bonus)\12 - Casanova.wav

Peak level 86.9 %
Extraction speed 3.6 X
Track quality 100.0 %
Test CRC 5AB786CF
Copy CRC 5AB786CF
Track not present in AccurateRip database
Copy OK

Track 13

Filename C:\Lossless\Synkopy 61 - 2008 - Festival, Xantipa, Formule 1 [anthology] [flac]\CD2 (bonus)\13 - Nenech si lhat.wav

Peak level 91.1 %
Extraction speed 3.3 X
Track quality 99.9 %
Test CRC 8613AAD7
Copy CRC 8613AAD7
Track not present in AccurateRip database
Copy OK

Track 14

Filename C:\Lossless\Synkopy 61 - 2008 - Festival, Xantipa, Formule 1 [anthology] [flac]\CD2 (bonus)\14 - Robinson.wav

Peak level 94.0 %
Extraction speed 3.9 X
Track quality 100.0 %
Test CRC 2BBC78F5
Copy CRC 2BBC78F5
Track not present in AccurateRip database
Copy OK

Track 15

Filename C:\Lossless\Synkopy 61 - 2008 - Festival, Xantipa, Formule 1 [anthology] [flac]\CD2 (bonus)\15 - Valka je vul (verze 2).wav

Peak level 95.6 %
Extraction speed 4.0 X
Track quality 100.0 %
Test CRC 817FD6C0
Copy CRC 817FD6C0
Track not present in AccurateRip database
Copy OK

Track 16

Filename C:\Lossless\Synkopy 61 - 2008 - Festival, Xantipa, Formule 1 [anthology] [flac]\CD2 (bonus)\16 - Pisen bolava.wav

Peak level 72.8 %
Extraction speed 4.4 X
Track quality 100.0 %
Test CRC 5A3BBC0F
Copy CRC 5A3BBC0F
Track not present in AccurateRip database
Copy OK

Track 17

Filename C:\Lossless\Synkopy 61 - 2008 - Festival, Xantipa, Formule 1 [anthology] [flac]\CD2 (bonus)\17 - Konecna stanice.wav

Peak level 85.3 %
Extraction speed 4.5 X
Track quality 100.0 %
Test CRC 395DEC14
Copy CRC 395DEC14
Track not present in AccurateRip database
Copy OK

Track 18

Filename C:\Lossless\Synkopy 61 - 2008 - Festival, Xantipa, Formule 1 [anthology] [flac]\CD2 (bonus)\18 - Mozaiky.wav

Peak level 94.9 %
Extraction speed 4.3 X
Track quality 100.0 %
Test CRC B3CA0AAF
Copy CRC B3CA0AAF
Track not present in AccurateRip database
Copy OK

Track 19

Filename C:\Lossless\Synkopy 61 - 2008 - Festival, Xantipa, Formule 1 [anthology] [flac]\CD2 (bonus)\19 - Listopad.wav

Peak level 89.9 %
Extraction speed 5.2 X
Track quality 100.0 %
Test CRC 100F6C0E
Copy CRC 100F6C0E
Track not present in AccurateRip database
Copy OK


None of the tracks are present in the AccurateRip database

No errors occurred

End of status report

==== Log checksum F80B57548B883449599BC0F6E9C0C64E7D20DFF658AE2A42CDD7F2D26848A3D1 ====

[CUETools log; Date: 22.05.2020 18:44:13; Version: 2.1.4]
[CTDB TOCID: 1ijAnLFVCYn0Vfsz3piftzbUVIY-] found.
Track | CTDB Status
1 | (4/4) Accurately ripped
2 | (4/4) Accurately ripped
3 | (4/4) Accurately ripped
4 | (4/4) Accurately ripped
5 | (4/4) Accurately ripped
6 | (4/4) Accurately ripped
7 | (4/4) Accurately ripped
8 | (4/4) Accurately ripped
9 | (4/4) Accurately ripped
10 | (4/4) Accurately ripped
11 | (4/4) Accurately ripped
12 | (4/4) Accurately ripped
13 | (4/4) Accurately ripped
14 | (4/4) Accurately ripped
15 | (4/4) Accurately ripped
16 | (4/4) Accurately ripped
17 | (4/4) Accurately ripped
18 | (4/4) Accurately ripped
19 | (4/4) Accurately ripped
[AccurateRip ID: 0026887f-021fb5de-090e6013] found.
Track [ CRC | V2 ] Status
01 [d63ce29f|a01aae4f] (0+1/1) Accurately ripped
02 [66c4b04d|3c5e52b5] (0+1/1) Accurately ripped
03 [fe21153a|1f161d1a] (0+1/1) Accurately ripped
04 [30cd5eca|70da6529] (0+1/1) Accurately ripped
05 [78e7a4a9|4fe0a9cb] (0+1/1) Accurately ripped
06 [ab61ac6a|7553828c] (0+1/1) Accurately ripped
07 [1234bd41|a6accd95] (0+1/1) Accurately ripped
08 [b9405a2a|719cfabe] (0+1/1) Accurately ripped
09 [e51cd5c1|952477b2] (0+1/1) Accurately ripped
10 [6451cf6a|6bd11cfb] (0+1/1) Accurately ripped
11 [f64c2129|589dea69] (0+1/1) Accurately ripped
12 [0cf04def|4a9f1b74] (0+1/1) Accurately ripped
13 [e23a10d4|45d18556] (0+1/1) Accurately ripped
14 [3e7014f6|1c9f3ba0] (0+1/1) Accurately ripped
15 [fa5f3834|18e49edd] (0+1/1) Accurately ripped
16 [9585e615|10f7ca75] (0+1/1) Accurately ripped
17 [91018b69|4d752b5b] (0+1/1) Accurately ripped
18 [70734e89|f632bff6] (0+1/1) Accurately ripped
19 [94057adc|21556b8f] (0+1/1) Accurately ripped

Track Peak [ CRC32 ] [W/O NULL] [ LOG ]
– 95,6 [3850223B] [C945F6D2]
01 92,1 [8240B460] [EFB809BB] CRC32
02 86,2 [C045B268] [4FC70A43] CRC32
03 81,0 [44BF4A2B] [47B02FE5] CRC32
04 90,1 [A3C72D34] [059737E7] CRC32
05 89,5 [F23259A4] [B983EF66] CRC32
06 84,1 [521A3199] [36B9A1CE] CRC32
07 87,9 [F722F3E6] [B0C85C71] CRC32
08 89,0 [A72C4158] [52301185] CRC32
09 91,1 [72E75EB6] [46A0BB81] CRC32
10 84,0 [01B380D6] [172DA6B4] CRC32
11 85,0 [FCA91100] [2B664A4F] CRC32
12 86,9 [5AB786CF] [A87F8281] CRC32
13 91,1 [8613AAD7] [F7360A22] CRC32
14 94,0 [2BBC78F5] [56784309] CRC32
15 95,6 [817FD6C0] [8B7E08A7] CRC32
16 72,8 [5A3BBC0F] [6171D219] CRC32
17 85,3 [395DEC14] [59D9ED00] CRC32
18 94,9 [B3CA0AAF] [AF4DB148] CRC32
19 89,9 [100F6C0E] [F30EBE18] CRC32

Thanks to abrelapuertaninyo