Subcategories

Terence Blanchard - Flow (2005) {Blue Note}

Posted By: TestTickles
Terence Blanchard - Flow (2005) {Blue Note}

Terence Blanchard - Flow (2005) {Blue Note}
EAC Rip | FLAC with CUE and log | scans | 507 mb
MP3 CBR 320kbps | RAR | 217 mb
Genre: jazz

The means of to flow is about having a feeling, a vibe. Flow is the title of the 2005 album by trumpeter Terence Blanchard. This disc was produced by Herbie Hancock, who plays on two cuts. This was released by Blue Note Records.

Terence Blanchard - Flow (2005) {Blue Note}

01. Flow, Part I
02. Wadagbe (Intro)
03. Wadagbe
04. Benny's Tune
05. Wandering Wonder
06. Flow, Part II
07. The Source
08. Over There
09. Child's Play
10. Flow, Part III
11. Harvesting Dance

Terence Blanchard-trumpet, synth programming
Brice Winston–tenor & soprano saxophones, Yamaha WX5
Lionel Loueke–guitar & vocals
Herbie Hancock–piano (tracks 4 & 7)
Aaron Parks–piano (tracks 2-3, 5, 8-9 & 11)
Derrick Hodge–bass
Kendrick Scott–drums
Howard Drossin-synth programming (track 11)
Gretchen Parlato–vocals (tracks 8 & 9)

Produced by Herbie Hancock
Associate producer: Robin Burgess
Engineered by Don Murray
Assistant engineers: Glenn Pittman (recording), Seth Presant (mixing)
Mastered by Robert Vosgien

Exact Audio Copy V1.0 beta 6 from 9. April 2015

EAC extraction logfile from 31. January 2018, 8:45

Terence Blanchard / Flow

Used drive : TSSTcorpDVD+-RW TS-L633C Adapter: 1 ID: 0

Read mode : Secure
Utilize accurate stream : Yes
Defeat audio cache : Yes
Make use of C2 pointers : No

Read offset correction : 6
Overread into Lead-In and Lead-Out : No
Fill up missing offset samples with silence : Yes
Delete leading and trailing silent blocks : No
Null samples used in CRC calculations : Yes
Used interface : Native Win32 interface for Win NT & 2000
Gap handling : Appended to previous track

Used output format : Internal WAV Routines
Sample format : 44.100 Hz; 16 Bit; Stereo


TOC of the extracted CD

Track | Start | Length | Start sector | End sector
––––––––––––––––––––––––––––-
1 | 0:00.00 | 5:29.23 | 0 | 24697
2 | 5:29.23 | 4:14.16 | 24698 | 43763
3 | 9:43.39 | 10:26.65 | 43764 | 90778
4 | 20:10.29 | 7:43.18 | 90779 | 125521
5 | 27:53.47 | 5:46.21 | 125522 | 151492
6 | 33:39.68 | 3:37.48 | 151493 | 167815
7 | 37:17.41 | 8:01.39 | 167816 | 203929
8 | 45:19.05 | 7:32.22 | 203930 | 237851
9 | 52:51.27 | 6:11.61 | 237852 | 265737
10 | 59:03.13 | 2:45.18 | 265738 | 278130
11 | 61:48.31 | 11:42.68 | 278131 | 330848


Track 1

Filename C:\My Documents\My FLAC\Terence Blanchard - Flow (2005) [FLAC] {Blue Note}\01 - Flow, Part I.wav

Pre-gap length 0:00:02.00

Peak level 100.0 %
Extraction speed 2.5 X
Track quality 99.9 %
Test CRC 4D4FEC31
Copy CRC 4D4FEC31
Accurately ripped (confidence 27) [F3688B57] (AR v2)
Copy OK

Track 2

Filename C:\My Documents\My FLAC\Terence Blanchard - Flow (2005) [FLAC] {Blue Note}\02 - Wadagbe (Intro).wav

Peak level 86.5 %
Extraction speed 3.1 X
Track quality 100.0 %
Test CRC DBF27508
Copy CRC DBF27508
Accurately ripped (confidence 26) [9382F4FD] (AR v2)
Copy OK

Track 3

Filename C:\My Documents\My FLAC\Terence Blanchard - Flow (2005) [FLAC] {Blue Note}\03 - Wadagbe.wav

Peak level 100.0 %
Extraction speed 3.8 X
Track quality 100.0 %
Test CRC B7D27814
Copy CRC B7D27814
Accurately ripped (confidence 26) [AB6CCB9D] (AR v2)
Copy OK

Track 4

Filename C:\My Documents\My FLAC\Terence Blanchard - Flow (2005) [FLAC] {Blue Note}\04 - Benny's Tune.wav

Peak level 97.8 %
Extraction speed 4.2 X
Track quality 100.0 %
Test CRC CA57296D
Copy CRC CA57296D
Accurately ripped (confidence 26) [F60DC0A2] (AR v2)
Copy OK

Track 5

Filename C:\My Documents\My FLAC\Terence Blanchard - Flow (2005) [FLAC] {Blue Note}\05 - Wandering Wonder.wav

Peak level 100.0 %
Extraction speed 3.8 X
Track quality 99.9 %
Test CRC 2270F540
Copy CRC 2270F540
Accurately ripped (confidence 27) [7DA5523B] (AR v2)
Copy OK

Track 6

Filename C:\My Documents\My FLAC\Terence Blanchard - Flow (2005) [FLAC] {Blue Note}\06 - Flow, Part II.wav

Peak level 98.6 %
Extraction speed 4.3 X
Track quality 100.0 %
Test CRC 03FA5EB6
Copy CRC 03FA5EB6
Accurately ripped (confidence 27) [793FC0B0] (AR v2)
Copy OK

Track 7

Filename C:\My Documents\My FLAC\Terence Blanchard - Flow (2005) [FLAC] {Blue Note}\07 - The Source.wav

Peak level 100.0 %
Extraction speed 4.9 X
Track quality 100.0 %
Test CRC 2F89761C
Copy CRC 2F89761C
Accurately ripped (confidence 27) [946EED08] (AR v2)
Copy OK

Track 8

Filename C:\My Documents\My FLAC\Terence Blanchard - Flow (2005) [FLAC] {Blue Note}\08 - Over There.wav

Peak level 94.3 %
Extraction speed 5.1 X
Track quality 100.0 %
Test CRC 915C612A
Copy CRC 915C612A
Accurately ripped (confidence 27) [8727BC99] (AR v2)
Copy OK

Track 9

Filename C:\My Documents\My FLAC\Terence Blanchard - Flow (2005) [FLAC] {Blue Note}\09 - Child's Play.wav

Peak level 97.8 %
Extraction speed 4.6 X
Track quality 99.9 %
Test CRC C25D8266
Copy CRC C25D8266
Accurately ripped (confidence 25) [6B18EB3E] (AR v2)
Copy OK

Track 10

Filename C:\My Documents\My FLAC\Terence Blanchard - Flow (2005) [FLAC] {Blue Note}\10 - Flow, Part III.wav

Peak level 100.0 %
Extraction speed 0.4 X
Track quality 100.0 %
Test CRC 2F9D45DE
Copy CRC 2F9D45DE
Accurately ripped (confidence 27) [88A0DD27] (AR v2)
Copy OK

Track 11

Filename C:\My Documents\My FLAC\Terence Blanchard - Flow (2005) [FLAC] {Blue Note}\11 - Harvesting Dance.wav

Peak level 99.5 %
Extraction speed 6.2 X
Track quality 100.0 %
Test CRC 2011CFA5
Copy CRC 2011CFA5
Accurately ripped (confidence 23) [8226C7C8] (AR v2)
Copy OK


All tracks accurately ripped

No errors occurred

End of status report

–– CUETools DB Plugin V2.1.6

[CTDB TOCID: b67xqHDO8o3u1hnX5tLHtWz9YWM-] found
Submit result: b67xqHDO8o3u1hnX5tLHtWz9YWM- has been confirmed
Track | CTDB Status
1 | (27/42) Accurately ripped
2 | (27/42) Accurately ripped
3 | (27/42) Accurately ripped
4 | (27/42) Accurately ripped
5 | (27/42) Accurately ripped
6 | (27/42) Accurately ripped
7 | (27/42) Accurately ripped
8 | (27/42) Accurately ripped
9 | (27/42) Accurately ripped
10 | (27/42) Accurately ripped
11 | (26/42) Accurately ripped


==== Log checksum 1B811112807B58DD7C1366D9FEA8FCD769A57A1C49E99051DA0D519247046F45 ====


Terence Blanchard - Flow (2005) {Blue Note}