Tags
Language
Tags
July 2024
Su Mo Tu We Th Fr Sa
30 1 2 3 4 5 6
7 8 9 10 11 12 13
14 15 16 17 18 19 20
21 22 23 24 25 26 27
28 29 30 31 1 2 3

The Shadows - Greatest Hits (1995) {Ring}

Posted By: TestTickles
The Shadows - Greatest Hits (1995) {Ring}

The Shadows - Greatest Hits (1995) {Ring}
EAC Rip | FLAC with auCDtect and LOG | scans | 368 mb
MP3 CBR 320 kbps | RAR | 166 mb
Genre: rock & roll, instrumental rock

This is a Greatest Hits compilation by British group The Shadows. They had been known as Cliff Richard's backing group before they chose to depart and have a career under their own name. This came out in 1995 on Hungarian label Ring Records.

The Shadows - Greatest Hits (1995) {Ring}

01. Apache
02. Man Of Mistery
03. The Stranger
04. F.B.I.
05. Midnight
06. Frightened City
07. Kon-Tiki
08. The Savage
09. Peace Pipe
10. Wonderful Land
11. The Boys
12. Dance On
13. Shadoogie
14. Sleepwalk
15. Guitar Tango
16. Foot Tapper
17. Atlantis
18. Shindig
19. Geronimo
20. Theme For Young Lovers
21. Perfidia
22. Mustang
23. Cosy

Exact Audio Copy V1.0 beta 3 from 29. August 2011

EAC extraction logfile from 11. December 2019, 10:48

The Shadows / Greatest Hits

Used drive : TSSTcorpCDDVDW SH-S202J Adapter: 0 ID: 0

Read mode : Secure
Utilize accurate stream : Yes
Defeat audio cache : Yes
Make use of C2 pointers : No

Read offset correction : 6
Overread into Lead-In and Lead-Out : No
Fill up missing offset samples with silence : Yes
Delete leading and trailing silent blocks : No
Null samples used in CRC calculations : Yes
Used interface : Native Win32 interface for Win NT & 2000
Gap handling : Appended to previous track

Used output format : User Defined Encoder
Selected bitrate : 768 kBit/s
Quality : High
Add ID3 tag : No
Command line compressor : C:\Program Files\Exact Audio Copy\FLAC\FLAC.EXE
Additional command line options : -6 -V -T "ARTIST=%artist%" -T "TITLE=%title%" -T "ALBUM=%albumtitle%" -T "DATE=%year%" -T "TRACKNUMBER=%tracknr%" -T "GENRE=%genre%" -T "COMMENT=%comment%" -T "BAND=%albuminterpret%" -T "ALBUMARTIST=%albuminterpret%" -T "COMPOSER=%composer%" %haslyrics%–tag-from-file=LYRICS="%lyricsfile%"%haslyrics% -T "DISCNUMBER=%cdnumber%" -T "TOTALDISCS=%totalcds%" -T "TOTALTRACKS=%numtracks%" %hascover%–picture="%coverfile%"%hascover% %source% -o %dest%


TOC of the extracted CD

Track | Start | Length | Start sector | End sector
––––––––––––––––––––––––––––-
1 | 0:00.00 | 2:54.20 | 0 | 13069
2 | 2:54.20 | 2:02.72 | 13070 | 22291
3 | 4:57.17 | 2:41.40 | 22292 | 34406
4 | 7:38.57 | 2:21.05 | 34407 | 44986
5 | 9:59.62 | 2:31.10 | 44987 | 56321
6 | 12:30.72 | 2:23.05 | 56322 | 67051
7 | 14:54.02 | 1:55.73 | 67052 | 75749
8 | 16:50.00 | 2:24.07 | 75750 | 86556
9 | 19:14.07 | 2:13.53 | 86557 | 96584
10 | 21:27.60 | 2:02.67 | 96585 | 105801
11 | 23:30.52 | 2:33.08 | 105802 | 117284
12 | 26:03.60 | 2:23.20 | 117285 | 128029
13 | 28:27.05 | 2:23.42 | 128030 | 138796
14 | 30:50.47 | 2:48.50 | 138797 | 151446
15 | 33:39.22 | 2:59.30 | 151447 | 164901
16 | 36:38.52 | 2:35.13 | 164902 | 176539
17 | 39:13.65 | 2:48.52 | 176540 | 189191
18 | 42:02.42 | 2:18.53 | 189192 | 199594
19 | 44:21.20 | 2:21.27 | 199595 | 210196
20 | 46:42.47 | 2:39.58 | 210197 | 222179
21 | 49:22.30 | 2:13.46 | 222180 | 232200
22 | 51:36.01 | 2:41.69 | 232201 | 244344
23 | 54:17.70 | 3:11.70 | 244345 | 258739


Track 1

Filename C:\cuntfist\FLAC\The Shadows - Greatest Hits (1995) [FLAC] {Ring}\01 - Apache.wav

Pre-gap length 0:00:02.00

Peak level 89.3 %
Extraction speed 2.6 X
Track quality 99.9 %
Test CRC 42EF18C5
Copy CRC 42EF18C5
Accurately ripped (confidence 1) [5C894806] (AR v2)
Copy OK

Track 2

Filename C:\cuntfist\FLAC\The Shadows - Greatest Hits (1995) [FLAC] {Ring}\02 - Man Of Mistery.wav

Pre-gap length 0:00:01.66

Peak level 88.7 %
Extraction speed 3.3 X
Track quality 100.0 %
Test CRC 8FB3B2CA
Copy CRC 8FB3B2CA
Accurately ripped (confidence 1) [47E7C947] (AR v2)
Copy OK

Track 3

Filename C:\cuntfist\FLAC\The Shadows - Greatest Hits (1995) [FLAC] {Ring}\03 - The Stranger.wav

Pre-gap length 0:00:03.16

Peak level 88.9 %
Extraction speed 3.7 X
Track quality 100.0 %
Test CRC C97C0D62
Copy CRC C97C0D62
Accurately ripped (confidence 1) [E248BF53] (AR v2)
Copy OK

Track 4

Filename C:\cuntfist\FLAC\The Shadows - Greatest Hits (1995) [FLAC] {Ring}\04 - F.B.I..wav

Pre-gap length 0:00:03.93

Peak level 73.7 %
Extraction speed 2.9 X
Track quality 99.9 %
Test CRC 1EAF58AE
Copy CRC 1EAF58AE
Accurately ripped (confidence 1) [47D5836C] (AR v2)
Copy OK

Track 5

Filename C:\cuntfist\FLAC\The Shadows - Greatest Hits (1995) [FLAC] {Ring}\05 - Midnight.wav

Pre-gap length 0:00:02.00

Peak level 90.1 %
Extraction speed 4.0 X
Track quality 100.0 %
Test CRC 9704B00E
Copy CRC 9704B00E
Accurately ripped (confidence 1) [F77B3744] (AR v2)
Copy OK

Track 6

Filename C:\cuntfist\FLAC\The Shadows - Greatest Hits (1995) [FLAC] {Ring}\06 - Frightened City.wav

Pre-gap length 0:00:02.62

Peak level 86.4 %
Extraction speed 3.1 X
Track quality 99.9 %
Test CRC EFB66678
Copy CRC EFB66678
Accurately ripped (confidence 1) [202A02CE] (AR v2)
Copy OK

Track 7

Filename C:\cuntfist\FLAC\The Shadows - Greatest Hits (1995) [FLAC] {Ring}\07 - Kon-Tiki.wav

Pre-gap length 0:00:03.29

Peak level 97.7 %
Extraction speed 4.0 X
Track quality 100.0 %
Test CRC AB98E83C
Copy CRC AB98E83C
Accurately ripped (confidence 1) [B99F9F8D] (AR v2)
Copy OK

Track 8

Filename C:\cuntfist\FLAC\The Shadows - Greatest Hits (1995) [FLAC] {Ring}\08 - The Savage.wav

Pre-gap length 0:00:02.80

Peak level 83.2 %
Extraction speed 3.3 X
Track quality 99.9 %
Test CRC 81BBD439
Copy CRC 81BBD439
Accurately ripped (confidence 1) [469F252A] (AR v2)
Copy OK

Track 9

Filename C:\cuntfist\FLAC\The Shadows - Greatest Hits (1995) [FLAC] {Ring}\09 - Peace Pipe.wav

Pre-gap length 0:00:02.42

Peak level 81.3 %
Extraction speed 4.3 X
Track quality 100.0 %
Test CRC 23577504
Copy CRC 23577504
Accurately ripped (confidence 1) [804E03C3] (AR v2)
Copy OK

Track 10

Filename C:\cuntfist\FLAC\The Shadows - Greatest Hits (1995) [FLAC] {Ring}\10 - Wonderful Land.wav

Pre-gap length 0:00:03.06

Peak level 63.5 %
Extraction speed 4.4 X
Track quality 100.0 %
Test CRC 8B246FEB
Copy CRC 8B246FEB
Accurately ripped (confidence 1) [D41FCA60] (AR v2)
Copy OK

Track 11

Filename C:\cuntfist\FLAC\The Shadows - Greatest Hits (1995) [FLAC] {Ring}\11 - The Boys.wav

Pre-gap length 0:00:01.69

Peak level 89.6 %
Extraction speed 4.6 X
Track quality 100.0 %
Test CRC 0063E59B
Copy CRC 0063E59B
Accurately ripped (confidence 1) [C099AEE9] (AR v2)
Copy OK

Track 12

Filename C:\cuntfist\FLAC\The Shadows - Greatest Hits (1995) [FLAC] {Ring}\12 - Dance On.wav

Pre-gap length 0:00:02.93

Peak level 97.7 %
Extraction speed 4.7 X
Track quality 100.0 %
Test CRC EF72F3A3
Copy CRC EF72F3A3
Accurately ripped (confidence 1) [A6D50620] (AR v2)
Copy OK

Track 13

Filename C:\cuntfist\FLAC\The Shadows - Greatest Hits (1995) [FLAC] {Ring}\13 - Shadoogie.wav

Pre-gap length 0:00:01.46

Peak level 91.2 %
Extraction speed 4.8 X
Track quality 100.0 %
Test CRC 1F8524AE
Copy CRC 1F8524AE
Accurately ripped (confidence 1) [CC9C8E5D] (AR v2)
Copy OK

Track 14

Filename C:\cuntfist\FLAC\The Shadows - Greatest Hits (1995) [FLAC] {Ring}\14 - Sleepwalk.wav

Pre-gap length 0:00:01.13

Peak level 81.1 %
Extraction speed 3.9 X
Track quality 99.9 %
Test CRC 20B2FBCD
Copy CRC 20B2FBCD
Accurately ripped (confidence 1) [B8E4C2A8] (AR v2)
Copy OK

Track 15

Filename C:\cuntfist\FLAC\The Shadows - Greatest Hits (1995) [FLAC] {Ring}\15 - Guitar Tango.wav

Pre-gap length 0:00:02.26

Peak level 82.0 %
Extraction speed 5.2 X
Track quality 100.0 %
Test CRC FAF0CD61
Copy CRC FAF0CD61
Accurately ripped (confidence 1) [A5D1DC91] (AR v2)
Copy OK

Track 16

Filename C:\cuntfist\FLAC\The Shadows - Greatest Hits (1995) [FLAC] {Ring}\16 - Foot Tapper.wav

Peak level 70.4 %
Extraction speed 3.6 X
Track quality 100.0 %
Test CRC 09FB7373
Copy CRC 09FB7373
Accurately ripped (confidence 1) [0114700D] (AR v2)
Copy OK

Track 17

Filename C:\cuntfist\FLAC\The Shadows - Greatest Hits (1995) [FLAC] {Ring}\17 - Atlantis.wav

Pre-gap length 0:00:02.53

Peak level 86.1 %
Extraction speed 3.7 X
Track quality 100.0 %
Test CRC 1EEB360D
Copy CRC 1EEB360D
Accurately ripped (confidence 1) [5C2DE468] (AR v2)
Copy OK

Track 18

Filename C:\cuntfist\FLAC\The Shadows - Greatest Hits (1995) [FLAC] {Ring}\18 - Shindig.wav

Pre-gap length 0:00:02.62

Peak level 82.1 %
Extraction speed 3.6 X
Track quality 100.0 %
Test CRC 2A76A17C
Copy CRC 2A76A17C
Accurately ripped (confidence 1) [36691879] (AR v2)
Copy OK

Track 19

Filename C:\cuntfist\FLAC\The Shadows - Greatest Hits (1995) [FLAC] {Ring}\19 - Geronimo.wav

Pre-gap length 0:00:02.37

Peak level 74.7 %
Extraction speed 3.7 X
Track quality 100.0 %
Test CRC 25EB1898
Copy CRC 25EB1898
Accurately ripped (confidence 1) [0E1D4CD9] (AR v2)
Copy OK

Track 20

Filename C:\cuntfist\FLAC\The Shadows - Greatest Hits (1995) [FLAC] {Ring}\20 - Theme For Young Lovers.wav

Pre-gap length 0:00:02.33

Peak level 70.7 %
Extraction speed 3.8 X
Track quality 100.0 %
Test CRC 4CEBBE6D
Copy CRC 4CEBBE6D
Accurately ripped (confidence 1) [73CFE720] (AR v2)
Copy OK

Track 21

Filename C:\cuntfist\FLAC\The Shadows - Greatest Hits (1995) [FLAC] {Ring}\21 - Perfidia.wav

Pre-gap length 0:00:02.53

Peak level 95.8 %
Extraction speed 3.7 X
Track quality 100.0 %
Test CRC 3FB7ADB6
Copy CRC 3FB7ADB6
Accurately ripped (confidence 1) [CB5C20A5] (AR v2)
Copy OK

Track 22

Filename C:\cuntfist\FLAC\The Shadows - Greatest Hits (1995) [FLAC] {Ring}\22 - Mustang.wav

Pre-gap length 0:00:02.88

Peak level 71.9 %
Extraction speed 3.8 X
Track quality 100.0 %
Test CRC 51C1A1F3
Copy CRC 51C1A1F3
Accurately ripped (confidence 1) [103CA273] (AR v2)
Copy OK

Track 23

Filename C:\cuntfist\FLAC\The Shadows - Greatest Hits (1995) [FLAC] {Ring}\23 - Cosy.wav

Pre-gap length 0:00:02.40

Peak level 43.9 %
Extraction speed 3.4 X
Track quality 99.9 %
Test CRC F7391254
Copy CRC F7391254
Accurately ripped (confidence 1) [101E609C] (AR v2)
Copy OK


All tracks accurately ripped

No errors occurred

End of status report

==== Log checksum 3AC55A26DCB659E24C2004868CC9CDF88CA29399EE296E909D0D1393D8AE2E04 ====


The Shadows - Greatest Hits (1995) {Ring}


Thank you to the original uploader.