Tags
Language
Tags

The London Symphony Orchestra - Victoria's Secret: Two Centuries Of Romance Vol. 6 (1993) {Victoria's Secret} **[RE-UP]**

Posted By: TestTickles
The London Symphony Orchestra - Victoria's Secret: Two Centuries Of Romance Vol. 6 (1993) {Victoria's Secret} **[RE-UP]**

The London Symphony Orchestra - Victoria's Secret: Two Centuries Of Romance Vol. 6 (1993) {Victoria's Secret}
EAC Rip | FLAC with CUE and log | scans | 302 mb
MP3 CBR 320kbps | RAR | 154 mb
Genre: classical

Victoria's Secret: Two Centuries Of Romance Vol. 6 is a disc made for the Victoria's Secret store using the works of The London Symphony Orchestra. This is the sixth installment in the series and the music is made to warm up ones underlings with beautiful and sensitive sounds. Make it moist.

The London Symphony Orchestra - Victoria's Secret: Two Centuries Of Romance Vol. 6 (1993) {Victoria's Secret} **[RE-UP]**

1. Piano Concerto In E Flat (2:14)
2. Symphony #35 In D (4:10)
3. Nachtmusik - Rondo Allegro (3:13)
4. Concerto For Flute And Harp (7:16)
5. Symphony #5 In B Flat (2:42)
6. Symphony #28 In C (5:33)
7. Symphony #39 In E Flat (3:55)
8. Piano Concerto #21 (3:14)
9. Divertimento #1 In D (5:02)
10. Serenade #9 In D (3:20)
11. Symphony #40 In G Minor (3:23)
12. Clarinet Concerto In A( 6:59)
13. Symphony #41 In C (2:50)
14. Piano Concerto In D Minor (4:05)
15. Nachtmusik - Romanze (5:23)
16. Symphony #27 In G (4:57)

Exact Audio Copy V1.1 from 23. June 2015

EAC extraction logfile from 12. December 2016, 10:45

The London Symphony Orchestra / Victoria's Secret: Two Centuries Of Romance Vol. 6

Used drive : TEAC DVD-ROM DV-28SW Adapter: 1 ID: 0

Read mode : Secure
Utilize accurate stream : Yes
Defeat audio cache : Yes
Make use of C2 pointers : No

Read offset correction : 6
Overread into Lead-In and Lead-Out : No
Fill up missing offset samples with silence : Yes
Delete leading and trailing silent blocks : No
Null samples used in CRC calculations : Yes
Used interface : Native Win32 interface for Win NT & 2000
Gap handling : Appended to previous track

Used output format : Internal WAV Routines
Sample format : 44.100 Hz; 16 Bit; Stereo


TOC of the extracted CD

Track | Start | Length | Start sector | End sector
––––––––––––––––––––––––––––-
1 | 0:00.00 | 2:16.52 | 0 | 10251
2 | 2:16.52 | 4:11.08 | 10252 | 29084
3 | 6:27.60 | 3:15.70 | 29085 | 43779
4 | 9:43.55 | 7:17.22 | 43780 | 76576
5 | 17:01.02 | 2:44.13 | 76577 | 88889
6 | 19:45.15 | 5:34.55 | 88890 | 113994
7 | 25:19.70 | 3:56.70 | 113995 | 131764
8 | 29:16.65 | 3:16.42 | 131765 | 146506
9 | 32:33.32 | 5:03.33 | 146507 | 169264
10 | 37:36.65 | 3:22.00 | 169265 | 184414
11 | 40:58.65 | 3:25.27 | 184415 | 199816
12 | 44:24.17 | 7:02.30 | 199817 | 231496
13 | 51:26.47 | 2:52.00 | 231497 | 244396
14 | 54:18.47 | 4:08.20 | 244397 | 263016
15 | 58:26.67 | 5:27.08 | 263017 | 287549
16 | 63:54.00 | 5:00.65 | 287550 | 310114


Track 1

Filename C:\My Documents\My FLAC\The London Symphony Orchestra - Victoria's Secret, Two Centuries Of Romance Vol. 6 (1993) [FLAC] {Victoria's Secret}\01 - Piano Concerto In E Flat.wav

Pre-gap length 0:00:02.00

Peak level 39.4 %
Extraction speed 2.5 X
Track quality 100.0 %
Test CRC A570C484
Copy CRC A570C484
Accurately ripped (confidence 6) [7E8982BB] (AR v2)
Copy OK

Track 2

Filename C:\My Documents\My FLAC\The London Symphony Orchestra - Victoria's Secret, Two Centuries Of Romance Vol. 6 (1993) [FLAC] {Victoria's Secret}\02 - Symphony #35 In D.wav

Pre-gap length 0:00:02.20

Peak level 46.4 %
Extraction speed 3.0 X
Track quality 100.0 %
Test CRC 550412CA
Copy CRC 550412CA
Accurately ripped (confidence 6) [254463BB] (AR v2)
Copy OK

Track 3

Filename C:\My Documents\My FLAC\The London Symphony Orchestra - Victoria's Secret, Two Centuries Of Romance Vol. 6 (1993) [FLAC] {Victoria's Secret}\03 - Nachtmusik - Rondo Allegro.wav

Pre-gap length 0:00:02.20

Peak level 54.2 %
Extraction speed 3.1 X
Track quality 100.0 %
Test CRC 96487A07
Copy CRC 96487A07
Accurately ripped (confidence 6) [B8470419] (AR v2)
Copy OK

Track 4

Filename C:\My Documents\My FLAC\The London Symphony Orchestra - Victoria's Secret, Two Centuries Of Romance Vol. 6 (1993) [FLAC] {Victoria's Secret}\04 - Concerto For Flute And Harp.wav

Pre-gap length 0:00:02.28

Peak level 48.6 %
Extraction speed 3.7 X
Track quality 100.0 %
Test CRC 4963F2AF
Copy CRC 4963F2AF
Accurately ripped (confidence 6) [83FEC1F4] (AR v2)
Copy OK

Track 5

Filename C:\My Documents\My FLAC\The London Symphony Orchestra - Victoria's Secret, Two Centuries Of Romance Vol. 6 (1993) [FLAC] {Victoria's Secret}\05 - Symphony #5 In B Flat.wav

Pre-gap length 0:00:02.40

Peak level 100.0 %
Extraction speed 3.5 X
Track quality 100.0 %
Test CRC 621C5243
Copy CRC 621C5243
Accurately ripped (confidence 6) [F7BC718F] (AR v2)
Copy OK

Track 6

Filename C:\My Documents\My FLAC\The London Symphony Orchestra - Victoria's Secret, Two Centuries Of Romance Vol. 6 (1993) [FLAC] {Victoria's Secret}\06 - Symphony #28 In C.wav

Pre-gap length 0:00:02.60

Peak level 60.8 %
Extraction speed 4.1 X
Track quality 100.0 %
Test CRC 1E1C084A
Copy CRC 1E1C084A
Accurately ripped (confidence 6) [CEE9829C] (AR v2)
Copy OK

Track 7

Filename C:\My Documents\My FLAC\The London Symphony Orchestra - Victoria's Secret, Two Centuries Of Romance Vol. 6 (1993) [FLAC] {Victoria's Secret}\07 - Symphony #39 In E Flat.wav

Pre-gap length 0:00:03.50

Peak level 53.5 %
Extraction speed 4.1 X
Track quality 100.0 %
Test CRC 3FD08579
Copy CRC 3FD08579
Accurately ripped (confidence 6) [5DF54DA2] (AR v2)
Copy OK

Track 8

Filename C:\My Documents\My FLAC\The London Symphony Orchestra - Victoria's Secret, Two Centuries Of Romance Vol. 6 (1993) [FLAC] {Victoria's Secret}\08 - Piano Concerto #21.wav

Pre-gap length 0:00:02.48

Peak level 54.8 %
Extraction speed 3.4 X
Track quality 99.9 %
Test CRC 40B6AD49
Copy CRC 40B6AD49
Accurately ripped (confidence 6) [FF6DCBE6] (AR v2)
Copy OK

Track 9

Filename C:\My Documents\My FLAC\The London Symphony Orchestra - Victoria's Secret, Two Centuries Of Romance Vol. 6 (1993) [FLAC] {Victoria's Secret}\09 - Divertimento #1 In D.wav

Pre-gap length 0:00:00.70

Peak level 44.3 %
Extraction speed 4.0 X
Track quality 99.9 %
Test CRC 8205A662
Copy CRC 8205A662
Accurately ripped (confidence 6) [9A0FD213] (AR v2)
Copy OK

Track 10

Filename C:\My Documents\My FLAC\The London Symphony Orchestra - Victoria's Secret, Two Centuries Of Romance Vol. 6 (1993) [FLAC] {Victoria's Secret}\10 - Serenade #9 In D.wav

Pre-gap length 0:00:03.15

Peak level 43.7 %
Extraction speed 4.5 X
Track quality 100.0 %
Test CRC B7A141FD
Copy CRC B7A141FD
Accurately ripped (confidence 6) [94C00880] (AR v2)
Copy OK

Track 11

Filename C:\My Documents\My FLAC\The London Symphony Orchestra - Victoria's Secret, Two Centuries Of Romance Vol. 6 (1993) [FLAC] {Victoria's Secret}\11 - Symphony #40 In G Minor.wav

Pre-gap length 0:00:02.70

Peak level 66.3 %
Extraction speed 4.7 X
Track quality 100.0 %
Test CRC 25C56BC2
Copy CRC 25C56BC2
Accurately ripped (confidence 6) [D56DD078] (AR v2)
Copy OK

Track 12

Filename C:\My Documents\My FLAC\The London Symphony Orchestra - Victoria's Secret, Two Centuries Of Romance Vol. 6 (1993) [FLAC] {Victoria's Secret}\12 - Clarinet Concerto In A.wav

Pre-gap length 0:00:02.37

Peak level 52.7 %
Extraction speed 5.3 X
Track quality 100.0 %
Test CRC 11B895A6
Copy CRC 11B895A6
Accurately ripped (confidence 4) [4FF5E050] (AR v2)
Copy OK

Track 13

Filename C:\My Documents\My FLAC\The London Symphony Orchestra - Victoria's Secret, Two Centuries Of Romance Vol. 6 (1993) [FLAC] {Victoria's Secret}\13 - Symphony #41 In C.wav

Pre-gap length 0:00:01.72

Peak level 46.5 %
Extraction speed 3.9 X
Track quality 99.9 %
Test CRC B1801CCE
Copy CRC B1801CCE
Accurately ripped (confidence 6) [16B71F39] (AR v2)
Copy OK

Track 14

Filename C:\My Documents\My FLAC\The London Symphony Orchestra - Victoria's Secret, Two Centuries Of Romance Vol. 6 (1993) [FLAC] {Victoria's Secret}\14 - Piano Concerto In D Minor.wav

Pre-gap length 0:00:02.32

Peak level 74.0 %
Extraction speed 5.2 X
Track quality 100.0 %
Test CRC 21D89253
Copy CRC 21D89253
Accurately ripped (confidence 6) [1198C5E1] (AR v2)
Copy OK

Track 15

Filename C:\My Documents\My FLAC\The London Symphony Orchestra - Victoria's Secret, Two Centuries Of Romance Vol. 6 (1993) [FLAC] {Victoria's Secret}\15 - Nachtmusik - Romanze.wav

Pre-gap length 0:00:03.52

Peak level 71.3 %
Extraction speed 5.6 X
Track quality 100.0 %
Test CRC D2BB2C7E
Copy CRC D2BB2C7E
Accurately ripped (confidence 6) [711F67C3] (AR v2)
Copy OK

Track 16

Filename C:\My Documents\My FLAC\The London Symphony Orchestra - Victoria's Secret, Two Centuries Of Romance Vol. 6 (1993) [FLAC] {Victoria's Secret}\16 - Symphony #27 In G.wav

Pre-gap length 0:00:01.30

Peak level 42.1 %
Extraction speed 5.7 X
Track quality 100.0 %
Test CRC E5A433AD
Copy CRC E5A433AD
Accurately ripped (confidence 6) [254711B2] (AR v2)
Copy OK


All tracks accurately ripped

No errors occurred

End of status report

–– CUETools DB Plugin V2.1.6

[CTDB TOCID: Qe0eA0ON.2_.aZO6xIelHXnRV2w-] found
Submit result: Qe0eA0ON.2_.aZO6xIelHXnRV2w- has been confirmed
Track | CTDB Status
1 | (5/5) Accurately ripped
2 | (5/5) Accurately ripped
3 | (5/5) Accurately ripped
4 | (5/5) Accurately ripped
5 | (5/5) Accurately ripped
6 | (5/5) Accurately ripped
7 | (5/5) Accurately ripped
8 | (5/5) Accurately ripped
9 | (5/5) Accurately ripped
10 | (5/5) Accurately ripped
11 | (5/5) Accurately ripped
12 | (5/5) Accurately ripped
13 | (5/5) Accurately ripped
14 | (5/5) Accurately ripped
15 | (5/5) Accurately ripped
16 | (5/5) Accurately ripped


==== Log checksum 22200D9CB87AE0E62614126741FA180569040F795E64E9327FED14DDCE094952 ====


The London Symphony Orchestra - Victoria's Secret: Two Centuries Of Romance Vol. 6 (1993) {Victoria's Secret} **[RE-UP]**