Subcategories
Tags
Language
Tags

Tracy & The Hindenburg Ground Crew - Ouch (1994) {Action Box} **[RE-UP]**

Posted By: TestTickles
Tracy & The Hindenburg Ground Crew - Ouch (1994) {Action Box} **[RE-UP]**

Tracy & The Hindenburg Ground Crew - Ouch (1994) {Action Box}
EAC Rip | FLAC with CUE and log | scans | 191 mb
MP3 CBR 320kbps | RAR | 77 mb
Genre: indie rock

Ouch is the 1994 CD by Tracy & The Hindenburg Ground Crew. The group consisted of Tracy "Ace" Thielen, Smokey Hormel, Duke McVinnie and James Cruce and called Los Angeles home. Or something. Thielen is now dead, from an overdose of an unknown origin. This was a part of Action Box Records' short and brief discography.
TRACY & THE HINDENBURG GROUND CREW…

… formed in 1992. The logical progression of the solo work of singer/songwriter Tracy Thielen, the band was at first known as Ace T. & the Hindenburg Ground Crew. The founding members were James Cruce (drums), Smokey Hormel (guitar), and Duke McVinnie (bass).

… currently is Christian Carbone (from Seattle's Purdins) on guitar Danny McGough (Tom Waits) on keyboards, Andy Sykora (The Negro Problem) on drums, Tracy on rhythm guitar and vocals, and Miiko Watanabe (Morris Tepper) on bass and tuba.

…has a version of its song Found A Friend (from MARGARET DUMONT) in the soundtrack of the Ridley Scott film G.I.JANE.

…had a track from its most recent release (DRUNK from GLITTER DISCO SYNTHESIZER NIGHT SCHOOL) included in the SPIN MAGAZINE COLLEGE RADIO PROGRAM.

…has a song (OHNO from OUCH) being covered by the band Shivaree on their recording debut for Capitol Records slated for release this Fall.

…has a good friend in the band X. Exene Cervenkova covered CRAZY (from OUCH) on tour opening for Neil Young several years back, and more recently she and John Doe sang a duet of DRUNK live. John Doe called GLITTER DISCO SYNTHESIZER NIGHT SCHOOL one of his favorite recent records in the January 1999 issue of MAGNET.

…contributed music to the 1998 film FULL TILT BOOGIE

…was dissed by Eric Stoltz when it performed at the PULP FICTION wrap party. He didn't like the opening number – a bloodcurdling scream (with guitar accompaniment) called OLD FOLK SONG.

…was upstaged by an amorous punk couple orally copulating onstage at Mr. T's Bowl (Highland Park, CA) in a 1997 show there.

…was represented in a 1998 battle of the bands in Bakersfield, CA by Tracy playing a solo acoustic set.

…once played the grand opening of a Pizza Hut in Hollywood, CA.

Tracy & The Hindenburg Ground Crew - Ouch (1994) {Action Box} **[RE-UP]**

1. Trucker's Prayer (0:40)
2. Crazy (1:57)
3. Compensatory Randiness Song (2:17)
4. I Don't Know… (2:48)
5. Dug Up Mother (0:25)
6. Pistol To Me (2:37)
7. Horny (1:21)
8. The Christmas Song (2:21)
9. Yodel (0:44)
10. Ring (2:55)
11. Resolve (0:58)
12. Beer Money (3:02)
13. Tried To Explain (1:17)
14. Ohno (2:37)
15. Variable High Clouds (2:41)
16. Is That All (1:14)
17. Good Words (3:08)

Tracy "Ace" Thielen-Vocals, Guitar
Smokey Hormel-Guitar
Duke McVinnie-Bass
James Cruce-Drums

Produced by Duke McVinnie
Recorded by James Cruce

Exact Audio Copy V1.1 from 23. June 2015

EAC extraction logfile from 25. December 2015, 19:11

Tracy & The Hindenburg Ground Crew / Ouch

Used drive : TEAC DVD-ROM DV-28SW Adapter: 1 ID: 0

Read mode : Secure
Utilize accurate stream : Yes
Defeat audio cache : Yes
Make use of C2 pointers : No

Read offset correction : 6
Overread into Lead-In and Lead-Out : No
Fill up missing offset samples with silence : Yes
Delete leading and trailing silent blocks : No
Null samples used in CRC calculations : Yes
Used interface : Native Win32 interface for Win NT & 2000
Gap handling : Left out

Used output format : Internal WAV Routines
Sample format : 44.100 Hz; 16 Bit; Stereo


TOC of the extracted CD

Track | Start | Length | Start sector | End sector
––––––––––––––––––––––––––––-
1 | 0:00.00 | 0:41.10 | 0 | 3084
2 | 0:41.10 | 1:57.50 | 3085 | 11909
3 | 2:38.60 | 2:18.50 | 11910 | 22309
4 | 4:57.35 | 2:48.38 | 22310 | 34947
5 | 7:45.73 | 0:26.25 | 34948 | 36922
6 | 8:12.23 | 2:41.25 | 36923 | 49022
7 | 10:53.48 | 1:21.67 | 49023 | 55164
8 | 12:15.40 | 2:24.18 | 55165 | 65982
9 | 14:39.58 | 0:45.72 | 65983 | 69429
10 | 15:25.55 | 2:59.05 | 69430 | 82859
11 | 18:24.60 | 0:59.18 | 82860 | 87302
12 | 19:24.03 | 3:02.60 | 87303 | 101012
13 | 22:26.63 | 1:18.35 | 101013 | 106897
14 | 23:45.23 | 2:40.25 | 106898 | 118922
15 | 26:25.48 | 2:41.55 | 118923 | 131052
16 | 29:07.28 | 1:16.00 | 131053 | 136752
17 | 30:23.28 | 3:09.05 | 136753 | 150932


Track 1

Filename C:\My Documents\My FLAC\Tracy & The Hindenburg Ground Crew - Ouch (1994) [FLAC]\01 - Trucker's Prayer.wav

Pre-gap length 0:00:02.00

Peak level 89.1 %
Extraction speed 0.9 X
Track quality 99.7 %
Test CRC CBC70728
Copy CRC CBC70728
Accurately ripped (confidence 1) [E4549688] (AR v1)
Copy OK

Track 2

Filename C:\My Documents\My FLAC\Tracy & The Hindenburg Ground Crew - Ouch (1994) [FLAC]\02 - Crazy.wav

Peak level 89.1 %
Extraction speed 2.4 X
Track quality 100.0 %
Test CRC 27373951
Copy CRC 27373951
Accurately ripped (confidence 1) [CFC46BA1] (AR v1)
Copy OK

Track 3

Filename C:\My Documents\My FLAC\Tracy & The Hindenburg Ground Crew - Ouch (1994) [FLAC]\03 - Compensatory Randiness Song.wav

Peak level 94.4 %
Extraction speed 2.7 X
Track quality 100.0 %
Test CRC 4B85E93C
Copy CRC 4B85E93C
Accurately ripped (confidence 1) [877D429A] (AR v1)
Copy OK

Track 4

Filename C:\My Documents\My FLAC\Tracy & The Hindenburg Ground Crew - Ouch (1994) [FLAC]\04 - I Don't Know.wav

Peak level 94.4 %
Extraction speed 2.9 X
Track quality 100.0 %
Test CRC DB52179D
Copy CRC DB52179D
Accurately ripped (confidence 1) [9FA52517] (AR v1)
Copy OK

Track 5

Filename C:\My Documents\My FLAC\Tracy & The Hindenburg Ground Crew - Ouch (1994) [FLAC]\05 - Dug Up Mother.wav

Peak level 47.0 %
Extraction speed 1.5 X
Track quality 100.0 %
Test CRC 6EF6BCBF
Copy CRC 6EF6BCBF
Accurately ripped (confidence 1) [73D7AB8E] (AR v1)
Copy OK

Track 6

Filename C:\My Documents\My FLAC\Tracy & The Hindenburg Ground Crew - Ouch (1994) [FLAC]\06 - Pistol To Me.wav

Peak level 94.4 %
Extraction speed 2.5 X
Track quality 99.9 %
Test CRC D63AEFBF
Copy CRC D63AEFBF
Accurately ripped (confidence 1) [974376C3] (AR v1)
Copy OK

Track 7

Filename C:\My Documents\My FLAC\Tracy & The Hindenburg Ground Crew - Ouch (1994) [FLAC]\07 - Horny.wav

Peak level 94.4 %
Extraction speed 2.7 X
Track quality 100.0 %
Test CRC 4903B496
Copy CRC 4903B496
Accurately ripped (confidence 1) [D68E1AD6] (AR v1)
Copy OK

Track 8

Filename C:\My Documents\My FLAC\Tracy & The Hindenburg Ground Crew - Ouch (1994) [FLAC]\08 - The Christmas Song.wav

Peak level 94.4 %
Extraction speed 3.2 X
Track quality 100.0 %
Test CRC E5AC2644
Copy CRC E5AC2644
Accurately ripped (confidence 1) [21BC5212] (AR v1)
Copy OK

Track 9

Filename C:\My Documents\My FLAC\Tracy & The Hindenburg Ground Crew - Ouch (1994) [FLAC]\09 - Yodel.wav

Peak level 94.4 %
Extraction speed 2.4 X
Track quality 100.0 %
Test CRC 88870844
Copy CRC 88870844
Accurately ripped (confidence 1) [34F70A31] (AR v1)
Copy OK

Track 10

Filename C:\My Documents\My FLAC\Tracy & The Hindenburg Ground Crew - Ouch (1994) [FLAC]\10 - Ring.wav

Peak level 94.4 %
Extraction speed 3.6 X
Track quality 100.0 %
Test CRC 96FD3D60
Copy CRC 96FD3D60
Accurately ripped (confidence 1) [B33D2940] (AR v1)
Copy OK

Track 11

Filename C:\My Documents\My FLAC\Tracy & The Hindenburg Ground Crew - Ouch (1994) [FLAC]\11 - Resolve.wav

Peak level 55.0 %
Extraction speed 2.7 X
Track quality 100.0 %
Test CRC 6A1CEB53
Copy CRC 6A1CEB53
Accurately ripped (confidence 1) [3AC4EC61] (AR v1)
Copy OK

Track 12

Filename C:\My Documents\My FLAC\Tracy & The Hindenburg Ground Crew - Ouch (1994) [FLAC]\12 - Beer Money.wav

Peak level 94.4 %
Extraction speed 3.7 X
Track quality 100.0 %
Test CRC 405D61D2
Copy CRC 405D61D2
Accurately ripped (confidence 1) [EC3AABDF] (AR v1)
Copy OK

Track 13

Filename C:\My Documents\My FLAC\Tracy & The Hindenburg Ground Crew - Ouch (1994) [FLAC]\13 - Tried To Explain.wav

Peak level 94.4 %
Extraction speed 3.2 X
Track quality 100.0 %
Test CRC 3AC17219
Copy CRC 3AC17219
Accurately ripped (confidence 1) [1A172728] (AR v1)
Copy OK

Track 14

Filename C:\My Documents\My FLAC\Tracy & The Hindenburg Ground Crew - Ouch (1994) [FLAC]\14 - OHNO.wav

Peak level 94.4 %
Extraction speed 3.1 X
Track quality 99.9 %
Test CRC 192BE91C
Copy CRC 192BE91C
Accurately ripped (confidence 1) [4B892F40] (AR v1)
Copy OK

Track 15

Filename C:\My Documents\My FLAC\Tracy & The Hindenburg Ground Crew - Ouch (1994) [FLAC]\15 - Variable High Chords.wav

Peak level 94.4 %
Extraction speed 4.0 X
Track quality 100.0 %
Test CRC A232901D
Copy CRC A232901D
Accurately ripped (confidence 1) [30F536DB] (AR v1)
Copy OK

Track 16

Filename C:\My Documents\My FLAC\Tracy & The Hindenburg Ground Crew - Ouch (1994) [FLAC]\16 - Is That All.wav

Peak level 84.3 %
Extraction speed 3.5 X
Track quality 100.0 %
Test CRC AC4BBFBE
Copy CRC AC4BBFBE
Track not fully ripped for AccurateRip lookup
Copy OK

Track 17

Filename C:\My Documents\My FLAC\Tracy & The Hindenburg Ground Crew - Ouch (1994) [FLAC]\17 - Good Words.wav

Pre-gap length 0:00:00.10

Peak level 94.4 %
Extraction speed 4.5 X
Track quality 100.0 %
Test CRC A5DCF913
Copy CRC A5DCF913
Accurately ripped (confidence 1) [E3FF9FF9] (AR v1)
Copy OK


16 track(s) accurately ripped
1 track(s) not fully ripped for AccurateRip lookup

Some tracks could not be verified as accurate

No errors occurred

End of status report

==== Log checksum 82F98628B9070C653C03D60B02DA6D53C9B07465B3259C847DC0B035BF3FF03A ====


Tracy & The Hindenburg Ground Crew - Ouch (1994) {Action Box} **[RE-UP]**