Tags
Language
Tags
June 2024
Su Mo Tu We Th Fr Sa
26 27 28 29 30 31 1
2 3 4 5 6 7 8
9 10 11 12 13 14 15
16 17 18 19 20 21 22
23 24 25 26 27 28 29
30 1 2 3 4 5 6

Twista featuring Legit Ballaz - Tattoo (Remix) (US promo CD5) (2002) {Atlantic}

Posted By: TestTickles
Twista featuring Legit Ballaz - Tattoo (Remix) (US promo CD5) (2002) {Atlantic}

Twista featuring Legit Ballaz - Tattoo (Remix) (US promo CD5) (2002) {Atlantic}
EAC Rip | FLAC with CUE and log | scans | 130 mb
MP3 CBR 320kbps | RAR | 43 mb
Genre: hip-hop, rap

Tattoo is the hit single released in 2002 by American rapper Carl Mitchell, who was previously known as Tung Twista but shortened his moniker to just Twista. The remixed version features Legit Ballaz and was meant to be the first single from his album Kamikaze but was left off on the final version when released two years later. This was released by the Atlantic company.

Twista featuring Legit Ballaz - Tattoo (Remix) (US promo CD5) (2002) {Atlantic}

1. Tattoo (Remix) (Clean Radio Edit)
2. Tattoo (Remix) (Dirty)
3. Tattoo (Remix) (Instrumental)
4. Tattoo (Remix) (Acappella)


Steven "Doeboy" Dukes-guitar

Additional vocals:
Oobie
Gekeetah Williams

Produced by Toxic
Mixed by Larry Strum
Mastered by "Big Bass" Brian Gardner

Exact Audio Copy V1.1 from 23. June 2015

EAC extraction logfile from 7. January 2017, 15:40

Twista featuring Legit Ballaz / Tattoo (Remix) (US promo CD5)

Used drive : TEAC DVD-ROM DV-28SW Adapter: 1 ID: 0

Read mode : Secure
Utilize accurate stream : Yes
Defeat audio cache : Yes
Make use of C2 pointers : No

Read offset correction : 6
Overread into Lead-In and Lead-Out : No
Fill up missing offset samples with silence : Yes
Delete leading and trailing silent blocks : No
Null samples used in CRC calculations : Yes
Used interface : Native Win32 interface for Win NT & 2000
Gap handling : Appended to previous track

Used output format : Internal WAV Routines
Sample format : 44.100 Hz; 16 Bit; Stereo


TOC of the extracted CD

Track | Start | Length | Start sector | End sector
––––––––––––––––––––––––––––-
1 | 0:00.00 | 4:22.01 | 0 | 19650
2 | 4:22.01 | 5:03.10 | 19651 | 42385
3 | 9:25.11 | 4:38.14 | 42386 | 63249
4 | 14:03.25 | 4:42.45 | 63250 | 84444


Track 1

Filename C:\My Documents\My FLAC\Twista featuring Legit Ballaz - Tattoo (Remix) (US promo CD5) (2002) [FLAC] {Atlantic}\01 - Tattoo (Remix) (Clean Radio Edit).wav

Pre-gap length 0:00:02.00

Peak level 98.8 %
Extraction speed 2.6 X
Track quality 100.0 %
Test CRC 623F88DD
Copy CRC 623F88DD
Track not present in AccurateRip database
Copy OK

Track 2

Filename C:\My Documents\My FLAC\Twista featuring Legit Ballaz - Tattoo (Remix) (US promo CD5) (2002) [FLAC] {Atlantic}\02 - Tattoo (Remix) (Dirty).wav

Pre-gap length 0:00:01.00

Peak level 98.8 %
Extraction speed 2.6 X
Track quality 99.9 %
Test CRC 1D978B20
Copy CRC 1D978B20
Track not present in AccurateRip database
Copy OK

Track 3

Filename C:\My Documents\My FLAC\Twista featuring Legit Ballaz - Tattoo (Remix) (US promo CD5) (2002) [FLAC] {Atlantic}\03 - Tattoo (Remix) (Instrumental).wav

Pre-gap length 0:00:01.00

Peak level 98.8 %
Extraction speed 2.7 X
Track quality 99.9 %
Test CRC 0C4F9A13
Copy CRC 0C4F9A13
Track not present in AccurateRip database
Copy OK

Track 4

Filename C:\My Documents\My FLAC\Twista featuring Legit Ballaz - Tattoo (Remix) (US promo CD5) (2002) [FLAC] {Atlantic}\04 - Tattoo (Remix) (Acapella).wav

Pre-gap length 0:00:01.00

Peak level 98.8 %
Extraction speed 3.4 X
Track quality 100.0 %
Test CRC 9FE7D4DA
Copy CRC 9FE7D4DA
Track not present in AccurateRip database
Copy OK


None of the tracks are present in the AccurateRip database

No errors occurred

End of status report

–– CUETools DB Plugin V2.1.6

[CTDB TOCID: dYh4MmO40cY0hnEIN4szdn51S1Q-] disk not present in database
Submit result: dYh4MmO40cY0hnEIN4szdn51S1Q- has been uploaded


==== Log checksum F8A965133C83F1DF95490A452B51B8A20234EB5DF48AABC13E4CBC4F0AD22A02 ====


Twista featuring Legit Ballaz - Tattoo (Remix) (US promo CD5) (2002) {Atlantic}