Subcategories

Tarja - In The Raw (2019)

Posted By: v3122
Tarja - In The Raw (2019)

Tarja - In The Raw (2019)
EAC | Flac(Image) + Cue + Log & MP3 CBR 320Kbps
ear Music, 0212132EMU | ~ 359 or 136 Mb | Artwork(jpg) -> 93 Mb
Symphonic Rock, Symphonic Metal, Gothic Metal

As the saying goes: not all that glitters is gold. But then again, not all that is gold necessarily glitters. It was this idea that struck Finnish singer Tarja Turunen as she began work on her seventh solo album, “In The Raw”. “Gold - we think - is something polished and perfect, sophisticated, a luxury, but in its natural state, it’s a raw element”, explains Tarja. Just like the music on her upcoming album: a combination of sophisticated and refined orchestration, choir and her classically trained voice with a raw, dark heavy musical core. Simply put, “In The Raw” is a gold-plated work of wonder. Three years on from her last album, 2016’s “The Shadow Self”, “In The Raw” finds Tarja and her beautiful voice sounding, as ever, truly stunning. Working with many of the same musicians and production team as before, the intention was to bring out the idea of rawness to match the feelings Tarja was having from the very beginning of the process. The album finds Tarja going to raw, personal places in her lyrics. Opening herself up more than ever before, she says she was left feeling naked by her honesty, but also pleased at where she had gone with her words. The first look at the album, the brand-new song “Dead Promises”, is all this and more. Matching the stunning power of Tarja’s voice with a thunderous guitar, the aggression she speaks of is brought to the front, not threatening to shatter something fragile, but reinforcing its power. “I really like how the guitar sounds: in your face”, she says. “If I’m singing powerfully, I need something powerful behind me so that I don’t feel like I am left alone.” Fans will find that the album includes a different version of the song with guest vocals by Björn Strid of Soilwork. The concept of gold and its raw state extends to the album’s artwork. In start, here we find Tarja in St Michael’s Cave, Gibraltar, framed in vivid colour and golden sheen…

~ rockreport.be
Tarja - In The Raw (2019):

Tarja - In The Raw (2019)

Tracklist:

01. Dead Promises
02. Goodbye Stranger
03. Tears In Rain
04. Railroads
05. You and I
06. The Golden Chamber
07. Spirits Of The Sea
08. Silent Masquerade
09. Serene
10. Shadow Play

Exact Audio Copy V1.3 from 2. September 2016

EAC extraction logfile from 5. September 2019, 22:25

Tarja / In The Raw

Used drive : PLEXTOR PX-891SAF PLUS Adapter: 1 ID: 0

Read mode : Secure
Utilize accurate stream : Yes
Defeat audio cache : Yes
Make use of C2 pointers : No

Read offset correction : 6
Overread into Lead-In and Lead-Out : No
Fill up missing offset samples with silence : Yes
Delete leading and trailing silent blocks : No
Null samples used in CRC calculations : Yes
Used interface : Native Win32 interface for Win NT & 2000
Gap handling : Appended to previous track

Used output format : User Defined Encoder
Selected bitrate : 1024 kBit/s
Quality : High
Add ID3 tag : No
Command line compressor : C:\Program Files (x86)\Exact Audio Copy\Flac\flac.exe
Additional command line options : -0 -V -T "ARTIST=%artist%" -T "TITLE=%title%" -T "ALBUM=%albumtitle%" -T "DATE=%year%" -T "TRACKNUMBER=%tracknr%" -T "TOTALTRACKS=%numtracks%" -T "GENRE=%genre%" -T "COMMENT=Naftamusic Release!" %source%


TOC of the extracted CD

Track | Start | Length | Start sector | End sector
––––––––––––––––––––––––––––-
1 | 0:25.31 | 5:49.42 | 1906 | 28122
2 | 6:14.73 | 5:10.69 | 28123 | 51441
3 | 11:25.67 | 4:28.40 | 51442 | 71581
4 | 15:54.32 | 3:59.45 | 71582 | 89551
5 | 19:54.02 | 4:07.13 | 89552 | 108089
6 | 24:01.15 | 7:03.71 | 108090 | 139885
7 | 31:05.11 | 6:56.11 | 139886 | 171096
8 | 38:01.22 | 7:20.17 | 171097 | 204113
9 | 45:21.39 | 4:40.29 | 204114 | 225142
10 | 50:01.68 | 7:22.47 | 225143 | 258339


Track 1

Filename E:\Nafta Releases\Tarja - In The Raw (2019)[FLAC] - Naftamusic\01 - Dead Promises.wav

Pre-gap length 0:00:27.31

Peak level 100.0 %
Extraction speed 2.4 X
Track quality 99.9 %
Test CRC 74750710
Copy CRC 74750710
Track not present in AccurateRip database
Copy OK

Track 2

Filename E:\Nafta Releases\Tarja - In The Raw (2019)[FLAC] - Naftamusic\02 - Goodbye Stranger.wav

Peak level 100.0 %
Extraction speed 3.2 X
Track quality 100.0 %
Test CRC 9788905D
Copy CRC 9788905D
Track not present in AccurateRip database
Copy OK

Track 3

Filename E:\Nafta Releases\Tarja - In The Raw (2019)[FLAC] - Naftamusic\03 - Tears in Rain.wav

Peak level 100.0 %
Extraction speed 3.5 X
Track quality 100.0 %
Test CRC F9B7312B
Copy CRC F9B7312B
Track not present in AccurateRip database
Copy OK

Track 4

Filename E:\Nafta Releases\Tarja - In The Raw (2019)[FLAC] - Naftamusic\04 - Railroad.wav

Peak level 99.2 %
Extraction speed 3.6 X
Track quality 100.0 %
Test CRC 75DFFB41
Copy CRC 75DFFB41
Track not present in AccurateRip database
Copy OK

Track 5

Filename E:\Nafta Releases\Tarja - In The Raw (2019)[FLAC] - Naftamusic\05 - You And I.wav

Peak level 97.9 %
Extraction speed 3.9 X
Track quality 100.0 %
Test CRC D98E3F2D
Copy CRC D98E3F2D
Track not present in AccurateRip database
Copy OK

Track 6

Filename E:\Nafta Releases\Tarja - In The Raw (2019)[FLAC] - Naftamusic\06 - The Golden Chamber.wav

Peak level 100.0 %
Extraction speed 3.8 X
Track quality 99.9 %
Test CRC 670F69DB
Copy CRC 670F69DB
Track not present in AccurateRip database
Copy OK

Track 7

Filename E:\Nafta Releases\Tarja - In The Raw (2019)[FLAC] - Naftamusic\07 - Spirits Of The Sea.wav

Peak level 100.0 %
Extraction speed 4.7 X
Track quality 100.0 %
Test CRC F3AA79DD
Copy CRC F3AA79DD
Track not present in AccurateRip database
Copy OK

Track 8

Filename E:\Nafta Releases\Tarja - In The Raw (2019)[FLAC] - Naftamusic\08 - Silent Masquerade.wav

Peak level 100.0 %
Extraction speed 4.4 X
Track quality 99.9 %
Test CRC 0BC65306
Copy CRC 0BC65306
Track not present in AccurateRip database
Copy OK

Track 9

Filename E:\Nafta Releases\Tarja - In The Raw (2019)[FLAC] - Naftamusic\09 - Serene.wav

Peak level 100.0 %
Extraction speed 5.1 X
Track quality 100.0 %
Test CRC CC7340FA
Copy CRC CC7340FA
Track not present in AccurateRip database
Copy OK

Track 10

Filename E:\Nafta Releases\Tarja - In The Raw (2019)[FLAC] - Naftamusic\10 - Shadow Play.wav

Peak level 99.5 %
Extraction speed 5.6 X
Track quality 100.0 %
Test CRC 50ADD12F
Copy CRC 50ADD12F
Track not present in AccurateRip database
Copy OK


None of the tracks are present in the AccurateRip database

No errors occurred

End of status report

==== Log checksum 40143CFCC8900B36DFCDEBD6DFF148AE5C0FEDE49D55B3BD7310B01F1B093BD3 ====


[CUETools log; Date: 06.09.2019 20:27:57; Version: 2.1.4]
Pregap length 00:25:31.
[AccurateRip ID: 0014969b-00a5e9c0-980d5b0a] found.
Track [ CRC | V2 ] Status
01 [6b05cda6|1d123f8c] (0+3/3) Accurately ripped
02 [13a6b300|8c39b909] (0+3/3) Accurately ripped
03 [07b9da27|51e8402f] (0+3/3) Accurately ripped
04 [7041d06f|f7c4c9d1] (0+3/3) Accurately ripped
05 [3f1981d0|55bf09c9] (0+3/3) Accurately ripped
06 [b6b41029|84dfcaf9] (0+3/3) Accurately ripped
07 [57dc7d29|7ae8b2a6] (0+3/3) Accurately ripped
08 [002a33ed|dc2f1dac] (0+3/3) Accurately ripped
09 [602cb6b5|875fc591] (0+3/3) Accurately ripped
10 [8babf328|9d03a17a] (0+3/3) Accurately ripped

Track Peak [ CRC32 ] [W/O NULL] [ LOG ]
– 100,0 [8ACD42EA] [A13D2CC0]
01 100,0 [74750710] [FFFAF3B8] CRC32
02 100,0 [9788905D] [C829BC4B] CRC32
03 100,0 [F9B7312B] [B7ACEDA9] CRC32
04 99,2 [75DFFB41] [E7B7E709] CRC32
05 97,9 [D98E3F2D] [587C114A] CRC32
06 100,0 [670F69DB] [79BD5EB6] CRC32
07 100,0 [F3AA79DD] [EC5D008D] CRC32
08 100,0 [0BC65306] [929DE09A] CRC32
09 100,0 [CC7340FA] [B267BD1D] CRC32
10 99,5 [50ADD12F] [51A8F0EA] CRC32


Tarja - In The Raw (2019)

All thanks go to sony309

Tarja in my Blog

Download Tarja - In The Raw (2019):