Tags
Language
Tags
June 2024
Su Mo Tu We Th Fr Sa
26 27 28 29 30 31 1
2 3 4 5 6 7 8
9 10 11 12 13 14 15
16 17 18 19 20 21 22
23 24 25 26 27 28 29
30 1 2 3 4 5 6

Valery Gergiev, Mariinsky Orchestra - Tchaikovsky: Symphonies Nos. 4, 5 & 6 (2011) [Blu-ray]

Posted By: Vilboa
Valery Gergiev, Mariinsky Orchestra - Tchaikovsky: Symphonies Nos. 4, 5 & 6 (2011) [Blu-ray]

Valery Gergiev, Mariinsky Orchestra - Tchaikovsky: Symphonies Nos. 4, 5 & 6 (2011) [Blu-ray]
BluRay | BDMV | MPEG-4 AVC Video / 21586 kbps / 1080i / 23,976 fps | 150 min | 30,4 Gb
Audio1: LPCM Audio / 2.0 / 16-bit | Audio2: DTS-HD Master Audio / 5.1 / 48 kHz / 2196 kbps / 16-bit
––––––
BluRay-rip | AVC | MKV 1920x1080 / 4972 kbps / 23,976 fps | 150 min | 8,45 Gb
Audio: PSM / 2ch / 48.0 KHz / 16 bits | DTS / 6ch / 48.0 KHz / 16 bits
Classical | Mariinsky

Valery Gergiev is widely recognized as the greatest modern interpreter of Tchaikovsky's music and the Mariinsky Orchestra holds a peerless reputation in the repertoire. These acclaimed performances were filmed at Salle Pleyel in Paris during January 2010 and directed by Andy Sommer. The themes of fate and death pervade Tchaikovsky's final symphonies. The composition of the fourth symphony coincided with the breakdown of Tchaikovsky's marriage and a failed suicide attempt and the sixth symphony premiered shortly before Tchaikovsky's death. The disc includes a bonus interview of Maestro Gergiev directed by Tommy Pearson.

Cast:
Mariinsky Orchestra
Valery Gergiev, conductor

Track List:
Symphony No. 4 in F minor, Op. 36
Symphony No. 5 in E minor, Op. 64
Symphony No. 6 in B minor, Op. 74 ''Pathétique''


Disc Title: Tchaikovsky_Symphonies_4_ 5_ 6
Disc Size: 32 679 035 964 bytes
Protection: AACS
BD-Java: No
Playlist: 00001.MPLS
Size: 10 437 623 808 bytes
Length: 0:51:35.926
Total Bitrate: 26,97 Mbps
Video: MPEG-4 AVC Video / 21586 kbps / 1080p / 23,976 fps / 16:9 / High Profile 4.1
Audio: English / LPCM Audio / 2.0 / 48 kHz / 1536 kbps / 16-bit
Audio: English / DTS-HD Master Audio / 5.1 / 48 kHz / 2196 kbps / 16-bit (DTS Core: 5.1 / 48 kHz / 1509 kbps / 16-bit)


General
Unique ID : 229958453071134878568868913237908418722 (0xAD0063173F28045AA48A28BF42CA70A2)
Complete name : C:\Symphony No 4.mkv
Format : Matroska
Format version : Version 2
File size : 2.59 GiB
Duration : 46mn 0s
Overall bit rate : 8 046 Kbps
Movie name : Symphony No 4
Encoded date : UTC 2022-03-11 14:56:01
Writing application : DVDFab 9.1.6.8
Writing library : libebml v0.7.8 + libmatroska v0.8.1

Video
ID : 1
Format : AVC
Format/Info : Advanced Video Codec
Format profile : High@L4.1
Format settings, CABAC : Yes
Format settings, ReFrames : 2 frames
Codec ID : V_MPEG4/ISO/AVC
Duration : 46mn 0s
Nominal bit rate : 4 972 Kbps
Width : 1 920 pixels
Height : 1 080 pixels
Display aspect ratio : 16:9
Frame rate mode : Constant
Frame rate : 23.976 fps
Color space : YUV
Chroma subsampling : 4:2:0
Bit depth : 8 bits
Scan type : Progressive
Bits/(Pixel*Frame) : 0.100
Writing library : x264 core 142
Encoding settings : cabac=1 / ref=1 / deblock=1:-1:-1 / analyse=0x3:0 / me=hex / subme=5 / psy=0 / mixed_ref=0 / me_range=16 / chroma_me=1 / trellis=0 / 8x8dct=1 / cqm=0 / deadzone=21,11 / fast_pskip=1 / chroma_qp_offset=0 / threads=8 / lookahead_threads=2 / sliced_threads=0 / nr=0 / decimate=1 / interlaced=0 / bluray_compat=0 / constrained_intra=0 / bframes=2 / b_pyramid=0 / b_adapt=1 / b_bias=0 / direct=1 / weightb=1 / open_gop=0 / weightp=0 / keyint=24 / keyint_min=13 / scenecut=40 / intra_refresh=0 / rc=abr / mbtree=0 / bitrate=4972 / ratetol=1.0 / qcomp=0.60 / qpmin=0 / qpmax=69 / qpstep=4 / ip_ratio=1.40 / pb_ratio=1.30 / aq=1:1.00
Default : Yes
Forced : No
Color primaries : BT.709
Transfer characteristics : BT.709
Matrix coefficients : BT.709
Color range : Limited

Audio #1
ID : 2
Format : PCM
Codec ID : A_PCM/INT/LIT
Duration : 46mn 0s
Bit rate mode : Constant
Channel(s) : 2 channels
Sampling rate : 48.0 KHz
Bit depth : 16 bits
Language : English
Default : Yes
Forced : No

Audio #2
ID : 3
Format : DTS
Format/Info : Digital Theater Systems
Mode : 16
Format settings, Endianness : Big
Codec ID : A_DTS
Duration : 46mn 0s
Bit rate mode : Constant
Bit rate : 1 509 Kbps
Channel(s) : 6 channels
Channel positions : Front: L C R, Side: L R, LFE
Sampling rate : 48.0 KHz
Bit depth : 16 bits
Compression mode : Lossy
Stream size : 497 MiB (19%)
Language : English
Default : No
Forced : No

Menu
00:00:00.000 : en:Chapter 01
00:19:41.013 : en:Chapter 02
00:30:31.120 : en:Chapter 03
00:36:08.875 : en:Chapter 04
––-
General
Unique ID : 246529150469976748329797707057795605194 (0xB977C98CD98CE5ADB2482B36A9BEA2CA)
Complete name : C:\Symphony No 5.mkv
Format : Matroska
Format version : Version 2
File size : 2.98 GiB
Duration : 53mn 0s
Overall bit rate : 8 037 Kbps
Movie name : Symphony No 5
Encoded date : UTC 2022-03-11 15:13:33
Writing application : DVDFab 9.1.6.8
Writing library : libebml v0.7.8 + libmatroska v0.8.1

Video
ID : 1
Format : AVC
Format/Info : Advanced Video Codec
Format profile : High@L4.1
Format settings, CABAC : Yes
Format settings, ReFrames : 2 frames
Codec ID : V_MPEG4/ISO/AVC
Duration : 53mn 0s
Nominal bit rate : 4 972 Kbps
Width : 1 920 pixels
Height : 1 080 pixels
Display aspect ratio : 16:9
Frame rate mode : Constant
Frame rate : 23.976 fps
Color space : YUV
Chroma subsampling : 4:2:0
Bit depth : 8 bits
Scan type : Progressive
Bits/(Pixel*Frame) : 0.100
Writing library : x264 core 142
Encoding settings : cabac=1 / ref=1 / deblock=1:-1:-1 / analyse=0x3:0 / me=hex / subme=5 / psy=0 / mixed_ref=0 / me_range=16 / chroma_me=1 / trellis=0 / 8x8dct=1 / cqm=0 / deadzone=21,11 / fast_pskip=1 / chroma_qp_offset=0 / threads=8 / lookahead_threads=2 / sliced_threads=0 / nr=0 / decimate=1 / interlaced=0 / bluray_compat=0 / constrained_intra=0 / bframes=2 / b_pyramid=0 / b_adapt=1 / b_bias=0 / direct=1 / weightb=1 / open_gop=0 / weightp=0 / keyint=24 / keyint_min=13 / scenecut=40 / intra_refresh=0 / rc=abr / mbtree=0 / bitrate=4972 / ratetol=1.0 / qcomp=0.60 / qpmin=0 / qpmax=69 / qpstep=4 / ip_ratio=1.40 / pb_ratio=1.30 / aq=1:1.00
Default : Yes
Forced : No
Color primaries : BT.709
Transfer characteristics : BT.709
Matrix coefficients : BT.709
Color range : Limited

Audio #1
ID : 2
Format : PCM
Codec ID : A_PCM/INT/LIT
Duration : 53mn 0s
Bit rate mode : Constant
Channel(s) : 2 channels
Sampling rate : 48.0 KHz
Bit depth : 16 bits
Language : English
Default : Yes
Forced : No

Audio #2
ID : 3
Format : DTS
Format/Info : Digital Theater Systems
Mode : 16
Format settings, Endianness : Big
Codec ID : A_DTS
Duration : 53mn 0s
Bit rate mode : Constant
Bit rate : 1 509 Kbps
Channel(s) : 6 channels
Channel positions : Front: L C R, Side: L R, LFE
Sampling rate : 48.0 KHz
Bit depth : 16 bits
Compression mode : Lossy
Stream size : 572 MiB (19%)
Language : English
Default : No
Forced : No

Menu
00:00:00.000 : en:Chapter 01
00:17:08.110 : en:Chapter 02
00:33:06.109 : en:Chapter 03
00:38:58.502 : en:Chapter 04
––-
General
Unique ID : 200006257653399792869415686910117547412 (0x9677CDD765B1EB90AAAA5DAAC3CA0D94)
Complete name : C:\Symphony No 6.mkv
Format : Matroska
Format version : Version 2
File size : 2.90 GiB
Duration : 51mn 33s
Overall bit rate : 8 044 Kbps
Movie name : Symphony No 6
Encoded date : UTC 2022-03-11 15:34:53
Writing application : DVDFab 9.1.6.8
Writing library : libebml v0.7.8 + libmatroska v0.8.1

Video
ID : 1
Format : AVC
Format/Info : Advanced Video Codec
Format profile : High@L4.1
Format settings, CABAC : Yes
Format settings, ReFrames : 2 frames
Codec ID : V_MPEG4/ISO/AVC
Duration : 51mn 33s
Nominal bit rate : 4 972 Kbps
Width : 1 920 pixels
Height : 1 080 pixels
Display aspect ratio : 16:9
Frame rate mode : Constant
Frame rate : 23.976 fps
Color space : YUV
Chroma subsampling : 4:2:0
Bit depth : 8 bits
Scan type : Progressive
Bits/(Pixel*Frame) : 0.100
Writing library : x264 core 142
Encoding settings : cabac=1 / ref=1 / deblock=1:-1:-1 / analyse=0x3:0 / me=hex / subme=5 / psy=0 / mixed_ref=0 / me_range=16 / chroma_me=1 / trellis=0 / 8x8dct=1 / cqm=0 / deadzone=21,11 / fast_pskip=1 / chroma_qp_offset=0 / threads=8 / lookahead_threads=2 / sliced_threads=0 / nr=0 / decimate=1 / interlaced=0 / bluray_compat=0 / constrained_intra=0 / bframes=2 / b_pyramid=0 / b_adapt=1 / b_bias=0 / direct=1 / weightb=1 / open_gop=0 / weightp=0 / keyint=24 / keyint_min=13 / scenecut=40 / intra_refresh=0 / rc=abr / mbtree=0 / bitrate=4972 / ratetol=1.0 / qcomp=0.60 / qpmin=0 / qpmax=69 / qpstep=4 / ip_ratio=1.40 / pb_ratio=1.30 / aq=1:1.00
Default : Yes
Forced : No
Color primaries : BT.709
Transfer characteristics : BT.709
Matrix coefficients : BT.709
Color range : Limited

Audio #1
ID : 2
Format : PCM
Codec ID : A_PCM/INT/LIT
Duration : 51mn 33s
Bit rate mode : Constant
Channel(s) : 2 channels
Sampling rate : 48.0 KHz
Bit depth : 16 bits
Language : English
Default : Yes
Forced : No

Audio #2
ID : 3
Format : DTS
Format/Info : Digital Theater Systems
Mode : 16
Format settings, Endianness : Big
Codec ID : A_DTS
Duration : 51mn 33s
Bit rate mode : Constant
Bit rate : 1 509 Kbps
Channel(s) : 6 channels
Channel positions : Front: L C R, Side: L R, LFE
Sampling rate : 48.0 KHz
Bit depth : 16 bits
Compression mode : Lossy
Stream size : 556 MiB (19%)
Language : English
Default : No
Forced : No

Menu
00:00:00.000 : en:Chapter 01
00:21:38.046 : en:Chapter 02
00:29:13.835 : en:Chapter 03
00:37:31.540 : en:Chapter 04
00:50:50.338 : en:Chapter 05

All screenshots taken from BDRip

Valery Gergiev, Mariinsky Orchestra - Tchaikovsky: Symphonies Nos. 4, 5 & 6 (2011) [Blu-ray]