Tags
Language
Tags

Tchaikovsky - The Nutcracker (Complete Ballet) - Swan Lake ( Suite ) - Abravanel - Utah Symphony [CD 1996]

Posted By: jbglx
Tchaikovsky - The Nutcracker (Complete Ballet) -  Swan Lake ( Suite ) -  Abravanel - Utah Symphony  [CD 1996]

Peter Ilych Tchaikovsky - The Nutcracker (Complete Ballet) - SwanLake ( Suite )
Maurice Abravanel - Utah Symphony Orchestra

EAC Rip | FLAC-TRACKS+CUE+LOG Stereo ADD | 2 CD | Scans | 111 Min. | 598 MB
Label : Vanguard Classics / Catalogue : SVC-52/53 /
Ballet Suite / L P Released in 1961-67

Don't be put off that this Nutcracker is played by the Utah Symphony. It is first class in every way in the glorious sound that Vanguard lavished on the orchestra.Maurice Abravanel was one of the most significant theater conducters of the 20th century. You can feel immediately that he grasps the balletic nature as well as the symphonic majesty of Tchaikovsky's score. The interpretation is brisk, light, nimble, well balanced and masterfully cohesive. Right from the beginning of the overture you will understand what I mean! The playing of the Utah Symphony is transparent, clean, and full of color. You can tell they enjoy playing it! I bought this recording years ago on Vanguard Everyman LPs. The CD transfer is excellent. Grab the it while you can still get it!
Tchaikovsky - The Nutcracker (Complete Ballet) -  Swan Lake ( Suite ) -  Abravanel - Utah Symphony  [CD 1996]

Maestro Maurice Abravanel

Tchaikovsky - The Nutcracker (Complete Ballet) -  Swan Lake ( Suite ) -  Abravanel - Utah Symphony  [CD 1996]
Ballets by Peter Ilich Tchaikovsky .
Recorded at the University of Utah , Salt Lake City, in 1961 ( Nutcracker ) and 1967 ( Swan Lake )
Engineers : Ed Friedner and Jack Bryant .
Utah Symphony Orchestra
Maurice Abravanel

Track Listing :

1. Overture
2. Act I, Scene I: No.1, The Christmas Tree
3. Act I, Scene I: No.2, The March
4. Act I, Scene I: No.3, Little Galop; Entrance of the Guest
5. Act I, Scene I: No.4, Drosselmeyer's entrance; Dance Scene; Distribution of Presents
6. Act I, Scene I: No.5, Scene; Grandfather's Dance
7. Act I, Scene I: No.6, Guest depart; Children retire to bed; Magic spell begins
8. Act I, Scene I: No.7, Battle between Nutcracker and Mouse King; Nutcracker wins battle and is…
9. Act I, Scene II: No.8, Fir Tree Forest in Winter
10. Act I, Scene II: No.9, Waltz of the Snowflakes


1. Act II: No.10, The Castle, Kingdom of Sweets
2. Act II: No.11, Clara and the Nutcracker appear No.12, Divertissement:
3. Act II: Chocolate (Spanish Dance)
4. Act II: Coffee (Arabian Dance)
5. Act II: Tea (Chinese Dance)
6. Act II: Trepak (Russian Dance)
7. Act II: Dance of the Mirlitons (Reed Pipes)
8. Act II: Mother Gigone and the Tumblers
9. Act II: No.13, Waltz of the Flowers
10. Act II: No.14, Pas de deux
11. Act II: Var.1, Tarantella
12. Act II: Var.2, Dance of the Sugar Plum Fairy
13. Act II: Coda
14. Act II: No.15, Final Waltz and Apotheosis
Swan Lake excerpts
15. Swan Lake (ste): Scene
16. Swan Lake (ste): Waltz
17. Swan Lake (ste): Dance of the Swans, IV
18. Swan Lake (ste): Dance of the Swans, V
19. Swan Lake (ste): Spanish Dance
20. Swan Lake (ste): Mazurka
21. Swan Lake (ste): Final Scene

CD 1
Exact Audio Copy V1.0 beta 3 from 29. August 2011

EAC extraction logfile from 22. December 2012, 8:35

Tchaikovsky Peter Ilich 1840 - 1893 / The Nutcracker (complete) cd1

Used drive : SONY DVD RW DRU-840A Adapter: 0 ID: 1

Read mode : Secure
Utilize accurate stream : Yes
Defeat audio cache : Yes
Make use of C2 pointers : No

Read offset correction : 6
Overread into Lead-In and Lead-Out : No
Fill up missing offset samples with silence : Yes
Delete leading and trailing silent blocks : No
Null samples used in CRC calculations : Yes
Used interface : Native Win32 interface for Win NT & 2000
Gap handling : Not detected, thus appended to previous track

Used output format : User Defined Encoder
Selected bitrate : 320 kBit/s
Quality : High
Add ID3 tag : No
Command line compressor : C:\Archivos de programa\Exact Audio Copy\FLAC\FLAC.EXE
Additional command line options : -6 -V -T "ARTIST=%artist%" -T "TITLE=%title%" -T "ALBUM=%albumtitle%" -T "DATE=%year%" -T "TRACKNUMBER=%tracknr%" -T "GENRE=%genre%" -T "COMMENT=%comment%" -T "BAND=%albuminterpret%" -T "ALBUMARTIST=%albuminterpret%" -T "COMPOSER=%composer%" %haslyrics%–tag-from-file=LYRICS="%lyricsfile%"%haslyrics% -T "DISCNUMBER=%cdnumber%" -T "TOTALDISCS=%totalcds%" -T "TOTALTRACKS=%numtracks%" %hascover%–picture="%coverfile%"%hascover% %source% -o %dest%


TOC of the extracted CD

Track | Start | Length | Start sector | End sector
––––––––––––––––––––––––––––-
1 | 0:00.32 | 3:28.20 | 32 | 15651
2 | 3:28.52 | 3:53.15 | 15652 | 33141
3 | 7:21.67 | 2:28.55 | 33142 | 44296
4 | 9:50.47 | 2:28.63 | 44297 | 55459
5 | 12:19.35 | 5:45.62 | 55460 | 81396
6 | 18:05.22 | 6:49.38 | 81397 | 112109
7 | 24:54.60 | 6:54.00 | 112110 | 143159
8 | 31:48.60 | 3:36.57 | 143160 | 159416
9 | 35:25.42 | 3:39.48 | 159417 | 175889
10 | 39:05.15 | 6:25.37 | 175890 | 204801


Track 1

Filename E:\MUSIC\My Music\Tchaikovsky - The Nutcrracker\Tchaikovsky - The Nutcracker ( Complete Ballet ) - Swan Lake ( Suite ) - Abravanel - CD 1\CD\01 Overture.wav

Peak level 76.3 %
Extraction speed 1.7 X
Track quality 100.0 %
Test CRC 160BB12F
Copy CRC 160BB12F
Cannot be verified as accurate (confidence 1) [C2592FF4], AccurateRip returned [FD6D4410] (AR v2)
Copy OK

Track 2

Filename E:\MUSIC\My Music\Tchaikovsky - The Nutcrracker\Tchaikovsky - The Nutcracker ( Complete Ballet ) - Swan Lake ( Suite ) - Abravanel - CD 1\CD\02 The Christmas tree.wav

Peak level 93.0 %
Extraction speed 1.9 X
Track quality 100.0 %
Test CRC 4D254244
Copy CRC 4D254244
Cannot be verified as accurate (confidence 1) [BB325E76], AccurateRip returned [8B518132] (AR v2)
Copy OK

Track 3

Filename E:\MUSIC\My Music\Tchaikovsky - The Nutcrracker\Tchaikovsky - The Nutcracker ( Complete Ballet ) - Swan Lake ( Suite ) - Abravanel - CD 1\CD\03 March.wav

Peak level 71.2 %
Extraction speed 1.5 X
Track quality 99.9 %
Test CRC 6725448C
Copy CRC 6725448C
Cannot be verified as accurate (confidence 1) [060658C2], AccurateRip returned [8894CEA3] (AR v2)
Copy OK

Track 4

Filename E:\MUSIC\My Music\Tchaikovsky - The Nutcrracker\Tchaikovsky - The Nutcracker ( Complete Ballet ) - Swan Lake ( Suite ) - Abravanel - CD 1\CD\04 Little Balop- Entrance of the Guests.wav

Peak level 79.2 %
Extraction speed 2.0 X
Track quality 100.0 %
Test CRC B16C8481
Copy CRC B16C8481
Cannot be verified as accurate (confidence 1) [C6BF4B5D], AccurateRip returned [61492486] (AR v2)
Copy OK

Track 5

Filename E:\MUSIC\My Music\Tchaikovsky - The Nutcrracker\Tchaikovsky - The Nutcracker ( Complete Ballet ) - Swan Lake ( Suite ) - Abravanel - CD 1\CD\05 Drosselmeyer's Entrance -Dance Scene- Distribution of Presents.wav

Peak level 84.5 %
Extraction speed 2.4 X
Track quality 100.0 %
Test CRC DA46CDBA
Copy CRC DA46CDBA
Cannot be verified as accurate (confidence 1) [DCAA4DA0], AccurateRip returned [ADDB52C2] (AR v2)
Copy OK

Track 6

Filename E:\MUSIC\My Music\Tchaikovsky - The Nutcrracker\Tchaikovsky - The Nutcracker ( Complete Ballet ) - Swan Lake ( Suite ) - Abravanel - CD 1\CD\06 Grandfather's Dance.wav

Peak level 88.0 %
Extraction speed 2.7 X
Track quality 100.0 %
Test CRC 2BFE806A
Copy CRC 2BFE806A
Cannot be verified as accurate (confidence 1) [64F786B3], AccurateRip returned [D343287B] (AR v2)
Copy OK

Track 7

Filename E:\MUSIC\My Music\Tchaikovsky - The Nutcrracker\Tchaikovsky - The Nutcracker ( Complete Ballet ) - Swan Lake ( Suite ) - Abravanel - CD 1\CD\07 Guest Depart, Children retire to bed, Magic Spell begins.wav

Peak level 92.5 %
Extraction speed 2.6 X
Track quality 99.9 %
Test CRC C11ED650
Copy CRC C11ED650
Cannot be verified as accurate (confidence 1) [BCA6886B], AccurateRip returned [601008C0] (AR v2)
Copy OK

Track 8

Filename E:\MUSIC\My Music\Tchaikovsky - The Nutcrracker\Tchaikovsky - The Nutcracker ( Complete Ballet ) - Swan Lake ( Suite ) - Abravanel - CD 1\CD\08 Battle between Nutcracker and Mouse King, Nutcracker wins and is transformed into a handsome Princ

Peak level 97.9 %
Extraction speed 2.3 X
Track quality 99.9 %
Test CRC 3202D2E3
Copy CRC 3202D2E3
Cannot be verified as accurate (confidence 1) [F2BEC74C], AccurateRip returned [8E3D5C5F] (AR v2)
Copy OK

Track 9

Filename E:\MUSIC\My Music\Tchaikovsky - The Nutcrracker\Tchaikovsky - The Nutcracker ( Complete Ballet ) - Swan Lake ( Suite ) - Abravanel - CD 1\CD\09 Fir Tree Forest in Winter.wav

Peak level 100.0 %
Extraction speed 3.0 X
Track quality 100.0 %
Test CRC BCA4DE8C
Copy CRC BCA4DE8C
Cannot be verified as accurate (confidence 1) [28050421], AccurateRip returned [B1BB70C8] (AR v2)
Copy OK

Track 10

Filename E:\MUSIC\My Music\Tchaikovsky - The Nutcrracker\Tchaikovsky - The Nutcracker ( Complete Ballet ) - Swan Lake ( Suite ) - Abravanel - CD 1\CD\10 Waltz of the snowflakes.wav

Peak level 97.7 %
Extraction speed 2.8 X
Track quality 99.9 %
Test CRC D072EE21
Copy CRC D072EE21
Cannot be verified as accurate (confidence 1) [61642A2B], AccurateRip returned [D033BCC3] (AR v2)
Copy OK


No tracks could be verified as accurate
You may have a different pressing from the one(s) in the database

No errors occurred

End of status report

==== Log checksum A77D4CBFCFBFFC55332BFD0CB534D9EE2A0D341E779FAA8CEACFCC1D64C7A46C ====

––––––––––––––––––––––––––––––

Exact Audio Copy V1.0 beta 3 from 29. August 2011

EAC extraction logfile from 22. December 2012, 8:35

Tchaikovsky Peter Ilich 1840 - 1893 / The Nutcracker (complete) cd1

Used drive : SONY DVD RW DRU-840A Adapter: 0 ID: 1

Read mode : Secure
Utilize accurate stream : Yes
Defeat audio cache : Yes
Make use of C2 pointers : No

Read offset correction : 6
Overread into Lead-In and Lead-Out : No
Fill up missing offset samples with silence : Yes
Delete leading and trailing silent blocks : No
Null samples used in CRC calculations : Yes
Used interface : Native Win32 interface for Win NT & 2000
Gap handling : Not detected, thus appended to previous track

Used output format : User Defined Encoder
Selected bitrate : 320 kBit/s
Quality : High
Add ID3 tag : No
Command line compressor : C:\Archivos de programa\Exact Audio Copy\FLAC\FLAC.EXE
Additional command line options : -6 -V -T "ARTIST=%artist%" -T "TITLE=%title%" -T "ALBUM=%albumtitle%" -T "DATE=%year%" -T "TRACKNUMBER=%tracknr%" -T "GENRE=%genre%" -T "COMMENT=%comment%" -T "BAND=%albuminterpret%" -T "ALBUMARTIST=%albuminterpret%" -T "COMPOSER=%composer%" %haslyrics%–tag-from-file=LYRICS="%lyricsfile%"%haslyrics% -T "DISCNUMBER=%cdnumber%" -T "TOTALDISCS=%totalcds%" -T "TOTALTRACKS=%numtracks%" %hascover%–picture="%coverfile%"%hascover% %source% -o %dest%


TOC of the extracted CD

Track | Start | Length | Start sector | End sector
––––––––––––––––––––––––––––-
1 | 0:00.32 | 3:28.20 | 32 | 15651
2 | 3:28.52 | 3:53.15 | 15652 | 33141
3 | 7:21.67 | 2:28.55 | 33142 | 44296
4 | 9:50.47 | 2:28.63 | 44297 | 55459
5 | 12:19.35 | 5:45.62 | 55460 | 81396
6 | 18:05.22 | 6:49.38 | 81397 | 112109
7 | 24:54.60 | 6:54.00 | 112110 | 143159
8 | 31:48.60 | 3:36.57 | 143160 | 159416
9 | 35:25.42 | 3:39.48 | 159417 | 175889
10 | 39:05.15 | 6:25.37 | 175890 | 204801


Track 1

Filename E:\MUSIC\My Music\Tchaikovsky - The Nutcrracker\Tchaikovsky - The Nutcracker ( Complete Ballet ) - Swan Lake ( Suite ) - Abravanel - CD 1\CD\01 Overture.wav

Peak level 76.3 %
Extraction speed 1.7 X
Track quality 100.0 %
Test CRC 160BB12F
Copy CRC 160BB12F
Cannot be verified as accurate (confidence 1) [C2592FF4], AccurateRip returned [FD6D4410] (AR v2)
Copy OK

Track 2

Filename E:\MUSIC\My Music\Tchaikovsky - The Nutcrracker\Tchaikovsky - The Nutcracker ( Complete Ballet ) - Swan Lake ( Suite ) - Abravanel - CD 1\CD\02 The Christmas tree.wav

Peak level 93.0 %
Extraction speed 1.9 X
Track quality 100.0 %
Test CRC 4D254244
Copy CRC 4D254244
Cannot be verified as accurate (confidence 1) [BB325E76], AccurateRip returned [8B518132] (AR v2)
Copy OK

Track 3

Filename E:\MUSIC\My Music\Tchaikovsky - The Nutcrracker\Tchaikovsky - The Nutcracker ( Complete Ballet ) - Swan Lake ( Suite ) - Abravanel - CD 1\CD\03 March.wav

Peak level 71.2 %
Extraction speed 1.5 X
Track quality 99.9 %
Test CRC 6725448C
Copy CRC 6725448C
Cannot be verified as accurate (confidence 1) [060658C2], AccurateRip returned [8894CEA3] (AR v2)
Copy OK

Track 4

Filename E:\MUSIC\My Music\Tchaikovsky - The Nutcrracker\Tchaikovsky - The Nutcracker ( Complete Ballet ) - Swan Lake ( Suite ) - Abravanel - CD 1\CD\04 Little Balop- Entrance of the Guests.wav

Peak level 79.2 %
Extraction speed 2.0 X
Track quality 100.0 %
Test CRC B16C8481
Copy CRC B16C8481
Cannot be verified as accurate (confidence 1) [C6BF4B5D], AccurateRip returned [61492486] (AR v2)
Copy OK

Track 5

Filename E:\MUSIC\My Music\Tchaikovsky - The Nutcrracker\Tchaikovsky - The Nutcracker ( Complete Ballet ) - Swan Lake ( Suite ) - Abravanel - CD 1\CD\05 Drosselmeyer's Entrance -Dance Scene- Distribution of Presents.wav

Peak level 84.5 %
Extraction speed 2.4 X
Track quality 100.0 %
Test CRC DA46CDBA
Copy CRC DA46CDBA
Cannot be verified as accurate (confidence 1) [DCAA4DA0], AccurateRip returned [ADDB52C2] (AR v2)
Copy OK

Track 6

Filename E:\MUSIC\My Music\Tchaikovsky - The Nutcrracker\Tchaikovsky - The Nutcracker ( Complete Ballet ) - Swan Lake ( Suite ) - Abravanel - CD 1\CD\06 Grandfather's Dance.wav

Peak level 88.0 %
Extraction speed 2.7 X
Track quality 100.0 %
Test CRC 2BFE806A
Copy CRC 2BFE806A
Cannot be verified as accurate (confidence 1) [64F786B3], AccurateRip returned [D343287B] (AR v2)
Copy OK

Track 7

Filename E:\MUSIC\My Music\Tchaikovsky - The Nutcrracker\Tchaikovsky - The Nutcracker ( Complete Ballet ) - Swan Lake ( Suite ) - Abravanel - CD 1\CD\07 Guest Depart, Children retire to bed, Magic Spell begins.wav

Peak level 92.5 %
Extraction speed 2.6 X
Track quality 99.9 %
Test CRC C11ED650
Copy CRC C11ED650
Cannot be verified as accurate (confidence 1) [BCA6886B], AccurateRip returned [601008C0] (AR v2)
Copy OK

Track 8

Filename E:\MUSIC\My Music\Tchaikovsky - The Nutcrracker\Tchaikovsky - The Nutcracker ( Complete Ballet ) - Swan Lake ( Suite ) - Abravanel - CD 1\CD\08 Battle between Nutcracker and Mouse King, Nutcracker wins and is transformed into a handsome Princ

Peak level 97.9 %
Extraction speed 2.3 X
Track quality 99.9 %
Test CRC 3202D2E3
Copy CRC 3202D2E3
Cannot be verified as accurate (confidence 1) [F2BEC74C], AccurateRip returned [8E3D5C5F] (AR v2)
Copy OK

Track 9

Filename E:\MUSIC\My Music\Tchaikovsky - The Nutcrracker\Tchaikovsky - The Nutcracker ( Complete Ballet ) - Swan Lake ( Suite ) - Abravanel - CD 1\CD\09 Fir Tree Forest in Winter.wav

Peak level 100.0 %
Extraction speed 3.0 X
Track quality 100.0 %
Test CRC BCA4DE8C
Copy CRC BCA4DE8C
Cannot be verified as accurate (confidence 1) [28050421], AccurateRip returned [B1BB70C8] (AR v2)
Copy OK

Track 10

Filename E:\MUSIC\My Music\Tchaikovsky - The Nutcrracker\Tchaikovsky - The Nutcracker ( Complete Ballet ) - Swan Lake ( Suite ) - Abravanel - CD 1\CD\10 Waltz of the snowflakes.wav

Peak level 97.7 %
Extraction speed 2.8 X
Track quality 99.9 %
Test CRC D072EE21
Copy CRC D072EE21
Cannot be verified as accurate (confidence 1) [61642A2B], AccurateRip returned [D033BCC3] (AR v2)
Copy OK


No tracks could be verified as accurate
You may have a different pressing from the one(s) in the database

No errors occurred

End of status report

==== Log checksum A77D4CBFCFBFFC55332BFD0CB534D9EE2A0D341E779FAA8CEACFCC1D64C7A46C ====

CD 2
Exact Audio Copy V1.0 beta 3 from 29. August 2011

EAC extraction logfile from 22. December 2012, 8:58

Peter Ilyich Tchaikovsky / The Nutcracker (Act/Disc II) Swan Lake Suite

Used drive : SONY DVD RW DRU-840A Adapter: 0 ID: 1

Read mode : Secure
Utilize accurate stream : Yes
Defeat audio cache : Yes
Make use of C2 pointers : No

Read offset correction : 6
Overread into Lead-In and Lead-Out : No
Fill up missing offset samples with silence : Yes
Delete leading and trailing silent blocks : No
Null samples used in CRC calculations : Yes
Used interface : Native Win32 interface for Win NT & 2000
Gap handling : Not detected, thus appended to previous track

Used output format : User Defined Encoder
Selected bitrate : 320 kBit/s
Quality : High
Add ID3 tag : No
Command line compressor : C:\Archivos de programa\Exact Audio Copy\FLAC\FLAC.EXE
Additional command line options : -6 -V -T "ARTIST=%artist%" -T "TITLE=%title%" -T "ALBUM=%albumtitle%" -T "DATE=%year%" -T "TRACKNUMBER=%tracknr%" -T "GENRE=%genre%" -T "COMMENT=%comment%" -T "BAND=%albuminterpret%" -T "ALBUMARTIST=%albuminterpret%" -T "COMPOSER=%composer%" %haslyrics%–tag-from-file=LYRICS="%lyricsfile%"%haslyrics% -T "DISCNUMBER=%cdnumber%" -T "TOTALDISCS=%totalcds%" -T "TOTALTRACKS=%numtracks%" %hascover%–picture="%coverfile%"%hascover% %source% -o %dest%


TOC of the extracted CD

Track | Start | Length | Start sector | End sector
––––––––––––––––––––––––––––-
1 | 0:00.32 | 3:11.25 | 32 | 14381
2 | 3:11.57 | 4:38.13 | 14382 | 35244
3 | 7:49.70 | 1:07.25 | 35245 | 40294
4 | 8:57.20 | 3:03.62 | 40295 | 54081
5 | 12:01.07 | 0:58.35 | 54082 | 58466
6 | 12:59.42 | 1:07.43 | 58467 | 63534
7 | 14:07.10 | 2:07.10 | 63535 | 73069
8 | 16:14.20 | 2:53.07 | 73070 | 86051
9 | 19:07.27 | 6:16.45 | 86052 | 114296
10 | 25:23.72 | 4:18.30 | 114297 | 133676
11 | 29:42.27 | 0:38.23 | 133677 | 136549
12 | 30:20.50 | 1:47.02 | 136550 | 144576
13 | 32:07.52 | 1:15.13 | 144577 | 150214
14 | 33:22.65 | 4:57.52 | 150215 | 172541
15 | 38:20.42 | 2:44.03 | 172542 | 184844
16 | 41:04.45 | 6:23.20 | 184845 | 213589
17 | 47:27.65 | 1:22.47 | 213590 | 219786
18 | 48:50.37 | 6:52.30 | 219787 | 250716
19 | 55:42.67 | 2:44.28 | 250717 | 263044
20 | 58:27.20 | 3:25.70 | 263045 | 278489
21 | 61:53.15 | 3:05.67 | 278490 | 292431


Track 1

Filename E:\MUSIC\My Music\Tchaikovsky - The Nutcrracker\Tchaikovsky - The Nutcracker ( Complete Ballet ) - Swan Lake ( Suite ) - Abravanel - CD 2\CD\01 No. 1 Kingdom of Sweets.wav

Peak level 79.6 %
Extraction speed 4.2 X
Track quality 100.0 %
Test CRC 53A61A50
Copy CRC 53A61A50
Cannot be verified as accurate (confidence 1) [4AFDAB5F], AccurateRip returned [AF7DFF47] (AR v2)
Copy OK

Track 2

Filename E:\MUSIC\My Music\Tchaikovsky - The Nutcrracker\Tchaikovsky - The Nutcracker ( Complete Ballet ) - Swan Lake ( Suite ) - Abravanel - CD 2\CD\02 No. 2 Clara and the Nutcracker appear.wav

Peak level 91.7 %
Extraction speed 4.9 X
Track quality 100.0 %
Test CRC 43EBFEBC
Copy CRC 43EBFEBC
Cannot be verified as accurate (confidence 1) [99C5747C], AccurateRip returned [66F16207] (AR v2)
Copy OK

Track 3

Filename E:\MUSIC\My Music\Tchaikovsky - The Nutcrracker\Tchaikovsky - The Nutcracker ( Complete Ballet ) - Swan Lake ( Suite ) - Abravanel - CD 2\CD\03 No. 3 Chocolate (Spanish).wav

Peak level 100.0 %
Extraction speed 3.7 X
Track quality 100.0 %
Test CRC F3DFF765
Copy CRC F3DFF765
Cannot be verified as accurate (confidence 1) [0367F9E6], AccurateRip returned [90C0F9C6] (AR v2)
Copy OK

Track 4

Filename E:\MUSIC\My Music\Tchaikovsky - The Nutcrracker\Tchaikovsky - The Nutcracker ( Complete Ballet ) - Swan Lake ( Suite ) - Abravanel - CD 2\CD\04 No. 4 Coffe (Aarabian).wav

Peak level 27.1 %
Extraction speed 5.1 X
Track quality 100.0 %
Test CRC 43977A0D
Copy CRC 43977A0D
Cannot be verified as accurate (confidence 1) [D7988960], AccurateRip returned [3D70944C] (AR v2)
Copy OK

Track 5

Filename E:\MUSIC\My Music\Tchaikovsky - The Nutcrracker\Tchaikovsky - The Nutcracker ( Complete Ballet ) - Swan Lake ( Suite ) - Abravanel - CD 2\CD\05 No. 5 Tea (Chinese).wav

Peak level 49.7 %
Extraction speed 3.8 X
Track quality 100.0 %
Test CRC D7254BEB
Copy CRC D7254BEB
Cannot be verified as accurate (confidence 1) [C65EFA32], AccurateRip returned [40D5B827] (AR v2)
Copy OK

Track 6

Filename E:\MUSIC\My Music\Tchaikovsky - The Nutcrracker\Tchaikovsky - The Nutcracker ( Complete Ballet ) - Swan Lake ( Suite ) - Abravanel - CD 2\CD\06 No. 6 Trepak (Russian).wav

Peak level 100.0 %
Extraction speed 4.0 X
Track quality 100.0 %
Test CRC 16E6A178
Copy CRC 16E6A178
Cannot be verified as accurate (confidence 1) [F2976800], AccurateRip returned [F2B96DDE] (AR v2)
Copy OK

Track 7

Filename E:\MUSIC\My Music\Tchaikovsky - The Nutcrracker\Tchaikovsky - The Nutcracker ( Complete Ballet ) - Swan Lake ( Suite ) - Abravanel - CD 2\CD\07 No. 7 Mirlitons.wav

Peak level 55.4 %
Extraction speed 3.6 X
Track quality 99.9 %
Test CRC E30F44F5
Copy CRC E30F44F5
Cannot be verified as accurate (confidence 1) [25B267A2], AccurateRip returned [1C73B02A] (AR v2)
Copy OK

Track 8

Filename E:\MUSIC\My Music\Tchaikovsky - The Nutcrracker\Tchaikovsky - The Nutcracker ( Complete Ballet ) - Swan Lake ( Suite ) - Abravanel - CD 2\CD\08 No. 8 Mother Gigone, Tumblers.wav

Peak level 76.4 %
Extraction speed 5.6 X
Track quality 100.0 %
Test CRC 703F2BB0
Copy CRC 703F2BB0
Cannot be verified as accurate (confidence 1) [9ADDD46F], AccurateRip returned [F22DF6DF] (AR v2)
Copy OK

Track 9

Filename E:\MUSIC\My Music\Tchaikovsky - The Nutcrracker\Tchaikovsky - The Nutcracker ( Complete Ballet ) - Swan Lake ( Suite ) - Abravanel - CD 2\CD\09 No. 9 Waltz of the Flowers.wav

Peak level 90.8 %
Extraction speed 6.7 X
Track quality 100.0 %
Test CRC E29DD8F5
Copy CRC E29DD8F5
Cannot be verified as accurate (confidence 1) [CDDA8EFA], AccurateRip returned [EC5092A5] (AR v2)
Copy OK

Track 10

Filename E:\MUSIC\My Music\Tchaikovsky - The Nutcrracker\Tchaikovsky - The Nutcracker ( Complete Ballet ) - Swan Lake ( Suite ) - Abravanel - CD 2\CD\10 No. 10 Pas de deux.wav

Peak level 100.0 %
Extraction speed 6.9 X
Track quality 100.0 %
Test CRC 073A0451
Copy CRC 073A0451
Cannot be verified as accurate (confidence 1) [20B93158], AccurateRip returned [750CED95] (AR v2)
Copy OK

Track 11

Filename E:\MUSIC\My Music\Tchaikovsky - The Nutcrracker\Tchaikovsky - The Nutcracker ( Complete Ballet ) - Swan Lake ( Suite ) - Abravanel - CD 2\CD\11 No. 11 Tarantella.wav

Peak level 81.0 %
Extraction speed 4.0 X
Track quality 100.0 %
Test CRC 1CF965A8
Copy CRC 1CF965A8
Cannot be verified as accurate (confidence 1) [2FA99398], AccurateRip returned [6E64F83B] (AR v2)
Copy OK

Track 12

Filename E:\MUSIC\My Music\Tchaikovsky - The Nutcrracker\Tchaikovsky - The Nutcracker ( Complete Ballet ) - Swan Lake ( Suite ) - Abravanel - CD 2\CD\12 No. 12 Dance of the Sugar Plum Fairy.wav

Peak level 45.8 %
Extraction speed 6.0 X
Track quality 100.0 %
Test CRC 3B2E42D9
Copy CRC 3B2E42D9
Cannot be verified as accurate (confidence 1) [7923D91A], AccurateRip returned [934EA0E1] (AR v2)
Copy OK

Track 13

Filename E:\MUSIC\My Music\Tchaikovsky - The Nutcrracker\Tchaikovsky - The Nutcracker ( Complete Ballet ) - Swan Lake ( Suite ) - Abravanel - CD 2\CD\13 No. 13 Coda.wav

Peak level 90.8 %
Extraction speed 5.4 X
Track quality 100.0 %
Test CRC D8292250
Copy CRC D8292250
Cannot be verified as accurate (confidence 1) [E1DF0D91], AccurateRip returned [BC94FBD2] (AR v2)
Copy OK

Track 14

Filename E:\MUSIC\My Music\Tchaikovsky - The Nutcrracker\Tchaikovsky - The Nutcracker ( Complete Ballet ) - Swan Lake ( Suite ) - Abravanel - CD 2\CD\14 No. 14 Final Waltz and Apotheosis.wav

Peak level 87.0 %
Extraction speed 7.5 X
Track quality 100.0 %
Test CRC 40409F9B
Copy CRC 40409F9B
Cannot be verified as accurate (confidence 1) [1A27EEDF], AccurateRip returned [4EDF9419] (AR v2)
Copy OK

Track 15

Filename E:\MUSIC\My Music\Tchaikovsky - The Nutcrracker\Tchaikovsky - The Nutcracker ( Complete Ballet ) - Swan Lake ( Suite ) - Abravanel - CD 2\CD\15 No. 15 Scene.wav

Peak level 86.5 %
Extraction speed 7.0 X
Track quality 100.0 %
Test CRC FC5BF5F9
Copy CRC FC5BF5F9
Cannot be verified as accurate (confidence 1) [71E12944], AccurateRip returned [28EE6383] (AR v2)
Copy OK

Track 16

Filename E:\MUSIC\My Music\Tchaikovsky - The Nutcrracker\Tchaikovsky - The Nutcracker ( Complete Ballet ) - Swan Lake ( Suite ) - Abravanel - CD 2\CD\16 No. 16 Waltz.wav

Peak level 97.2 %
Extraction speed 8.3 X
Track quality 100.0 %
Test CRC EC4A8A38
Copy CRC EC4A8A38
Cannot be verified as accurate (confidence 1) [084E47C5], AccurateRip returned [716DCE55] (AR v2)
Copy OK

Track 17

Filename E:\MUSIC\My Music\Tchaikovsky - The Nutcrracker\Tchaikovsky - The Nutcracker ( Complete Ballet ) - Swan Lake ( Suite ) - Abravanel - CD 2\CD\17 No. 17 Dance of the Swans, IV.wav

Peak level 97.7 %
Extraction speed 4.0 X
Track quality 99.8 %
Test CRC CA3DA65C
Copy CRC CA3DA65C
Cannot be verified as accurate (confidence 1) [3B3A17D1], AccurateRip returned [58C565D4] (AR v2)
Copy OK

Track 18

Filename E:\MUSIC\My Music\Tchaikovsky - The Nutcrracker\Tchaikovsky - The Nutcracker ( Complete Ballet ) - Swan Lake ( Suite ) - Abravanel - CD 2\CD\18 No. 18 Dances of the Swans, V.wav

Peak level 90.3 %
Extraction speed 8.8 X
Track quality 100.0 %
Test CRC CAAA2BFE
Copy CRC CAAA2BFE
Cannot be verified as accurate (confidence 1) [29440282], AccurateRip returned [06744F42] (AR v2)
Copy OK

Track 19

Filename E:\MUSIC\My Music\Tchaikovsky - The Nutcrracker\Tchaikovsky - The Nutcracker ( Complete Ballet ) - Swan Lake ( Suite ) - Abravanel - CD 2\CD\19 No. 19 Spanish Dance.wav

Peak level 99.1 %
Extraction speed 7.9 X
Track quality 100.0 %
Test CRC 286ECA6E
Copy CRC 286ECA6E
Cannot be verified as accurate (confidence 1) [75D9C5FE], AccurateRip returned [FA14AA56] (AR v2)
Copy OK

Track 20

Filename E:\MUSIC\My Music\Tchaikovsky - The Nutcrracker\Tchaikovsky - The Nutcracker ( Complete Ballet ) - Swan Lake ( Suite ) - Abravanel - CD 2\CD\20 No. 20 Mazurka.wav

Peak level 95.7 %
Extraction speed 8.5 X
Track quality 100.0 %
Test CRC 9B59399B
Copy CRC 9B59399B
Cannot be verified as accurate (confidence 1) [A75CADC2], AccurateRip returned [E19A7FC0] (AR v2)
Copy OK

Track 21

Filename E:\MUSIC\My Music\Tchaikovsky - The Nutcrracker\Tchaikovsky - The Nutcracker ( Complete Ballet ) - Swan Lake ( Suite ) - Abravanel - CD 2\CD\21 No. 21 Final Scene.wav

Peak level 96.3 %
Extraction speed 8.6 X
Track quality 100.0 %
Test CRC 71E51843
Copy CRC 71E51843
Cannot be verified as accurate (confidence 1) [8CDA7428], AccurateRip returned [A7BF57D2] (AR v2)
Copy OK


No tracks could be verified as accurate
You may have a different pressing from the one(s) in the database

No errors occurred

End of status report

==== Log checksum 76351DEB54CE2FEC5641662CDD52E800511A2498FD4F012CB3AE7458DFEC54EE ====

––––––––––––––––––––––––––––––

Exact Audio Copy V1.0 beta 3 from 29. August 2011

EAC extraction logfile from 22. December 2012, 8:58

Peter Ilyich Tchaikovsky / The Nutcracker (Act/Disc II) Swan Lake Suite

Used drive : SONY DVD RW DRU-840A Adapter: 0 ID: 1

Read mode : Secure
Utilize accurate stream : Yes
Defeat audio cache : Yes
Make use of C2 pointers : No

Read offset correction : 6
Overread into Lead-In and Lead-Out : No
Fill up missing offset samples with silence : Yes
Delete leading and trailing silent blocks : No
Null samples used in CRC calculations : Yes
Used interface : Native Win32 interface for Win NT & 2000
Gap handling : Not detected, thus appended to previous track

Used output format : User Defined Encoder
Selected bitrate : 320 kBit/s
Quality : High
Add ID3 tag : No
Command line compressor : C:\Archivos de programa\Exact Audio Copy\FLAC\FLAC.EXE
Additional command line options : -6 -V -T "ARTIST=%artist%" -T "TITLE=%title%" -T "ALBUM=%albumtitle%" -T "DATE=%year%" -T "TRACKNUMBER=%tracknr%" -T "GENRE=%genre%" -T "COMMENT=%comment%" -T "BAND=%albuminterpret%" -T "ALBUMARTIST=%albuminterpret%" -T "COMPOSER=%composer%" %haslyrics%–tag-from-file=LYRICS="%lyricsfile%"%haslyrics% -T "DISCNUMBER=%cdnumber%" -T "TOTALDISCS=%totalcds%" -T "TOTALTRACKS=%numtracks%" %hascover%–picture="%coverfile%"%hascover% %source% -o %dest%


TOC of the extracted CD

Track | Start | Length | Start sector | End sector
––––––––––––––––––––––––––––-
1 | 0:00.32 | 3:11.25 | 32 | 14381
2 | 3:11.57 | 4:38.13 | 14382 | 35244
3 | 7:49.70 | 1:07.25 | 35245 | 40294
4 | 8:57.20 | 3:03.62 | 40295 | 54081
5 | 12:01.07 | 0:58.35 | 54082 | 58466
6 | 12:59.42 | 1:07.43 | 58467 | 63534
7 | 14:07.10 | 2:07.10 | 63535 | 73069
8 | 16:14.20 | 2:53.07 | 73070 | 86051
9 | 19:07.27 | 6:16.45 | 86052 | 114296
10 | 25:23.72 | 4:18.30 | 114297 | 133676
11 | 29:42.27 | 0:38.23 | 133677 | 136549
12 | 30:20.50 | 1:47.02 | 136550 | 144576
13 | 32:07.52 | 1:15.13 | 144577 | 150214
14 | 33:22.65 | 4:57.52 | 150215 | 172541
15 | 38:20.42 | 2:44.03 | 172542 | 184844
16 | 41:04.45 | 6:23.20 | 184845 | 213589
17 | 47:27.65 | 1:22.47 | 213590 | 219786
18 | 48:50.37 | 6:52.30 | 219787 | 250716
19 | 55:42.67 | 2:44.28 | 250717 | 263044
20 | 58:27.20 | 3:25.70 | 263045 | 278489
21 | 61:53.15 | 3:05.67 | 278490 | 292431


Track 1

Filename E:\MUSIC\My Music\Tchaikovsky - The Nutcrracker\Tchaikovsky - The Nutcracker ( Complete Ballet ) - Swan Lake ( Suite ) - Abravanel - CD 2\CD\01 No. 1 Kingdom of Sweets.wav

Peak level 79.6 %
Extraction speed 4.2 X
Track quality 100.0 %
Test CRC 53A61A50
Copy CRC 53A61A50
Cannot be verified as accurate (confidence 1) [4AFDAB5F], AccurateRip returned [AF7DFF47] (AR v2)
Copy OK

Track 2

Filename E:\MUSIC\My Music\Tchaikovsky - The Nutcrracker\Tchaikovsky - The Nutcracker ( Complete Ballet ) - Swan Lake ( Suite ) - Abravanel - CD 2\CD\02 No. 2 Clara and the Nutcracker appear.wav

Peak level 91.7 %
Extraction speed 4.9 X
Track quality 100.0 %
Test CRC 43EBFEBC
Copy CRC 43EBFEBC
Cannot be verified as accurate (confidence 1) [99C5747C], AccurateRip returned [66F16207] (AR v2)
Copy OK

Track 3

Filename E:\MUSIC\My Music\Tchaikovsky - The Nutcrracker\Tchaikovsky - The Nutcracker ( Complete Ballet ) - Swan Lake ( Suite ) - Abravanel - CD 2\CD\03 No. 3 Chocolate (Spanish).wav

Peak level 100.0 %
Extraction speed 3.7 X
Track quality 100.0 %
Test CRC F3DFF765
Copy CRC F3DFF765
Cannot be verified as accurate (confidence 1) [0367F9E6], AccurateRip returned [90C0F9C6] (AR v2)
Copy OK

Track 4

Filename E:\MUSIC\My Music\Tchaikovsky - The Nutcrracker\Tchaikovsky - The Nutcracker ( Complete Ballet ) - Swan Lake ( Suite ) - Abravanel - CD 2\CD\04 No. 4 Coffe (Aarabian).wav

Peak level 27.1 %
Extraction speed 5.1 X
Track quality 100.0 %
Test CRC 43977A0D
Copy CRC 43977A0D
Cannot be verified as accurate (confidence 1) [D7988960], AccurateRip returned [3D70944C] (AR v2)
Copy OK

Track 5

Filename E:\MUSIC\My Music\Tchaikovsky - The Nutcrracker\Tchaikovsky - The Nutcracker ( Complete Ballet ) - Swan Lake ( Suite ) - Abravanel - CD 2\CD\05 No. 5 Tea (Chinese).wav

Peak level 49.7 %
Extraction speed 3.8 X
Track quality 100.0 %
Test CRC D7254BEB
Copy CRC D7254BEB
Cannot be verified as accurate (confidence 1) [C65EFA32], AccurateRip returned [40D5B827] (AR v2)
Copy OK

Track 6

Filename E:\MUSIC\My Music\Tchaikovsky - The Nutcrracker\Tchaikovsky - The Nutcracker ( Complete Ballet ) - Swan Lake ( Suite ) - Abravanel - CD 2\CD\06 No. 6 Trepak (Russian).wav

Peak level 100.0 %
Extraction speed 4.0 X
Track quality 100.0 %
Test CRC 16E6A178
Copy CRC 16E6A178
Cannot be verified as accurate (confidence 1) [F2976800], AccurateRip returned [F2B96DDE] (AR v2)
Copy OK

Track 7

Filename E:\MUSIC\My Music\Tchaikovsky - The Nutcrracker\Tchaikovsky - The Nutcracker ( Complete Ballet ) - Swan Lake ( Suite ) - Abravanel - CD 2\CD\07 No. 7 Mirlitons.wav

Peak level 55.4 %
Extraction speed 3.6 X
Track quality 99.9 %
Test CRC E30F44F5
Copy CRC E30F44F5
Cannot be verified as accurate (confidence 1) [25B267A2], AccurateRip returned [1C73B02A] (AR v2)
Copy OK

Track 8

Filename E:\MUSIC\My Music\Tchaikovsky - The Nutcrracker\Tchaikovsky - The Nutcracker ( Complete Ballet ) - Swan Lake ( Suite ) - Abravanel - CD 2\CD\08 No. 8 Mother Gigone, Tumblers.wav

Peak level 76.4 %
Extraction speed 5.6 X
Track quality 100.0 %
Test CRC 703F2BB0
Copy CRC 703F2BB0
Cannot be verified as accurate (confidence 1) [9ADDD46F], AccurateRip returned [F22DF6DF] (AR v2)
Copy OK

Track 9

Filename E:\MUSIC\My Music\Tchaikovsky - The Nutcrracker\Tchaikovsky - The Nutcracker ( Complete Ballet ) - Swan Lake ( Suite ) - Abravanel - CD 2\CD\09 No. 9 Waltz of the Flowers.wav

Peak level 90.8 %
Extraction speed 6.7 X
Track quality 100.0 %
Test CRC E29DD8F5
Copy CRC E29DD8F5
Cannot be verified as accurate (confidence 1) [CDDA8EFA], AccurateRip returned [EC5092A5] (AR v2)
Copy OK

Track 10

Filename E:\MUSIC\My Music\Tchaikovsky - The Nutcrracker\Tchaikovsky - The Nutcracker ( Complete Ballet ) - Swan Lake ( Suite ) - Abravanel - CD 2\CD\10 No. 10 Pas de deux.wav

Peak level 100.0 %
Extraction speed 6.9 X
Track quality 100.0 %
Test CRC 073A0451
Copy CRC 073A0451
Cannot be verified as accurate (confidence 1) [20B93158], AccurateRip returned [750CED95] (AR v2)
Copy OK

Track 11

Filename E:\MUSIC\My Music\Tchaikovsky - The Nutcrracker\Tchaikovsky - The Nutcracker ( Complete Ballet ) - Swan Lake ( Suite ) - Abravanel - CD 2\CD\11 No. 11 Tarantella.wav

Peak level 81.0 %
Extraction speed 4.0 X
Track quality 100.0 %
Test CRC 1CF965A8
Copy CRC 1CF965A8
Cannot be verified as accurate (confidence 1) [2FA99398], AccurateRip returned [6E64F83B] (AR v2)
Copy OK

Track 12

Filename E:\MUSIC\My Music\Tchaikovsky - The Nutcrracker\Tchaikovsky - The Nutcracker ( Complete Ballet ) - Swan Lake ( Suite ) - Abravanel - CD 2\CD\12 No. 12 Dance of the Sugar Plum Fairy.wav

Peak level 45.8 %
Extraction speed 6.0 X
Track quality 100.0 %
Test CRC 3B2E42D9
Copy CRC 3B2E42D9
Cannot be verified as accurate (confidence 1) [7923D91A], AccurateRip returned [934EA0E1] (AR v2)
Copy OK

Track 13

Filename E:\MUSIC\My Music\Tchaikovsky - The Nutcrracker\Tchaikovsky - The Nutcracker ( Complete Ballet ) - Swan Lake ( Suite ) - Abravanel - CD 2\CD\13 No. 13 Coda.wav

Peak level 90.8 %
Extraction speed 5.4 X
Track quality 100.0 %
Test CRC D8292250
Copy CRC D8292250
Cannot be verified as accurate (confidence 1) [E1DF0D91], AccurateRip returned [BC94FBD2] (AR v2)
Copy OK

Track 14

Filename E:\MUSIC\My Music\Tchaikovsky - The Nutcrracker\Tchaikovsky - The Nutcracker ( Complete Ballet ) - Swan Lake ( Suite ) - Abravanel - CD 2\CD\14 No. 14 Final Waltz and Apotheosis.wav

Peak level 87.0 %
Extraction speed 7.5 X
Track quality 100.0 %
Test CRC 40409F9B
Copy CRC 40409F9B
Cannot be verified as accurate (confidence 1) [1A27EEDF], AccurateRip returned [4EDF9419] (AR v2)
Copy OK

Track 15

Filename E:\MUSIC\My Music\Tchaikovsky - The Nutcrracker\Tchaikovsky - The Nutcracker ( Complete Ballet ) - Swan Lake ( Suite ) - Abravanel - CD 2\CD\15 No. 15 Scene.wav

Peak level 86.5 %
Extraction speed 7.0 X
Track quality 100.0 %
Test CRC FC5BF5F9
Copy CRC FC5BF5F9
Cannot be verified as accurate (confidence 1) [71E12944], AccurateRip returned [28EE6383] (AR v2)
Copy OK

Track 16

Filename E:\MUSIC\My Music\Tchaikovsky - The Nutcrracker\Tchaikovsky - The Nutcracker ( Complete Ballet ) - Swan Lake ( Suite ) - Abravanel - CD 2\CD\16 No. 16 Waltz.wav

Peak level 97.2 %
Extraction speed 8.3 X
Track quality 100.0 %
Test CRC EC4A8A38
Copy CRC EC4A8A38
Cannot be verified as accurate (confidence 1) [084E47C5], AccurateRip returned [716DCE55] (AR v2)
Copy OK

Track 17

Filename E:\MUSIC\My Music\Tchaikovsky - The Nutcrracker\Tchaikovsky - The Nutcracker ( Complete Ballet ) - Swan Lake ( Suite ) - Abravanel - CD 2\CD\17 No. 17 Dance of the Swans, IV.wav

Peak level 97.7 %
Extraction speed 4.0 X
Track quality 99.8 %
Test CRC CA3DA65C
Copy CRC CA3DA65C
Cannot be verified as accurate (confidence 1) [3B3A17D1], AccurateRip returned [58C565D4] (AR v2)
Copy OK

Track 18

Filename E:\MUSIC\My Music\Tchaikovsky - The Nutcrracker\Tchaikovsky - The Nutcracker ( Complete Ballet ) - Swan Lake ( Suite ) - Abravanel - CD 2\CD\18 No. 18 Dances of the Swans, V.wav

Peak level 90.3 %
Extraction speed 8.8 X
Track quality 100.0 %
Test CRC CAAA2BFE
Copy CRC CAAA2BFE
Cannot be verified as accurate (confidence 1) [29440282], AccurateRip returned [06744F42] (AR v2)
Copy OK

Track 19

Filename E:\MUSIC\My Music\Tchaikovsky - The Nutcrracker\Tchaikovsky - The Nutcracker ( Complete Ballet ) - Swan Lake ( Suite ) - Abravanel - CD 2\CD\19 No. 19 Spanish Dance.wav

Peak level 99.1 %
Extraction speed 7.9 X
Track quality 100.0 %
Test CRC 286ECA6E
Copy CRC 286ECA6E
Cannot be verified as accurate (confidence 1) [75D9C5FE], AccurateRip returned [FA14AA56] (AR v2)
Copy OK

Track 20

Filename E:\MUSIC\My Music\Tchaikovsky - The Nutcrracker\Tchaikovsky - The Nutcracker ( Complete Ballet ) - Swan Lake ( Suite ) - Abravanel - CD 2\CD\20 No. 20 Mazurka.wav

Peak level 95.7 %
Extraction speed 8.5 X
Track quality 100.0 %
Test CRC 9B59399B
Copy CRC 9B59399B
Cannot be verified as accurate (confidence 1) [A75CADC2], AccurateRip returned [E19A7FC0] (AR v2)
Copy OK

Track 21

Filename E:\MUSIC\My Music\Tchaikovsky - The Nutcrracker\Tchaikovsky - The Nutcracker ( Complete Ballet ) - Swan Lake ( Suite ) - Abravanel - CD 2\CD\21 No. 21 Final Scene.wav

Peak level 96.3 %
Extraction speed 8.6 X
Track quality 100.0 %
Test CRC 71E51843
Copy CRC 71E51843
Cannot be verified as accurate (confidence 1) [8CDA7428], AccurateRip returned [A7BF57D2] (AR v2)
Copy OK


No tracks could be verified as accurate
You may have a different pressing from the one(s) in the database

No errors occurred

End of status report

==== Log checksum 76351DEB54CE2FEC5641662CDD52E800511A2498FD4F012CB3AE7458DFEC54EE ====