Subcategories

Elizabeth Wallfisch & The Wallfisch Band - Telemann: Complete Violin Concertos, Vol. 6 (2016)

Posted By: SERTiL
Elizabeth Wallfisch & The Wallfisch Band - Telemann: Complete Violin Concertos, Vol. 6 (2016)

Elizabeth Wallfisch & The Wallfisch Band - Telemann: Complete Violin Concertos, Vol. 6
Classical | WEB FLAC (tracks) & d. booklet | 62:07 min | 367 MB
Label: CPO | Tracks: 20 | Rls.date: 2016

This group of hybrid compositions situated between the French overture and the Italian concerto represents a unique case in the music history of the eighteenth century; no other composer from this period set this type of concertante violin music with the rich designs and wealth of ideas found in Telemann.

Wallfisch plays the two opening three-movement concertos with characteristic flair and verve, supported by the Wallfisch Band. Performance **** Recording **** –BBC Music Magazine, Oct'16

TRACKLIST
01. Sonata à 4 in B-Flat Major, TWV 40:200: I. Affettuoso
02. Sonata à 4 in B-Flat Major, TWV 40:200: II. Allegro
03. Sonata à 4 in B-Flat Major, TWV 40:200: III. Vivace
04. Violin Concerto in A Minor, TWV 51:a1: I. Adagio
05. Violin Concerto in A Minor, TWV 51:a1: II. Allegro
06. Violin Concerto in A Minor, TWV 51:a1: III. Presto
07. Overture-Suite in F Major, TWV 55:F13: I. Ouverture
08. Overture-Suite in F Major, TWV 55:F13: II. Réjouissance
09. Overture-Suite in F Major, TWV 55:F13: III. Passepied
10. Overture-Suite in F Major, TWV 55:F13: IV. Allemande
11. Overture-Suite in F Major, TWV 55:F13: V. Courante
12. Overture-Suite in F Major, TWV 55:F13: VI. Menuets I & II
13. Overture-Suite in F Major, TWV 55:F13: VII. Gigue
14. Overture-Suite in B Minor, TWV 55:H4: I. Ouverture
15. Overture-Suite in B Minor, TWV 55:H4: II. Gavotte
16. Overture-Suite in B Minor, TWV 55:H4: III. Loure
17. Overture-Suite in B Minor, TWV 55:H4: IV. Réjouissance. Très viste
18. Overture-Suite in B Minor, TWV 55:H4: V. La bravoure
19. Overture-Suite in B Minor, TWV 55:H4: VI. Menuets I & II
20. Overture-Suite in B Minor, TWV 55:H4: VII. Rodomontate

PERFORMER: auCDtect Task Manager, ver. 1.6.0 RC1 build 1.6.0.1
Copyright © 2008-2010 y-soft. All rights reserved

ANALYZER: auCDtect: CD records authenticity detector, version 0.8.2
Copyright © 2004 Oleg Berngardt. All rights reserved.
Copyright © 2004 Alexander Djourik. All rights reserved.


FILE: 20. Overture-Suite in B Minor, TWV 55H4 VII. Rodomontate.flac
Size: 15157378 Hash: 20847DF636EDD72B54CF89647E0EA622 Accuracy: -m0
Conclusion: CDDA 100%
Signature: 19BDCE8D4898A96FAB33BA3C0C2564219185E1AD
FILE: 19. Overture-Suite in B Minor, TWV 55H4 VI. Menuets I & II.flac
Size: 18952693 Hash: 77C400B208737BAF7FE587AE4AD51571 Accuracy: -m0
Conclusion: CDDA 85%
Signature: 4EE120A437B61A853A85EF2D10C552D9A2E45494
FILE: 18. Overture-Suite in B Minor, TWV 55H4 V. La bravoure.flac
Size: 17877931 Hash: C6D3B49B0A013D1787CDF1D74C742411 Accuracy: -m0
Conclusion: CDDA 100%
Signature: 6FDA19CA1CFD27310988E321C3C13E2D61FB99E7
FILE: 17. Overture-Suite in B Minor, TWV 55H4 IV. Réjouissance. Très viste.flac
Size: 16162173 Hash: 11880964E7C83172FA2E7FD7D2505050 Accuracy: -m0
Conclusion: CDDA 100%
Signature: 5803A00EFD44F8DD37818910AD9ACBAAA67D4044
FILE: 16. Overture-Suite in B Minor, TWV 55H4 III. Loure.flac
Size: 9656525 Hash: B6EA728518915D1AD4350204E5D4F8DE Accuracy: -m0
Conclusion: CDDA 100%
Signature: 77D943CD960B9F0BE3035F43B6E01BFD3289432C
FILE: 15. Overture-Suite in B Minor, TWV 55H4 II. Gavotte.flac
Size: 15939093 Hash: 0AD80AD0E88E6FF649FC13689DFB186D Accuracy: -m0
Conclusion: CDDA 100%
Signature: 35CF37A8A099372BDE74C6FF1163F28960C70D88
FILE: 14. Overture-Suite in B Minor, TWV 55H4 I. Ouverture.flac
Size: 31655303 Hash: 9130443355794AC5989ACCFD4AA89111 Accuracy: -m0
Conclusion: CDDA 100%
Signature: 158155258810C03DFBBD7F77F0F49AF06C058644
FILE: 13. Overture-Suite in F Major, TWV 55F13 VII. Gigue.flac
Size: 15853713 Hash: DD4E5CA2271D2BF35FB924B65B9DB1CA Accuracy: -m0
Conclusion: CDDA 100%
Signature: 7D59DDC9D4BCC05039FC04142AA7C0ECD226881F
FILE: 12. Overture-Suite in F Major, TWV 55F13 VI. Menuets I & II.flac
Size: 19211930 Hash: B2F4FA6DAAA4B22A12AFA7549620EF09 Accuracy: -m0
Conclusion: CDDA 62%
Signature: AFB317E320324C478AE7DD4F7F2DB29080000205
FILE: 11. Overture-Suite in F Major, TWV 55F13 V. Courante.flac
Size: 12241822 Hash: 2709AEB37FB5EE55981A696772575526 Accuracy: -m0
Conclusion: CDDA 100%
Signature: 8DBA5CEF67DF7CE41C2565F24C471983DE81E434
FILE: 10. Overture-Suite in F Major, TWV 55F13 IV. Allemande.flac
Size: 15323457 Hash: 826B4E2C6697ABD5CABB408BDA1DE581 Accuracy: -m0
Conclusion: CDDA 100%
Signature: A3048A3E309669072726BD75EA35CF224B799105
FILE: 09. Overture-Suite in F Major, TWV 55F13 III. Passepied.flac
Size: 23885679 Hash: 774AAACC5BF94D0B4791B9D972F900E3 Accuracy: -m0
Conclusion: CDDA 100%
Signature: 1E96C4F4F3E386804DF2D2E71789A1DEF5FEE649
FILE: 08. Overture-Suite in F Major, TWV 55F13 II. Réjouissance.flac
Size: 20113649 Hash: CC1A9895839A7D49B598C1303315BC30 Accuracy: -m0
Conclusion: CDDA 100%
Signature: 30BA4593EF3A5B4275614FE279AB45FBA091303D
FILE: 07. Overture-Suite in F Major, TWV 55F13 I. Ouverture.flac
Size: 36853080 Hash: 47EC4724A31F3854BF2968759AEF9F9F Accuracy: -m0
Conclusion: CDDA 100%
Signature: 9F65BDB83DC8987CE80C8C1503B4A1D86CAD9E43
FILE: 06. Violin Concerto in A Minor, TWV 51a1 III. Presto.flac
Size: 9862090 Hash: 91EB4518D851CCFD4444D232E1B8074D Accuracy: -m0
Conclusion: CDDA 100%
Signature: 9243F37B847B1ABD42EBE42EC12884DE2A53F346
FILE: 05. Violin Concerto in A Minor, TWV 51a1 II. Allegro.flac
Size: 12728168 Hash: F41F92A6C56A391E575B7C99785A1FF6 Accuracy: -m0
Conclusion: CDDA 100%
Signature: A2F7DAAC5781533093E73D9C107EAEDBA6181C40
FILE: 04. Violin Concerto in A Minor, TWV 51a1 I. Adagio.flac
Size: 19252876 Hash: DACF53F129588A1E9C636BF9FCA9FA9C Accuracy: -m0
Conclusion: CDDA 100%
Signature: ACAFC19983247E3A444EE2F8F621BF027A7FD094
FILE: 03. Sonata à 4 in B-Flat Major, TWV 40200 III. Vivace.flac
Size: 17606204 Hash: C37CB483736610668911C069785D5821 Accuracy: -m0
Conclusion: CDDA 100%
Signature: 1B92F0A63E32E823C96C74EFEF5F3FFAA1B9B4AD
FILE: 02. Sonata à 4 in B-Flat Major, TWV 40200 II. Allegro.flac
Size: 16846955 Hash: BCD23FB2950662320A4C52606D301FE5 Accuracy: -m0
Conclusion: CDDA 100%
Signature: DBF27AE2301A33AC489AF2BFB63BF604C083B2C4
FILE: 01. Sonata à 4 in B-Flat Major, TWV 40200 I. Affettuoso.flac
Size: 9844211 Hash: E1D4F88C18DBE5713C9A9868A77BE5B4 Accuracy: -m0
Conclusion: CDDA 100%
Signature: 340AA0E61DD21A09A690FF67E27BADCBC99E006B

foobar2000 1.3.7 / Dynamic Range Meter 1.1.1
log date: 2017-10-11 12:08:00

––––––––––––––––––––––––––––––––––––––––
Analyzed: Elizabeth Wallfisch, The Wallfisch Band / Telemann: Complete Violin Concertos, Vol. 6
––––––––––––––––––––––––––––––––––––––––

DR Peak RMS Duration Track
––––––––––––––––––––––––––––––––––––––––
DR11 -6.41 dB -21.07 dB 1:43 01-Sonata à 4 in B-Flat Major, TWV 40:200: I. Affettuoso
DR13 -4.77 dB -21.30 dB 2:58 02-Sonata à 4 in B-Flat Major, TWV 40:200: II. Allegro
DR13 -0.50 dB -18.40 dB 2:55 03-Sonata à 4 in B-Flat Major, TWV 40:200: III. Vivace
DR13 -7.90 dB -24.56 dB 3:37 04-Violin Concerto in A Minor, TWV 51:a1: I. Adagio
DR14 -5.09 dB -22.86 dB 2:12 05-Violin Concerto in A Minor, TWV 51:a1: II. Allegro
DR14 -4.47 dB -22.52 dB 1:43 06-Violin Concerto in A Minor, TWV 51:a1: III. Presto
DR13 -4.75 dB -21.16 dB 6:07 07-Overture-Suite in F Major, TWV 55:F13: I. Ouverture
DR15 -4.07 dB -23.29 dB 3:30 08-Overture-Suite in F Major, TWV 55:F13: II. Réjouissance
DR14 -7.67 dB -25.96 dB 4:35 09-Overture-Suite in F Major, TWV 55:F13: III. Passepied
DR15 -6.10 dB -24.64 dB 2:45 10-Overture-Suite in F Major, TWV 55:F13: IV. Allemande
DR13 -6.62 dB -23.85 dB 2:06 11-Overture-Suite in F Major, TWV 55:F13: V. Courante
DR16 -6.00 dB -25.59 dB 3:44 12-Overture-Suite in F Major, TWV 55:F13: VI. Menuets I & II
DR15 -5.48 dB -24.27 dB 2:50 13-Overture-Suite in F Major, TWV 55:F13: VII. Gigue
DR14 -4.36 dB -20.31 dB 5:15 14-Overture-Suite in B Minor, TWV 55:H4: I. Ouverture
DR14 -6.20 dB -22.66 dB 2:51 15-Overture-Suite in B Minor, TWV 55:H4: II. Gavotte
DR16 -5.02 dB -24.49 dB 1:48 16-Overture-Suite in B Minor, TWV 55:H4: III. Loure
DR14 -4.76 dB -22.05 dB 2:42 17-Overture-Suite in B Minor, TWV 55:H4: IV. Réjouissance. Très viste
DR14 -3.67 dB -19.57 dB 2:50 18-Overture-Suite in B Minor, TWV 55:H4: V. La bravoure
DR14 -4.81 dB -23.94 dB 3:34 19-Overture-Suite in B Minor, TWV 55:H4: VI. Menuets I & II
DR14 -2.30 dB -21.01 dB 2:31 20-Overture-Suite in B Minor, TWV 55:H4: VII. Rodomontate
––––––––––––––––––––––––––––––––––––––––

Number of tracks: 20
Official DR value: DR14

Samplerate: 44100 Hz
Channels: 2
Bits per sample: 16
Bitrate: 781 kbps
Codec: FLAC
================================================================================


Elizabeth Wallfisch & The Wallfisch Band - Telemann: Complete Violin Concertos, Vol. 6 (2016)


Thanks to the Original customer.