Tags
Language
Tags

The Black Crowes - The Lost Crowes (2006) Repost

Posted By: v3122
The Black Crowes - The Lost Crowes (2006) Repost

The Black Crowes - The Lost Crowes (2006)
EAC | Flac(Image) + Cue + Log & MP3 CBR 320Kbps
2CD | American, 8122 79537 2 | ~ 829 or 271 Mb | Scans(jpg) -> 36 Mb
Blues Rock, Rock & Roll, Southern Rock

The Lost Crowes is right – only hardcore fans will know of the music on this two-CD set, and even then, chances are they haven't heard it. And it's not like this is an odds-n-sods collection of outtakes and B-sides, either: The Lost Crowes contains two complete unreleased albums called Tall and Band, recorded in 1993 and 1997, respectively, but in the vaults until now. They're interesting companion pieces, too, since they not only have different feels but were shelved for different reasons. Tall metamorphosed into the sprawling 1994 masterpiece Amorica, with a handful of its songs popping up elsewhere, including 1996's Three Snakes and One Charm; Band was simply left behind as the group moved on to By Your Side. Not surprisingly, Tall sounds like a rough draft of Amorica; a lot of the ideas are in place, along with such Crowes classics as "A Conspiracy," "Wiser Time," "Nonfiction," and "Cursed Diamond," but the sound isn't as full-bodied, nor is the band as wooly. This means Tall isn't as rich or robust as Amorica, but it's sure interesting to hear the roots of that album, and the previously unheard songs from these sessions – such as the dirty funk of "Tied Up and Swallowed," the lazy hillbilly roll of "Thunderstorm 6:54," and the sweet acoustic "Tornado" – fit into the cross-stitched fabric of Amorica quite well. There's a seed of a great album in Tall and the Crowes found that seed and made it grow for Amorica; this may not be as good – and it's understandable why it was reworked – but it's certainly worthwhile for any fan to hear.

If Tall did indeed need some reworking before it was released to the general public, it's a mystery why the band didn't release Band as is in 1997. Sonically falling halfway between the ragged Amorica and the hard-edged Three Snakes, this is a great Crowes album showcasing their skills as songwriters and as a loose yet muscular jam band. On the fringes of this album there is some country and the band does stretch out to improvise, but it never feels aimless, because there is an immediacy to the performances and because there are some terrific songs that center the album in a way that was lacking on Three Snakes. There is a hard-driving R&B and soul vibe here, ranging from the churning down-home funk of "Another Roadside Tragedy" and "Never Forget This Song" to the relaxed Faces-styled groove of "If It Ever Stops Raining," which is complemented by the few country flourishes, such as the mandolins on "Lifevest" or the high lonesome fiddles of "My Heart's Killing Me." This is the Black Crowes at their best, turning out classicist rock that flows so natural and easy it feels like these songs have always existed. It would have been great to have Band out in 1997, but having it arrive about ten years later only emphasizes how classic the Crowes sound at their peak, since it doesn't sound like a revival: it sounds like part of a tradition. And thankfully that tradition now contains these two albums, which do rank among the more interesting (Tall) and best (Band) records they've ever done.

by Stephen Thomas Erlewine, allmusic
The Black Crowes - The Lost Crowes (2006) Repost

The Black Crowes - The Lost Crowes (2006):

The Black Crowes - The Lost Crowes (2006) Repost

Tracklist CD1 - The Band Sessions:

1. Paint an 8 (Portions of this song were worked into "Come On" from "Lions")
2. Another Roadside Tragedy
3. If It Ever Stops Raining (Later re-recorded and released as "By Your Side" on the album of the same name)
4. Wyoming & Me (Evolved into "Welcome to the Goodtimes" on "By Your Side")
5. Predictable
6. Never Forget This Song
7. Lifevest
8. Grinnin
9. My Heart's Killing Me
10. Peace Anyway (Re-recorded and released as a B-side for "By Your Side")

Exact Audio Copy V1.0 beta 3 from 29. August 2011

EAC extraction logfile from 29. April 2012, 13:07

The Black Crowes / The Lost Crowes: The Band Sessions

Used drive : Optiarc DVD-ROM DDU1675S Adapter: 3 ID: 0

Read mode : Secure
Utilize accurate stream : Yes
Defeat audio cache : Yes
Make use of C2 pointers : No

Read offset correction : 6
Overread into Lead-In and Lead-Out : No
Fill up missing offset samples with silence : Yes
Delete leading and trailing silent blocks : No
Null samples used in CRC calculations : Yes
Used interface : Native Win32 interface for Win NT & 2000

Used output format : User Defined Encoder
Selected bitrate : 1024 kBit/s
Quality : High
Add ID3 tag : No
Command line compressor : C:\Program Files (x86)\Exact Audio Copy\Flac\flac.exe
Additional command line options : -V -8 -T "Date=%year%" -T "Genre=%genre%" %source%


TOC of the extracted CD

Track | Start | Length | Start sector | End sector
––––––––––––––––––––––––––––-
1 | 0:00.00 | 3:05.20 | 0 | 13894
2 | 3:05.20 | 5:31.33 | 13895 | 38752
3 | 8:36.53 | 4:45.45 | 38753 | 60172
4 | 13:22.23 | 4:15.69 | 60173 | 79366
5 | 17:38.17 | 3:14.58 | 79367 | 93974
6 | 20:53.00 | 3:43.13 | 93975 | 110712
7 | 24:36.13 | 3:19.02 | 110713 | 125639
8 | 27:55.15 | 3:16.28 | 125640 | 140367
9 | 31:11.43 | 5:06.46 | 140368 | 163363
10 | 36:18.14 | 4:01.58 | 163364 | 181496


Range status and errors

Selected range

Filename F:\Torrent\# MY\The Black Crowes - Дискография (1990-2010)\2006 - The Lost Crowes\CD-1 (The Band Sessions)\The Black Crowes - The Lost Crowes (CD-1).wav

Peak level 100.0 %
Extraction speed 7.4 X
Range quality 99.9 %
Test CRC 2D217987
Copy CRC 2D217987
Copy OK

No errors occurred


AccurateRip summary

Track 1 cannot be verified as accurate (confidence 26) [9216C64F], AccurateRip returned [A4E41879] (AR v2)
Track 2 cannot be verified as accurate (confidence 26) [8CFCA3B5], AccurateRip returned [54918922] (AR v2)
Track 3 cannot be verified as accurate (confidence 25) [9D2CA868], AccurateRip returned [F6AB2921] (AR v2)
Track 4 cannot be verified as accurate (confidence 26) [03BE5BAC], AccurateRip returned [7BAD20B1] (AR v2)
Track 5 cannot be verified as accurate (confidence 25) [07A36DC3], AccurateRip returned [3F9FA3F9] (AR v2)
Track 6 cannot be verified as accurate (confidence 24) [55EB47CC], AccurateRip returned [105164E6] (AR v2)
Track 7 cannot be verified as accurate (confidence 26) [9EF6D23F], AccurateRip returned [B5F98E25] (AR v2)
Track 8 cannot be verified as accurate (confidence 25) [BC6E38AA], AccurateRip returned [5BADC7E0] (AR v2)
Track 9 cannot be verified as accurate (confidence 25) [DFBB25E1], AccurateRip returned [FC7B123A] (AR v2)
Track 10 cannot be verified as accurate (confidence 25) [CF580319], AccurateRip returned [8F8FFB33] (AR v2)

No tracks could be verified as accurate
You may have a different pressing from the one(s) in the database

End of status report

==== Log checksum 2642A2F4B35D9D3C2E98E7411BB490615B9F395B38DDF572D8BA831087E69317 ====


[CUETools log; Date: 09.03.2018 15:12:07; Version: 2.1.5]
[CTDB TOCID: OqDnckOEJIpv0BILrN4fW6sX8aY-] found.
Track | CTDB Status
1 | (102/103) Accurately ripped
2 | (101/103) Accurately ripped
3 | (102/103) Accurately ripped
4 | (102/103) Accurately ripped
5 | (102/103) Accurately ripped
6 | (102/103) Accurately ripped
7 | (102/103) Accurately ripped
8 | (102/103) Accurately ripped
9 | (102/103) Accurately ripped
10 | (101/103) Accurately ripped
[AccurateRip ID: 000f6081-007a5c0d-8709730a] found.
Track [ CRC | V2 ] Status
01 [788823c4|9216c64f] (002+003/126) Accurately ripped
02 [5b39d224|8cfca3b5] (002+003/126) Accurately ripped
03 [a845de02|9d2ca868] (002+003/127) Accurately ripped
04 [492e7b07|03be5bac] (002+003/126) Accurately ripped
05 [21d704db|07a36dc3] (002+003/125) Accurately ripped
06 [ff98201d|55eb47cc] (002+003/123) Accurately ripped
07 [59e873ed|9ef6d23f] (002+003/126) Accurately ripped
08 [8f56417e|bc6e38aa] (002+003/125) Accurately ripped
09 [0a247315|dfbb25e1] (002+003/124) Accurately ripped
10 [7e07cfeb|cf580319] (002+003/125) Accurately ripped
Offsetted by 664:
01 [6568b3ae] (022/126) Accurately ripped
02 [78ab3af0] (022/126) Accurately ripped
03 [060d4ced] (022/127) Accurately ripped
04 [ec4fa9dc] (022/126) Accurately ripped
05 [d8f00596] (022/125) Accurately ripped
06 [db166f3c] (022/123) Accurately ripped
07 [6b3fbd08] (022/126) Accurately ripped
08 [14b4ae92] (022/125) Accurately ripped
09 [a5e82d96] (022/124) Accurately ripped
10 [dfa6bf07] (022/125) Accurately ripped
Offsetted by 1322:
01 [a4e41879] (026/126) Accurately ripped
02 [54918922] (026/126) Accurately ripped
03 [f6ab2921] (025/127) Accurately ripped
04 [7bad20b1] (026/126) Accurately ripped
05 [3f9fa3f9] (025/125) Accurately ripped
06 [105164e6] (024/123) Accurately ripped
07 [b5f98e25] (026/126) Accurately ripped
08 [5badc7e0] (025/125) Accurately ripped
09 [fc7b123a] (025/124) Accurately ripped
10 [8f8ffb33] (025/125) Accurately ripped
Offsetted by 1328:
01 [dbe661fc] (007/126) Accurately ripped
02 [1b8152c6] (007/126) Accurately ripped
03 [5767bf09] (007/127) Accurately ripped
04 [040ca6dc] (007/126) Accurately ripped
05 [1d0ac9f9] (007/125) Accurately ripped
06 [6d0de811] (007/123) Accurately ripped
07 [8d2dbf95] (007/126) Accurately ripped
08 [17a87f62] (007/125) Accurately ripped
09 [48370308] (006/124) Accurately ripped
10 [fdd436d4] (007/125) Accurately ripped

Track Peak [ CRC32 ] [W/O NULL] [ LOG ]
– 100,0 [2D217987] [378AB6BA] CRC32
01 98,9 [57853A42] [7465F7D3]
02 98,9 [13D5DC22] [B4BBD300]
03 98,9 [B5FC3DCE] [60C422FF]
04 98,9 [7BF4226B] [F4712E34]
05 98,9 [245DF0AE] [34BB6889]
06 98,9 [8833E811] [42E9DE53]
07 98,9 [249561D0] [B3A98F23]
08 98,9 [D2DA3EDD] [03A5C586]
09 98,9 [39927738] [DF01DC0B]
10 100,0 [2183DEC4] [4727C571]


The Black Crowes - The Lost Crowes (2006) Repost

Tracklist CD2 - The Tall Sessions:

1. A Conspiracy (Later re-recorded for and released on "Amorica")
2. Evil Eye (Later re-recorded for and released on "Three Snakes And One Charm")
3. Cursed Diamond (Later re-recorded for and released on "Amorica")
4. London P.25 (Later re-recorded for and released as "P. 25 London" on "Amorica")
5. Dirty Hair Halo
6. Hi-Head Blues (Later re-recorded for and released as "High Head Blues" on "Amorica")
7. Feathers
8. Nonfiction (Later re-recorded for and released on "Amorica")
9. Tied Up And Swallowed (Bonus track on early editions on "Amorica")
10. Wiser Time (Later re-recorded for and released on "Amorica")
11. Sunday Buttermilk Waltz (Formerly released as "Sunday Night Buttermilk Waltz" as a bonus track on the remastered version of "Amorica", this is a new mix)
12. Descending (Later re-recorded for and released on "Amorica")
13. Lowdown (Later re-recorded for and released as "Ballad In Urgency" on "Amorica")
14. Tornado
15. Song Of The Flesh (Formerly released as a bonus track on the remastered version of "Amorica", this is a new mix)
16. Thunderstorm 6:54

Exact Audio Copy V1.0 beta 3 from 29. August 2011

EAC extraction logfile from 29. April 2012, 12:52

The Black Crowes / The Lost Crowes: The Tall Sessions

Used drive : Optiarc DVD-ROM DDU1675S Adapter: 3 ID: 0

Read mode : Secure
Utilize accurate stream : Yes
Defeat audio cache : Yes
Make use of C2 pointers : No

Read offset correction : 6
Overread into Lead-In and Lead-Out : No
Fill up missing offset samples with silence : Yes
Delete leading and trailing silent blocks : No
Null samples used in CRC calculations : Yes
Used interface : Native Win32 interface for Win NT & 2000

Used output format : User Defined Encoder
Selected bitrate : 1024 kBit/s
Quality : High
Add ID3 tag : No
Command line compressor : C:\Program Files (x86)\Exact Audio Copy\Flac\flac.exe
Additional command line options : -V -8 -T "Date=%year%" -T "Genre=%genre%" %source%


TOC of the extracted CD

Track | Start | Length | Start sector | End sector
––––––––––––––––––––––––––––-
1 | 0:00.00 | 4:39.70 | 0 | 20994
2 | 4:39.70 | 4:26.69 | 20995 | 41013
3 | 9:06.64 | 5:45.51 | 41014 | 66939
4 | 14:52.40 | 3:33.51 | 66940 | 82965
5 | 18:26.16 | 4:51.27 | 82966 | 104817
6 | 23:17.43 | 4:20.65 | 104818 | 124382
7 | 27:38.33 | 6:41.00 | 124383 | 154457
8 | 34:19.33 | 4:13.66 | 154458 | 173498
9 | 38:33.24 | 4:19.70 | 173499 | 192993
10 | 42:53.19 | 6:17.51 | 192994 | 221319
11 | 49:10.70 | 2:30.12 | 221320 | 232581
12 | 51:41.07 | 5:25.61 | 232582 | 257017
13 | 57:06.68 | 4:51.63 | 257018 | 278905
14 | 61:58.56 | 2:41.07 | 278906 | 290987
15 | 64:39.63 | 3:44.19 | 290988 | 307806
16 | 68:24.07 | 4:03.66 | 307807 | 326097


Range status and errors

Selected range

Filename F:\Torrent\# MY\The Black Crowes - Дискография (1990-2010)\2006 - The Lost Crowes\CD-2 (The Tall Sessions)\The Black Crowes - The Lost Crowes (CD-2).wav

Peak level 100.0 %
Extraction speed 9.6 X
Range quality 100.0 %
Test CRC A2D8F15D
Copy CRC A2D8F15D
Copy OK

No errors occurred


AccurateRip summary

Track 1 cannot be verified as accurate (confidence 23) [D6943E84], AccurateRip returned [6797D441] (AR v2)
Track 2 cannot be verified as accurate (confidence 22) [96CCBBDA], AccurateRip returned [D68FBCB0] (AR v2)
Track 3 cannot be verified as accurate (confidence 23) [BAB98378], AccurateRip returned [9039EF91] (AR v2)
Track 4 cannot be verified as accurate (confidence 23) [1B687C79], AccurateRip returned [5CA28CD0] (AR v2)
Track 5 cannot be verified as accurate (confidence 23) [00044E21], AccurateRip returned [09F4ADEA] (AR v2)
Track 6 cannot be verified as accurate (confidence 23) [AD2687BD], AccurateRip returned [A20ACC80] (AR v2)
Track 7 cannot be verified as accurate (confidence 23) [EA659E10], AccurateRip returned [F0E31393] (AR v2)
Track 8 cannot be verified as accurate (confidence 23) [9B593499], AccurateRip returned [0E2477A4] (AR v2)
Track 9 cannot be verified as accurate (confidence 23) [261A1711], AccurateRip returned [F8F358A5] (AR v2)
Track 10 cannot be verified as accurate (confidence 22) [789D3427], AccurateRip returned [578175B0] (AR v2)
Track 11 cannot be verified as accurate (confidence 23) [511ECD66], AccurateRip returned [CC60A8F5] (AR v2)
Track 12 cannot be verified as accurate (confidence 23) [3358109C], AccurateRip returned [EC59A9D0] (AR v2)
Track 13 cannot be verified as accurate (confidence 23) [6107CF91], AccurateRip returned [D36EE956] (AR v2)
Track 14 cannot be verified as accurate (confidence 23) [CE6B3E57], AccurateRip returned [7985C5F5] (AR v2)
Track 15 cannot be verified as accurate (confidence 23) [782D69F1], AccurateRip returned [354363EA] (AR v2)
Track 16 cannot be verified as accurate (confidence 23) [C3EF712F], AccurateRip returned [76A09B1E] (AR v2)

No tracks could be verified as accurate
You may have a different pressing from the one(s) in the database

End of status report

==== Log checksum AB40AC80E8D1248BC25A1CA08C29156497D7261D3FB7977A93D5B5E57C0FDAF5 ====


[CUETools log; Date: 09.03.2018 15:12:41; Version: 2.1.5]
[CTDB TOCID: rIAW.UsVGEnKIS5ZFFJRv_iiyT0-] found.
Track | CTDB Status
1 | (96/98) Accurately ripped
2 | (97/98) Accurately ripped
3 | (97/98) Accurately ripped
4 | (97/98) Accurately ripped
5 | (97/98) Accurately ripped
6 | (97/98) Accurately ripped
7 | (95/98) Accurately ripped
8 | (97/98) Accurately ripped
9 | (97/98) Accurately ripped
10 | (95/98) Accurately ripped
11 | (96/98) Accurately ripped
12 | (96/98) Accurately ripped
13 | (96/98) Accurately ripped
14 | (96/98) Accurately ripped
15 | (97/98) Accurately ripped
16 | (97/98) Accurately ripped
[AccurateRip ID: 002be572-020c9577-dc10fb10] found.
Track [ CRC | V2 ] Status
01 [66b44189|d6943e84] (002+004/122) Accurately ripped
02 [6afa1ba6|96ccbbda] (002+004/122) Accurately ripped
03 [2e4af829|bab98378] (002+004/123) Accurately ripped
04 [8dbbc4e5|1b687c79] (002+004/123) Accurately ripped
05 [21a6de1a|00044e21] (002+004/125) Accurately ripped
06 [656dfa27|ad2687bd] (002+004/124) Accurately ripped
07 [023acc42|ea659e10] (002+004/126) Accurately ripped
08 [84befcbd|9b593499] (002+004/124) Accurately ripped
09 [75339595|261a1711] (002+004/126) Accurately ripped
10 [5bc69a8c|789d3427] (002+004/123) Accurately ripped
11 [c1323c44|511ecd66] (002+004/126) Accurately ripped
12 [44a44b61|3358109c] (002+004/124) Accurately ripped
13 [64cfa1e8|6107cf91] (002+004/125) Accurately ripped
14 [bc227033|ce6b3e57] (002+004/126) Accurately ripped
15 [0492e02a|782d69f1] (002+004/125) Accurately ripped
16 [77ea0350|c3ef712f] (002+004/125) Accurately ripped
Offsetted by 36:
01 [c6c637ac] (022/122) Accurately ripped
02 [4ecb1916] (022/122) Accurately ripped
03 [785cf590] (022/123) Accurately ripped
04 [3bf3bb27] (022/123) Accurately ripped
05 [cbe2b475] (022/125) Accurately ripped
06 [212125c7] (022/124) Accurately ripped
07 [f0d1e357] (023/126) Accurately ripped
08 [2b744e7d] (022/124) Accurately ripped
09 [f920a0a1] (022/126) Accurately ripped
10 [649179f7] (022/123) Accurately ripped
11 [541108db] (023/126) Accurately ripped
12 [38d6fc90] (022/124) Accurately ripped
13 [c2adf9dc] (023/125) Accurately ripped
14 [b46c5adb] (023/126) Accurately ripped
15 [e32e71e7] (023/125) Accurately ripped
16 [f505bafe] (023/125) Accurately ripped
Offsetted by 694:
01 [6797d441] (023/122) Accurately ripped
02 [d68fbcb0] (022/122) Accurately ripped
03 [9039ef91] (023/123) Accurately ripped
04 [5ca28cd0] (023/123) Accurately ripped
05 [09f4adea] (023/125) Accurately ripped
06 [a20acc80] (023/124) Accurately ripped
07 [f0e31393] (023/126) Accurately ripped
08 [0e2477a4] (023/124) Accurately ripped
09 [f8f358a5] (023/126) Accurately ripped
10 [578175b0] (022/123) Accurately ripped
11 [cc60a8f5] (023/126) Accurately ripped
12 [ec59a9d0] (023/124) Accurately ripped
13 [d36ee956] (023/125) Accurately ripped
14 [7985c5f5] (023/126) Accurately ripped
15 [354363ea] (023/125) Accurately ripped
16 [76a09b1e] (023/125) Accurately ripped
Offsetted by 700:
01 [bcc0373a] (006/122) Accurately ripped
02 [c9dea073] (006/122) Accurately ripped
03 [48ccb620] (006/123) Accurately ripped
04 [48808196] (006/123) Accurately ripped
05 [45e76e88] (006/125) Accurately ripped
06 [14d686a7] (006/124) Accurately ripped
07 [ea7944cb] (006/126) Accurately ripped
08 [79613b9e] (006/124) Accurately ripped
09 [0a75cc5d] (006/126) Accurately ripped
10 [c23378bf] (006/123) Accurately ripped
11 [ef0ccdb1] (006/126) Accurately ripped
12 [e65770ea] (006/124) Accurately ripped
13 [94e4f2cd] (006/125) Accurately ripped
14 [2fc54a11] (006/126) Accurately ripped
15 [a7e97bd6] (006/125) Accurately ripped
16 [64c90b7a] (006/125) Accurately ripped
Offsetted by 524:
01 [51928e3d] (000/122) No match
02 [bd3b0997] (000/122) No match
03 [233911bd] (000/123) No match
04 [7dc3ac9c] (000/123) No match
05 [cf41efb2] (000/125) No match
06 [fce8f179] (000/124) No match
07 [f8094248] (000/126) No match
08 [488f0858] (000/124) No match
09 [adfcf39c] (000/126) No match (V2 was not tested)
10 [639baf1e] (000/123) No match
11 [87e5ed45] (000/126) No match
12 [7a28851c] (000/124) No match
13 [b6de3e06] (000/125) No match
14 [dd2d02a6] (000/126) No match
15 [c41695d4] (000/125) No match
16 [7ff01ee1] (000/125) No match

Track Peak [ CRC32 ] [W/O NULL] [ LOG ]
– 100,0 [A2D8F15D] [CD297399] CRC32
01 98,9 [B2396BFF] [B72005A4]
02 99,1 [3EA5BA3D] [AD1E8316]
03 98,9 [0D21E9BA] [41020808]
04 98,9 [40ED9133] [8A528750]
05 98,9 [C126F90D] [1966D46C]
06 98,9 [199C45AE] [D3D2FC5F]
07 98,9 [51AE41DA] [0076EBF2]
08 98,9 [174D7AD7] [EDF0978F]
09 98,9 [99EBF6FE] [7733C517]
10 98,9 [07B6662E] [9BEAF7E7]
11 98,9 [345DBEE7] [D34618DD]
12 100,0 [755E1D53] [226E1223]
13 98,9 [6D4EFBD2] [6A70488F]
14 86,1 [F998AB4C] [431A9DBE]
15 99,2 [42A124D2] [1B2CC50C]
16 98,9 [DF87F231] [9BCF51A5]


All thanks go to Ginger Devil

The Black Crowes or The Black Crowes in my Blog

Download The Black Crowes - The Lost Crowes (2006):