Tags
Language
Tags

The Budos Band - V (2019)

Posted By: v3122
The Budos Band - V (2019)

The Budos Band - V (2019)
EAC | Flac(Image) + Cue + Log & MP3 CBR 320Kbps
Daptone Records, DAP-057 | ~ 218 or 80 Mb | Artwork(jpg) -> 26 Mb
Funk, Soul, Afrobit

In 2015, Staten Island's Budos Band surprised fans with Burnt Offering; their first non-numbered title, it delivered a shift in musical direction. In addition to their trademarked fusion of Mulatu Astatke-inspired Ethio-jazz, Afrofunk, and hard-swinging R&B, they indulged a collective love for darker, '70s-era hard rock and psychedelia. With V they have fully integrated the latter aesthetic with the former. The hard rock dimension of their musical persona now exists in an unholy balance with the groove elements of their first three recordings. The set also reflects a new Budos reality: Guitarist Thomas Brenneck and baritone saxophonist Jared Tankel relocated to California, and other members became parents. Budos became a bi-coastal outfit whose Thursday night rehearsals and writing sessions were jettisoned in favor of periodic get-togethers when members could travel East. They wrote and tracked V at the same time in their new Diamond Mine recording studio, all within 72 hours. Brenneck took the tapes back with him to L.A. where he and Daptone's Gabriel Roth mixed the 34-minute set.

This fifth outing showcases a more aggressive and inventive Budos Band than the one heard on Burnt Offering. Opener and single "Old Engine Oil" commences with a "Whole Lotta Love"-inspired guitar vamp before cracking snares and kick drums enter alongside horns. The sound is ragged and immediate, charged with energy, fury, and soul. The horn lines marry Muscle Shoals-styled charts to driving hard rock via electric guitars, wah-wah, breakbeat drumming, and a wrangling bassline. "The Enchanter"'s spooky Farfisa organ and fuzzed-out guitar vamp introduce horns that deliver a strolling, punched-up weave of Ethio-jazz and fingerpopping R&B with reverb on stun. "Ghost Talk" is introduced via a nasty, distorted bassline flanked by guitars in one channel and cowbell and snare in the other. When the horns enter, they contribute Afrobeat's meaty fill. A wonky organ solo paired with the bassline swaggers amid excessive reverb and wah-wah effects. "Arcane Rambler" is a collision of vintage psychedelic funk and jazzy adventure. The intersection of horns and breakbeats and loopy analog effects smashes driving metallic rock straight into Afrobeat with a sense of urgent cosmic psychosis. "Maelstrom" – an illustration of Budos' ability to marry ferocious rock dynamics and tripped-out psych with cinematic drama – spikes and flows. "Veil of Shadows," with its droning organ, staccato guitars, and swinging snare evoke acid surf and Spanish-flavored rock as the horns frame Andrew Greene's solo trumpet, calling chaos to the fore from reverbed margins. Closer "Valley of the Damned" is initially fueled by a distorted, fuzz-damaged bass in pure psych freakout before guitars, keys, drums, and horns swirl together all the band's musical styles in an orgiastic sound collision. V is a raucous, incendiary portrait of the band's maturity; it's creative and expertly crafted, an exploratory step further into an unknown that refuses to compromise or forsake its established sonic footprint or identity.

by by Thom Jurek
The Budos Band - V (2019):

The Budos Band - V (2019)

Tracklist:

01. Old Engine Oil 3:11
02. The Enchanter 3:58
03. Spider Web Pt. 1 3:06
04. Peak Of Eternal Night 3:21
05. Ghost Talk 3:34
06. Arcane Rambler 3:30
07. Maelstrom 3:31
08. Veil Of Shadows 4:17
09. Rumble From The Void 0:49
10. Valley Of The Damned 4:28

Musicians:

Brian Profilio: Drums
Daniel Foder: Bass, Synth on "Rumble from the Void"
Thomas Brenneck: Guitar, Tambourine, Synth on "Valley of the Damned"
Michael Deller: Electric Organ
Robert Lombardo: Congas
Jared Tankel: Baritone Saxophone
Andrew Greene, Dave Guy: Trumpets
Rich Terrana: Cowbell


Exact Audio Copy V1.3 from 2. September 2016

Отчёт EAC об извлечении, выполненном 16. апреля 2019, 15:44

The Budos Band / V

Дисковод: ASUS DRW-24B3ST Adapter: 1 ID: 0

Режим чтения : Достоверность
Использование точного потока : Да
Отключение кэша аудио : Да
Использование указателей C2 : Нет

Коррекция смещения при чтении : 6
Способность читать области Lead-in и Lead-out : Нет
Заполнение пропущенных сэмплов тишиной : Да
Удаление блоков с тишиной в начале и конце : Нет
При вычислениях CRC использовались нулевые сэмплы : Да
Интерфейс : Встроенный Win32-интерфейс для Win NT/2000

Выходной формат : Пользовательский кодировщик
Выбранный битрейт : 1024 kBit/s
Качество : Высокий
Добавление ID3-тега : Нет
Утилита сжатия : C:\Program Files (x86)\Exact Audio Copy\Flac\flac.exe
Дополнительные параметры : -V -8 -T "Date=%year%" -T "Genre=%genre%" %source%


TOC извлечённого CD

Трек | Старт | Длительность | Начальный сектор | Конечный сектор
––––––––––––––––––––––––––––––––––-
1 | 0:00.00 | 3:11.16 | 0 | 14340
2 | 3:11.16 | 3:58.25 | 14341 | 32215
3 | 7:09.41 | 3:06.35 | 32216 | 46200
4 | 10:16.01 | 3:21.13 | 46201 | 61288
5 | 13:37.14 | 3:33.73 | 61289 | 77336
6 | 17:11.12 | 3:29.53 | 77337 | 93064
7 | 20:40.65 | 3:30.73 | 93065 | 108887
8 | 24:11.63 | 4:16.41 | 108888 | 128128
9 | 28:28.29 | 0:48.50 | 128129 | 131778
10 | 29:17.04 | 4:27.42 | 131779 | 151845


Характеристики диапазона извлечения и сообщения об ошибках

Выбранный диапазон

Имя файла E:\Torrents-seed\The Budos Band - 2019 - V\The Budos Band - V.wav

Пиковый уровень 97.0 %
Скорость извлечения 7.3 X
Качество диапазона 100.0 %
CRC теста 48A6B3B0
CRC копии 48A6B3B0
Копирование… OK

Ошибок не произошло


AccurateRip: сводка

Трек 1 отсутствует в базе данных
Трек 2 отсутствует в базе данных
Трек 3 отсутствует в базе данных
Трек 4 отсутствует в базе данных
Трек 5 отсутствует в базе данных
Трек 6 отсутствует в базе данных
Трек 7 отсутствует в базе данных
Трек 8 отсутствует в базе данных
Трек 9 отсутствует в базе данных
Трек 10 отсутствует в базе данных

Ни одного трека нет в базе AccurateRip

Конец отчёта

==== Контрольная сумма отчёта 2611C33738A53E14DBCA5B8254835D74D88495AFEA70217235CA89E3199379B7 ====


[CUETools log; Date: 17.04.2019 7:10:09; Version: 2.1.4]
[AccurateRip ID: 000ce523-0066e962-7407e80a] disk not present in database.

Track Peak [ CRC32 ] [W/O NULL] [ LOG ]
– 97,0 [48A6B3B0] [33923292] CRC32
01 96,1 [32E355A1] [3658004C]
02 96,8 [550AFF1C] [484EF76D]
03 96,1 [45B43152] [A4D06395]
04 95,9 [35349163] [238E2C43]
05 96,0 [739935CF] [1D5A7A85]
06 95,9 [C18CEFB8] [356784A1]
07 95,9 [AB0D7CE9] [5231435A]
08 97,0 [73FB49B5] [6B5A013C]
09 86,4 [7EA52144] [332C099F]
10 96,8 [5B2ABEED] [3BD3D1FE]


The Budos Band - V (2019)

All thanks go to Копысов

Download The Budos Band - V (2019):