Tags
Language
Tags

Emerson Lake & Palmer - The Essential Emerson Lake & Palmer (2007)

Posted By: v3122
Emerson Lake & Palmer - The Essential Emerson Lake & Palmer (2007)

Emerson Lake & Palmer - The Essential Emerson Lake & Palmer (2007)
EAC | Flac(Image) + Cue + Log & MP3 CBR 320Kbps
2CD | Shout Factory, 826663-10373 | ~ 1002 or 392 Mb | Scans(jpg) -> 119 Mb
Progressive Rock

Shout! Factory's Essential Emerson, Lake & Palmer retrospective features 28 remastered tracks from the seminal progressive rock trio's '70s heydays. The collection, which was overseen by the band itself, features all of the usual suspects like "Lucky Man," "Still…You Turn Me On" and "Karn Evil 9: 1st Impression, Part 2," as well as deeper cuts such as "Bitches Crystal" and "Medley: Jeremy Bender/The Sheriff," the latter of which is presented live. There is no shortage of ELP overviews on the market, and this is as good (if not a little better) than all of the rest.

by James Christopher Monger, allmusic
Emerson Lake & Palmer - The Essential Emerson Lake & Palmer (2007)


Emerson Lake & Palmer - The Essential Emerson Lake & Palmer (2007):

Emerson Lake & Palmer - The Essential Emerson Lake & Palmer (2007)

Tracklist CD1:

01. The Barbarian 4:33
02. Take a Pebble 12:34
03. Knife-Edge 5:05
04. Tank 6:52
05. Lucky Man 4:40
06. Tarkus 20:40
07. Bitches Crystal 3:57
08. Nutrocker 3:58
09. From The Beginning 4:14
10. Hoedown 3:46
11. Trilogy 8:52

Exact Audio Copy V1.3 from 2. September 2016

EAC extraction logfile from 8. January 2017, 19:52

Emerson Lake & Palmer / The Essential Emerson Lake & Palmer (Disc 1) (826663-10373)

Used drive : PLEXTOR DVDR PX-891SA Adapter: 1 ID: 0

Read mode : Secure
Utilize accurate stream : Yes
Defeat audio cache : Yes
Make use of C2 pointers : No

Read offset correction : 6
Overread into Lead-In and Lead-Out : No
Fill up missing offset samples with silence : Yes
Delete leading and trailing silent blocks : No
Null samples used in CRC calculations : Yes
Used interface : Native Win32 interface for Win NT & 2000

Used output format : User Defined Encoder
Selected bitrate : 128 kBit/s
Quality : High
Add ID3 tag : No
Command line compressor : C:\Program Files (x86)\Exact Audio Copy\Flac\flac.exe
Additional command line options : -V -8 -T "Genre=%genre%" -T "Artist=%artist%" -T "Title=%title%" -T "Album=%albumtitle%" -T "Date=%year%" -T "Tracknumber=%tracknr%" -T "Comment=%comment%" %source%


TOC of the extracted CD

Track | Start | Length | Start sector | End sector
––––––––––––––––––––––––––––-
1 | 0:00.00 | 4:33.14 | 0 | 20488
2 | 4:33.14 | 12:33.67 | 20489 | 77030
3 | 17:07.06 | 5:05.31 | 77031 | 99936
4 | 22:12.37 | 6:52.32 | 99937 | 130868
5 | 29:04.69 | 4:40.32 | 130869 | 151900
6 | 33:45.26 | 20:40.24 | 151901 | 244924
7 | 54:25.50 | 3:57.19 | 244925 | 262718
8 | 58:22.69 | 3:58.19 | 262719 | 280587
9 | 62:21.13 | 4:14.36 | 280588 | 299673
10 | 66:35.49 | 3:45.40 | 299674 | 316588
11 | 70:21.14 | 8:51.65 | 316589 | 356478


Range status and errors

Selected range

Filename H:\dafnaplus\EL&P ‎- The Essential Emerson Lake & Palmer\Disc 1\Emerson Lake & Palmer - The Essential Emerson Lake & Palmer (Disc 1) (826663-10373).wav

Peak level 97.7 %
Extraction speed 7.7 X
Range quality 99.9 %
Test CRC 49F663A5
Copy CRC 49F663A5
Copy OK

No errors occurred


AccurateRip summary

Track 1 accurately ripped (confidence 42) [B5FA161B] (AR v2)
Track 2 accurately ripped (confidence 42) [CD23D17E] (AR v2)
Track 3 accurately ripped (confidence 43) [B135AD56] (AR v2)
Track 4 accurately ripped (confidence 43) [B4028688] (AR v2)
Track 5 accurately ripped (confidence 44) [C9FFC040] (AR v2)
Track 6 accurately ripped (confidence 41) [F8100BB9] (AR v2)
Track 7 accurately ripped (confidence 43) [174DACC5] (AR v2)
Track 8 accurately ripped (confidence 42) [9F683151] (AR v2)
Track 9 accurately ripped (confidence 43) [BD443B06] (AR v2)
Track 10 accurately ripped (confidence 42) [EA6B6038] (AR v2)
Track 11 accurately ripped (confidence 39) [E7A990EE] (AR v2)

All tracks accurately ripped

End of status report

–– CUETools DB Plugin V2.1.6

[CTDB TOCID: VlEQ0VgNYeKi_ivaXOJnKltJiYo-] found
Submit result: already submitted
Track | CTDB Status
1 | (26/26) Accurately ripped
2 | (26/26) Accurately ripped
3 | (26/26) Accurately ripped
4 | (26/26) Accurately ripped
5 | (26/26) Accurately ripped
6 | (26/26) Accurately ripped
7 | (25/26) Accurately ripped
8 | (26/26) Accurately ripped
9 | (26/26) Accurately ripped
10 | (26/26) Accurately ripped
11 | (25/26) Accurately ripped


==== Log checksum 925D95DE1DBC98FBCE26CDA485AEBA5D34F1635AF3F45A5905B3B010EEB47175 ====

foobar2000 1.2.9 / Dynamic Range Meter 1.1.1
log date: 2017-01-09 01:25:16

––––––––––––––––––––––––––––––––––––––––
Analyzed: Emerson Lake & Palmer / The Essential Emerson Lake & Palmer (Disc 1) (826663-10373)
––––––––––––––––––––––––––––––––––––––––

DR Peak RMS Duration Track
––––––––––––––––––––––––––––––––––––––––
DR10 -0.20 dB -14.01 dB 4:33 01-The Barbarian
DR13 -0.20 dB -17.53 dB 12:34 02-Take a Pebble
DR11 -0.20 dB -14.19 dB 5:05 03-Knife-Edge
DR11 -0.20 dB -14.46 dB 6:52 04-Tank
DR11 -0.20 dB -14.48 dB 4:40 05-Lucky Man
DR10 -0.20 dB -12.50 dB 20:40 06-Tarkus
DR11 -0.20 dB -14.89 dB 3:57 07-Bitches Crystal
DR11 -0.20 dB -14.71 dB 3:58 08-Nutrocker
DR15 -0.20 dB -18.76 dB 4:14 09-From the Beginning
DR12 -0.20 dB -14.22 dB 3:46 10-Hoedown
DR11 -0.20 dB -14.37 dB 8:52 11-Trilogy
––––––––––––––––––––––––––––––––––––––––

Number of tracks: 11
Official DR value: DR11

Samplerate: 44100 Hz
Channels: 2
Bits per sample: 16
Bitrate: 882 kbps
Codec: FLAC

[CUETools log; Date: 09.01.2017 0:59:12; Version: 2.1.4]
[CTDB TOCID: VlEQ0VgNYeKi_ivaXOJnKltJiYo-] found.
Track | CTDB Status
1 | (26/26) Accurately ripped
2 | (26/26) Accurately ripped
3 | (26/26) Accurately ripped
4 | (26/26) Accurately ripped
5 | (26/26) Accurately ripped
6 | (26/26) Accurately ripped
7 | (25/26) Accurately ripped
8 | (26/26) Accurately ripped
9 | (26/26) Accurately ripped
10 | (26/26) Accurately ripped
11 | (25/26) Accurately ripped
[AccurateRip ID: 002232b1-01270b79-9a12910b] found.
Track [ CRC | V2 ] Status
01 [d8ced5e5|b5fa161b] (26+42/78) Accurately ripped
02 [01ed57f4|cd23d17e] (25+42/77) Accurately ripped
03 [211464c8|b135ad56] (25+43/78) Accurately ripped
04 [b25c4e4f|b4028688] (25+43/78) Accurately ripped
05 [5ffb016d|c9ffc040] (25+44/79) Accurately ripped
06 [45a5cc02|f8100bb9] (23+41/72) Accurately ripped
07 [12ee3f3e|174dacc5] (27+43/80) Accurately ripped
08 [16b136d3|9f683151] (28+42/79) Accurately ripped
09 [9c47bbca|bd443b06] (26+43/79) Accurately ripped
10 [d968015d|ea6b6038] (26+42/78) Accurately ripped
11 [5db28400|e7a990ee] (24+39/73) Accurately ripped
Offsetted by -646:
01 [87e9a8a9] (05/78) Accurately ripped
02 [55067a12] (05/77) Accurately ripped
03 [5335e0ea] (05/78) Accurately ripped
04 [401b1785] (05/78) Accurately ripped
05 [441d75e9] (05/79) Accurately ripped
06 [09a300b4] (05/72) Accurately ripped
07 [ec7d0f1c] (05/80) Accurately ripped
08 [9f8e7d47] (04/79) Accurately ripped
09 [9490f420] (05/79) Accurately ripped
10 [57389d97] (05/78) Accurately ripped
11 [dec29a48] (05/73) Accurately ripped

Track Peak [ CRC32 ] [W/O NULL] [ LOG ]
– 97,7 [49F663A5] [40632B97] CRC32
01 97,7 [F3EA7075] [44490F17]
02 97,7 [ACEBD2CB] [E33E5701]
03 97,7 [76E3F191] [5BAB77A7]
04 97,7 [650C16BF] [22D6CE69]
05 97,7 [46489CAC] [D320E05F]
06 97,7 [5D9A9060] [30BBC46F]
07 97,7 [80675E31] [283B18EB]
08 97,7 [EB273E66] [B5BCAD97]
09 97,7 [45DCD03E] [5BF7B4FE]
10 97,7 [E3DB20C0] [C558FBE5]
11 97,7 [3D7B20E6] [9EB02F84]

Emerson Lake & Palmer - The Essential Emerson Lake & Palmer (2007)

Tracklist CD2:

01. The Endless Engima, Part One 6:42
02. Fugue 1:57
03. The Endless Engima, Part Two 2:05
04. Jerusalem 2:44
05. Toccata 7:23
06. Still…You Turn Me On 2:53
07. Karn Evil 9: 1st Impression - Part 1 8:37
08. Karn Evil 9: 1st Impression - Part 2 4:52
09. Jeremy Bender/The Sheriff (Medley) 5:07
10. I Believe In Father Christmas 3:37
11. C'est La Vie 4:20
12. Fanfare For The Common Man (Edit) 5:44
13. Honky Tonk Train Blues 3:12
14. Canario 3:59
15. Peter Gunn 3:40
16. Black Moon 7:00
17. Paper Blood 4:28

Exact Audio Copy V1.3 from 2. September 2016

EAC extraction logfile from 8. January 2017, 20:13

Emerson Lake & Palmer / The Essential Emerson Lake & Palmer (Disc 2) (826663-10373)

Used drive : PLEXTOR DVDR PX-891SA Adapter: 1 ID: 0

Read mode : Secure
Utilize accurate stream : Yes
Defeat audio cache : Yes
Make use of C2 pointers : No

Read offset correction : 6
Overread into Lead-In and Lead-Out : No
Fill up missing offset samples with silence : Yes
Delete leading and trailing silent blocks : No
Null samples used in CRC calculations : Yes
Used interface : Native Win32 interface for Win NT & 2000

Used output format : User Defined Encoder
Selected bitrate : 128 kBit/s
Quality : High
Add ID3 tag : No
Command line compressor : C:\Program Files (x86)\Exact Audio Copy\Flac\flac.exe
Additional command line options : -V -8 -T "Genre=%genre%" -T "Artist=%artist%" -T "Title=%title%" -T "Album=%albumtitle%" -T "Date=%year%" -T "Tracknumber=%tracknr%" -T "Comment=%comment%" %source%


TOC of the extracted CD

Track | Start | Length | Start sector | End sector
––––––––––––––––––––––––––––-
1 | 0:00.00 | 6:41.69 | 0 | 30143
2 | 6:41.69 | 1:57.04 | 30144 | 38922
3 | 8:38.73 | 2:04.49 | 38923 | 48271
4 | 10:43.47 | 2:44.13 | 48272 | 60584
5 | 13:27.60 | 7:22.50 | 60585 | 93784
6 | 20:50.35 | 2:53.09 | 93785 | 106768
7 | 23:43.44 | 8:37.01 | 106769 | 145544
8 | 32:20.45 | 4:51.69 | 145545 | 167438
9 | 37:12.39 | 5:06.52 | 167439 | 190440
10 | 42:19.16 | 3:36.42 | 190441 | 206682
11 | 45:55.58 | 4:20.03 | 206683 | 226185
12 | 50:15.61 | 5:43.71 | 226186 | 251981
13 | 55:59.57 | 3:12.31 | 251982 | 266412
14 | 59:12.13 | 3:59.35 | 266413 | 284372
15 | 63:11.48 | 3:39.65 | 284373 | 300862
16 | 66:51.38 | 7:00.05 | 300863 | 332367
17 | 73:51.43 | 4:27.44 | 332368 | 352436


Range status and errors

Selected range

Filename H:\dafnaplus\EL&P ‎- The Essential Emerson Lake & Palmer\Disc 2\Emerson Lake & Palmer - The Essential Emerson Lake & Palmer (Disc 2) (826663-10373).wav

Peak level 97.7 %
Extraction speed 8.7 X
Range quality 99.9 %
Test CRC D2A4C727
Copy CRC D2A4C727
Copy OK

No errors occurred


AccurateRip summary

Track 1 accurately ripped (confidence 21) [5B5E50C4] (AR v2)
Track 2 accurately ripped (confidence 21) [0A208AB1] (AR v2)
Track 3 accurately ripped (confidence 21) [DFE33FD5] (AR v2)
Track 4 accurately ripped (confidence 21) [FEFC1DB7] (AR v2)
Track 5 accurately ripped (confidence 21) [88821B2B] (AR v2)
Track 6 accurately ripped (confidence 21) [DA7D2BCF] (AR v2)
Track 7 accurately ripped (confidence 21) [D4F948A1] (AR v2)
Track 8 accurately ripped (confidence 21) [652D84D4] (AR v2)
Track 9 accurately ripped (confidence 21) [AF82172B] (AR v2)
Track 10 accurately ripped (confidence 21) [5935E844] (AR v2)
Track 11 accurately ripped (confidence 21) [E5523CDE] (AR v2)
Track 12 accurately ripped (confidence 21) [4A0D6195] (AR v2)
Track 13 accurately ripped (confidence 21) [243CADCB] (AR v2)
Track 14 accurately ripped (confidence 21) [3A52EFB5] (AR v2)
Track 15 accurately ripped (confidence 21) [D1CE5C18] (AR v2)
Track 16 accurately ripped (confidence 20) [F0370CB1] (AR v2)
Track 17 accurately ripped (confidence 19) [C53E0BF3] (AR v2)

All tracks accurately ripped

End of status report

–– CUETools DB Plugin V2.1.6

[CTDB TOCID: usB3G6cog38mYpVJqsVeVYHiI7E-] found
Submit result: already submitted
Track | CTDB Status
1 | (16/16) Accurately ripped
2 | (16/16) Accurately ripped
3 | (16/16) Accurately ripped
4 | (16/16) Accurately ripped
5 | (16/16) Accurately ripped
6 | (16/16) Accurately ripped
7 | (16/16) Accurately ripped
8 | (16/16) Accurately ripped
9 | (16/16) Accurately ripped
10 | (16/16) Accurately ripped
11 | (16/16) Accurately ripped
12 | (16/16) Accurately ripped
13 | (16/16) Accurately ripped
14 | (16/16) Accurately ripped
15 | (16/16) Accurately ripped
16 | (16/16) Accurately ripped
17 | (16/16) Accurately ripped


==== Log checksum 710160C52008CF860178BFA6104565EE83E34ACB64BE35D5E3B69A666002FED4 ====

foobar2000 1.2.9 / Dynamic Range Meter 1.1.1
log date: 2017-01-09 01:24:52

––––––––––––––––––––––––––––––––––––––––
Analyzed: Emerson Lake & Palmer / The Essential Emerson Lake & Palmer (Disc 2) (826663-10373)
––––––––––––––––––––––––––––––––––––––––

DR Peak RMS Duration Track
––––––––––––––––––––––––––––––––––––––––
DR11 -0.20 dB -15.33 dB 6:42 01-The Endless Engima, Part One
DR13 -4.35 dB -23.64 dB 1:57 02-Fugue
DR10 -0.27 dB -12.65 dB 2:05 03-The Endless Engima, Part Two
DR10 -0.26 dB -13.53 dB 2:44 04-Jerusalem
DR8 -0.46 dB -12.51 dB 7:23 05-Toccata
DR10 -1.05 dB -16.63 dB 2:53 06-Still…You Turn Me On
DR10 -0.54 dB -12.24 dB 8:37 07-Karn Evil 9: 1st Impression - Part 1
DR8 -0.47 dB -11.18 dB 4:52 08-Karn Evil 9: 1st Impression - Part 2
DR13 -1.20 dB -16.43 dB 5:07 09-Jeremy Bender/The Sheriff (Medley)
DR8 -0.20 dB -12.59 dB 3:37 10-I Believe In Father Christmas
DR10 -1.20 dB -15.45 dB 4:20 11-C'est La Vie
DR9 -0.20 dB -12.95 dB 5:44 12-Fanfare For The Common Man (Edit)
DR13 -0.20 dB -16.09 dB 3:12 13-Honky Tonk Train Blues
DR11 -0.20 dB -13.98 dB 3:59 14-Canario
DR11 -0.20 dB -13.52 dB 3:40 15-Peter Gunn
DR11 -0.20 dB -14.22 dB 7:00 16-Black Moon
DR12 -0.20 dB -14.25 dB 4:28 17-Paper Blood
––––––––––––––––––––––––––––––––––––––––

Number of tracks: 17
Official DR value: DR11

Samplerate: 44100 Hz
Channels: 2
Bits per sample: 16
Bitrate: 846 kbps
Codec: FLAC

[CUETools log; Date: 09.01.2017 1:03:21; Version: 2.1.4]
[CTDB TOCID: usB3G6cog38mYpVJqsVeVYHiI7E-] found.
Track | CTDB Status
1 | (16/16) Accurately ripped
2 | (16/16) Accurately ripped
3 | (16/16) Accurately ripped
4 | (16/16) Accurately ripped
5 | (16/16) Accurately ripped
6 | (16/16) Accurately ripped
7 | (16/16) Accurately ripped
8 | (16/16) Accurately ripped
9 | (16/16) Accurately ripped
10 | (16/16) Accurately ripped
11 | (16/16) Accurately ripped
12 | (16/16) Accurately ripped
13 | (16/16) Accurately ripped
14 | (16/16) Accurately ripped
15 | (16/16) Accurately ripped
16 | (16/16) Accurately ripped
17 | (16/16) Accurately ripped
[AccurateRip ID: 002f59e8-025ca3e7-d7125b11] found.
Track [ CRC | V2 ] Status
01 [47811558|5b5e50c4] (06+21/27) Accurately ripped
02 [a551feff|0a208ab1] (06+21/27) Accurately ripped
03 [78a8f062|dfe33fd5] (06+21/27) Accurately ripped
04 [e11cce43|fefc1db7] (05+21/26) Accurately ripped
05 [51cc3ce9|88821b2b] (05+21/26) Accurately ripped
06 [f1c88404|da7d2bcf] (05+21/26) Accurately ripped
07 [edc8365f|d4f948a1] (05+21/26) Accurately ripped
08 [06d3d7a8|652d84d4] (05+21/26) Accurately ripped
09 [4889bcff|af82172b] (06+21/27) Accurately ripped
10 [fedfb0cd|5935e844] (06+21/27) Accurately ripped
11 [6fe5e1b6|e5523cde] (05+21/26) Accurately ripped
12 [9362aa1b|4a0d6195] (06+21/27) Accurately ripped
13 [a8a54c61|243cadcb] (07+21/28) Accurately ripped
14 [10414e31|3a52efb5] (07+21/28) Accurately ripped
15 [c629aeb4|d1ce5c18] (07+21/28) Accurately ripped
16 [37f67913|f0370cb1] (07+20/27) Accurately ripped
17 [5ea190da|c53e0bf3] (07+19/26) Accurately ripped

Track Peak [ CRC32 ] [W/O NULL] [ LOG ]
– 97,7 [D2A4C727] [A65879E5] CRC32
01 97,7 [ECDEAD6C] [36EDD900]
02 60,5 [340FD9B3] [AE78B0F4]
03 96,9 [54D77377] [B9B79959]
04 97,0 [2F338333] [004A608B]
05 94,8 [3B8B734D] [63A069AD]
06 88,5 [1B917CD4] [DCE446B4]
07 94,0 [DF3F8110] [24FBFF64]
08 94,7 [6E754AA1] [25538C88]
09 87,0 [4F77DE10] [D7E75D88]
10 97,7 [00CF0B48] [2C649F43]
11 87,0 [4F0D7995] [B3A1CEDD]
12 97,7 [63B27EFD] [D35D37CC]
13 97,7 [E54C0A55] [6D38E2CB]
14 97,7 [FCAC45F9] [9140015C]
15 97,7 [B88178FE] [6451E89E]
16 97,7 [825852B8] [248587FA]
17 97,7 [B1A1736B] [AEDA1B1F]

Emerson Lake & Palmer - The Essential Emerson Lake & Palmer (2007)

All thanks go to dafnaplus

Emerson Lake & Palmer in my Blog

Download Emerson Lake & Palmer - The Essential Emerson Lake & Palmer (2007):