Subcategories

The Flower Kings - Waiting For Miracles (2019)

Posted By: v3122
The Flower Kings - Waiting For Miracles (2019)

The Flower Kings - Waiting For Miracles (2019)
EAC | Flac(Image) + Cue + Log & MP3 CBR 320Kbps
2CD | Inside Out Music, 19075985272 | ~ 531 or 201 Mb | Artwork(jpg) -> 183 Mb
Progressive Rock

Another solid release from The Flower Kings. Waiting For Miracles is familiar territory, but different enough to show the band has changed. It still features excellent musicianship, and The Flower Kings signature sound with Roine at the helm. As far as the music goes, We Were Always Here is one of their best songs, and the album ends with it excluding the last track of concept album sounds called Busking at Brobank. Sure Space Revolver or Stardust We Are may arguably be better albums, and longtime favorites of fans. However, Waiting For Miracles fits nicely into the catalog of albums, and a worthy addition to any progressive rock collection. It holds its own as an excellent release, and more music from The Flower Kings is always welcome. With over 80 minutes of music, the new lineup really hooked up us fans. Enjoy!

by javajeff, progarchives
The Flower Kings - Waiting For Miracles (2019)

The Flower Kings - Waiting For Miracles (2019):

The Flower Kings - Waiting For Miracles (2019)

Tracklist CD1:

01. House Of Cards
02. Black Flag
03. Miracles For America
04. Vertigo
05. The Bridge
06. Ascending To The Stars
07. Wicked Old Symphony
08. The Rebel Circus
09. Sleep With The Enemy
10. The Crowning Of Greed

Exact Audio Copy V1.1 from 23. June 2015

EAC extraction logfile from 17. November 2019, 12:06

The Flower Kings / Waiting For Miracles CD1

Used drive : MATSHITADVD+-RW UJ8E2 Adapter: 1 ID: 0

Read mode : Secure
Utilize accurate stream : Yes
Defeat audio cache : Yes
Make use of C2 pointers : No

Read offset correction : 103
Overread into Lead-In and Lead-Out : No
Fill up missing offset samples with silence : Yes
Delete leading and trailing silent blocks : No
Null samples used in CRC calculations : Yes
Used interface : Native Win32 interface for Win NT & 2000
Gap handling : Appended to previous track

Used output format : User Defined Encoder
Selected bitrate : 768 kBit/s
Quality : High
Add ID3 tag : No
Command line compressor : C:\Program Files (x86)\Exact Audio Copy\FLAC\FLAC.EXE
Additional command line options : -8 -V -T "ARTIST=%artist%" -T "TITLE=%title%" -T "ALBUM=%albumtitle%" -T "DATE=%year%" -T "TRACKNUMBER=%tracknr%" -T "TOTALTRACKS=%numtracks%" -T "GENRE=%genre%" -T "ALBUMARTIST=%albumartist%" -T "ALBUM ARTIST=%albumartist%" -T "COMMENT=EAC Secure Mode, Test & Copy, AccurateRip, FLAC -8" %source%


TOC of the extracted CD

Track | Start | Length | Start sector | End sector
––––––––––––––––––––––––––––-
1 | 0:00.00 | 1:55.71 | 0 | 8695
2 | 1:55.71 | 7:39.48 | 8696 | 43168
3 | 9:35.44 | 10:03.25 | 43169 | 88418
4 | 19:38.69 | 9:59.21 | 88419 | 133364
5 | 29:38.15 | 5:30.54 | 133365 | 158168
6 | 35:08.69 | 5:40.51 | 158169 | 183719
7 | 40:49.45 | 5:46.50 | 183720 | 209719
8 | 46:36.20 | 5:49.42 | 209720 | 235936
9 | 52:25.62 | 6:01.70 | 235937 | 263081
10 | 58:27.57 | 4:48.65 | 263082 | 284746


Track 1

Filename C:\bzp01\The Flower Kings - Waiting For Miracles (2019) [FLAC] {2CD 19075985272}\CD1\01 - House Of Cards.wav

Pre-gap length 0:00:02.00

Peak level 72.4 %
Extraction speed 2.1 X
Track quality 100.0 %
Test CRC C8730805
Copy CRC C8730805
Track not present in AccurateRip database
Copy OK

Track 2

Filename C:\bzp01\The Flower Kings - Waiting For Miracles (2019) [FLAC] {2CD 19075985272}\CD1\02 - Black Flag.wav

Peak level 94.5 %
Extraction speed 2.9 X
Track quality 100.0 %
Test CRC 3BA4DB43
Copy CRC 3BA4DB43
Track not present in AccurateRip database
Copy OK

Track 3

Filename C:\bzp01\The Flower Kings - Waiting For Miracles (2019) [FLAC] {2CD 19075985272}\CD1\03 - Miracles For America.wav

Peak level 94.0 %
Extraction speed 3.5 X
Track quality 100.0 %
Test CRC 867CB204
Copy CRC 867CB204
Track not present in AccurateRip database
Copy OK

Track 4

Filename C:\bzp01\The Flower Kings - Waiting For Miracles (2019) [FLAC] {2CD 19075985272}\CD1\04 - Vertigo.wav

Peak level 100.0 %
Extraction speed 4.0 X
Track quality 100.0 %
Test CRC 4E60CBEF
Copy CRC 4E60CBEF
Track not present in AccurateRip database
Copy OK

Track 5

Filename C:\bzp01\The Flower Kings - Waiting For Miracles (2019) [FLAC] {2CD 19075985272}\CD1\05 - The Bridge.wav

Peak level 91.4 %
Extraction speed 4.1 X
Track quality 100.0 %
Test CRC FF677C9F
Copy CRC FF677C9F
Track not present in AccurateRip database
Copy OK

Track 6

Filename C:\bzp01\The Flower Kings - Waiting For Miracles (2019) [FLAC] {2CD 19075985272}\CD1\06 - Ascending To The Stars.wav

Peak level 96.5 %
Extraction speed 4.3 X
Track quality 100.0 %
Test CRC 2CCB577F
Copy CRC 2CCB577F
Track not present in AccurateRip database
Copy OK

Track 7

Filename C:\bzp01\The Flower Kings - Waiting For Miracles (2019) [FLAC] {2CD 19075985272}\CD1\07 - Wicked Old Symphony.wav

Peak level 96.9 %
Extraction speed 4.5 X
Track quality 100.0 %
Test CRC 66D91F5A
Copy CRC 66D91F5A
Track not present in AccurateRip database
Copy OK

Track 8

Filename C:\bzp01\The Flower Kings - Waiting For Miracles (2019) [FLAC] {2CD 19075985272}\CD1\08 - The Rebel Circus.wav

Peak level 100.0 %
Extraction speed 3.8 X
Track quality 99.9 %
Test CRC 4E465475
Copy CRC 4E465475
Track not present in AccurateRip database
Copy OK

Track 9

Filename C:\bzp01\The Flower Kings - Waiting For Miracles (2019) [FLAC] {2CD 19075985272}\CD1\09 - Sleep With The Enemy.wav

Peak level 97.1 %
Extraction speed 4.9 X
Track quality 100.0 %
Test CRC 2AA3AD12
Copy CRC 2AA3AD12
Track not present in AccurateRip database
Copy OK

Track 10

Filename C:\bzp01\The Flower Kings - Waiting For Miracles (2019) [FLAC] {2CD 19075985272}\CD1\10 - The Crowning Of Greed.wav

Peak level 98.9 %
Extraction speed 3.9 X
Track quality 99.9 %
Test CRC 5045A814
Copy CRC 5045A814
Track not present in AccurateRip database
Copy OK


None of the tracks are present in the AccurateRip database

No errors occurred

End of status report

–– CUETools DB Plugin V2.1.6

[CTDB TOCID: 1YtNm5g0w1zvjb0z9vJDZj9sz5E-] found
Submit result: 1YtNm5g0w1zvjb0z9vJDZj9sz5E- has been confirmed
Track | CTDB Status
1 | (28/28) Accurately ripped
2 | (28/28) Accurately ripped
3 | (28/28) Accurately ripped
4 | (28/28) Accurately ripped
5 | (28/28) Accurately ripped
6 | (28/28) Accurately ripped
7 | (28/28) Accurately ripped
8 | (28/28) Accurately ripped
9 | (28/28) Accurately ripped
10 | (28/28) Accurately ripped


==== Log checksum 96E011E687E2D130E7B94B6F28B94E88E3455AB39C5B20D21594A4F5FF1533D1 ====


[CUETools log; Date: 19.11.2019 14:22:17; Version: 2.1.4]
[AccurateRip ID: 00188d40-00c5db1d-820ed40a] disk not present in database.

Track Peak [ CRC32 ] [W/O NULL] [ LOG ]
– 100,0 [D21AC6E0] [CD89BCB5]
01 72,4 [C8730805] [9124DE5A] CRC32
02 94,5 [3BA4DB43] [CEAEB3AF] CRC32
03 94,0 [867CB204] [A68EAB00] CRC32
04 100,0 [4E60CBEF] [E5954027] CRC32
05 91,4 [FF677C9F] [4EC08927] CRC32
06 96,5 [2CCB577F] [57096F04] CRC32
07 96,9 [66D91F5A] [5025C449] CRC32
08 100,0 [4E465475] [8510CF38] CRC32
09 97,1 [2AA3AD12] [60874E96] CRC32
10 98,9 [5045A814] [484FEFBC] CRC32


The Flower Kings - Waiting For Miracles (2019)

Tracklist CD2:

01. House Of Cards Reprise
02. Spirals
03. Steampunk
04. We Were Always Here
05. Busking At Brobank

Exact Audio Copy V1.1 from 23. June 2015

EAC extraction logfile from 17. November 2019, 12:43

The Flower Kings / Waiting For Miracles CD2

Used drive : MATSHITADVD+-RW UJ8E2 Adapter: 1 ID: 0

Read mode : Secure
Utilize accurate stream : Yes
Defeat audio cache : Yes
Make use of C2 pointers : No

Read offset correction : 103
Overread into Lead-In and Lead-Out : No
Fill up missing offset samples with silence : Yes
Delete leading and trailing silent blocks : No
Null samples used in CRC calculations : Yes
Used interface : Native Win32 interface for Win NT & 2000
Gap handling : Appended to previous track

Used output format : User Defined Encoder
Selected bitrate : 768 kBit/s
Quality : High
Add ID3 tag : No
Command line compressor : C:\Program Files (x86)\Exact Audio Copy\FLAC\FLAC.EXE
Additional command line options : -8 -V -T "ARTIST=%artist%" -T "TITLE=%title%" -T "ALBUM=%albumtitle%" -T "DATE=%year%" -T "TRACKNUMBER=%tracknr%" -T "TOTALTRACKS=%numtracks%" -T "GENRE=%genre%" -T "ALBUMARTIST=%albumartist%" -T "ALBUM ARTIST=%albumartist%" -T "COMMENT=EAC Secure Mode, Test & Copy, AccurateRip, FLAC -8" %source%


TOC of the extracted CD

Track | Start | Length | Start sector | End sector
––––––––––––––––––––––––––––-
1 | 0:00.00 | 1:21.28 | 0 | 6102
2 | 1:21.28 | 5:06.18 | 6103 | 29070
3 | 6:27.46 | 6:30.65 | 29071 | 58385
4 | 12:58.36 | 7:35.24 | 58386 | 92534
5 | 20:33.60 | 0:52.01 | 92535 | 96435


Track 1

Filename C:\bzp01\The Flower Kings - Waiting For Miracles (2019) [FLAC] {2CD 19075985272}\CD2\01 - House Of Cards Reprise.wav

Pre-gap length 0:00:02.00

Peak level 87.8 %
Extraction speed 1.8 X
Track quality 100.0 %
Test CRC 928E94F0
Copy CRC 928E94F0
Track not present in AccurateRip database
Copy OK

Track 2

Filename C:\bzp01\The Flower Kings - Waiting For Miracles (2019) [FLAC] {2CD 19075985272}\CD2\02 - Spirals.wav

Peak level 100.0 %
Extraction speed 2.6 X
Track quality 100.0 %
Test CRC 2E3E156E
Copy CRC 2E3E156E
Track not present in AccurateRip database
Copy OK

Track 3

Filename C:\bzp01\The Flower Kings - Waiting For Miracles (2019) [FLAC] {2CD 19075985272}\CD2\03 - Steampunk.wav

Peak level 100.0 %
Extraction speed 3.1 X
Track quality 100.0 %
Test CRC 6C303C42
Copy CRC 6C303C42
Track not present in AccurateRip database
Copy OK

Track 4

Filename C:\bzp01\The Flower Kings - Waiting For Miracles (2019) [FLAC] {2CD 19075985272}\CD2\04 - We Were Always Here.wav

Peak level 98.3 %
Extraction speed 3.5 X
Track quality 100.0 %
Test CRC 9D86F304
Copy CRC 9D86F304
Track not present in AccurateRip database
Copy OK

Track 5

Filename C:\bzp01\The Flower Kings - Waiting For Miracles (2019) [FLAC] {2CD 19075985272}\CD2\05 - Busking At Brobank.wav

Peak level 40.3 %
Extraction speed 2.3 X
Track quality 100.0 %
Test CRC 6852FCA1
Copy CRC 6852FCA1
Track not present in AccurateRip database
Copy OK


None of the tracks are present in the AccurateRip database

No errors occurred

End of status report

–– CUETools DB Plugin V2.1.6

[CTDB TOCID: r04Ae5z4g6h0EGjBkwyR4Yxyxlc-] found
Submit result: r04Ae5z4g6h0EGjBkwyR4Yxyxlc- has been confirmed
Track | CTDB Status
1 | (28/28) Accurately ripped
2 | (28/28) Accurately ripped
3 | (28/28) Accurately ripped
4 | (28/28) Accurately ripped
5 | (28/28) Accurately ripped


==== Log checksum 25A732257DECE8F55885363F0929CA7C8F14E4D29C4181108BB95BA20EC14AD4 ====


[CUETools log; Date: 19.11.2019 14:25:18; Version: 2.1.4]
[AccurateRip ID: 00044fa3-0014f82f-3b050505] disk not present in database.

Track Peak [ CRC32 ] [W/O NULL] [ LOG ]
– 100,0 [9ABAB17F] [45AD23F0]
01 87,8 [928E94F0] [E9EDB4AF] CRC32
02 100,0 [2E3E156E] [0553D3A6] CRC32
03 100,0 [6C303C42] [597C3D4A] CRC32
04 98,3 [9D86F304] [5C66CAB9] CRC32
05 40,3 [6852FCA1] [EC9398EE] CRC32


The Flower Kings - Waiting For Miracles (2019)

All thanks go to bzp01

The Flower Kings in my Blog

Download The Flower Kings - Waiting For Miracles (2019):