Subcategories

The Law - The Law (1991) [Japan 1st Press]

Posted By: Andi_Deris
The Law - The Law (1991) [Japan 1st Press]

The Law - The Law (1991) [Japan 1st Press]
EAC Rip | FLAC: Image+Cue+Log | 318 Mb | MP3 CBR 320 kbps | 118 Mb | Scans | Time: 47:17
Melodic Hard Rock, Classic Rock | Atlantic/MMG Inc. | AMCY-227

In 1991, the legendary Paul Rodgers (Free, Bad Co., Queen) and powerhouse drummer Kenney Jones (The Faces, The Who) teamed up as THE LAW & delivered one incredible smash album. Although a short venture, it’s been an enduring chapter in the career of both superstars. With some major player help from David Gilmour (Pink Floyd), Bryan Adams, Chris Rea, and Pino Palladino (The Who), the album netted the duo a #1 AOR Smash Laying Down The Law.



The Law - The Law (1991) [Japan 1st Press]


Track Listing

01. For A Little Ride (3:55)
02. Miss You In A Heartbeat (4:31)
03. Stone Cold (4:15)
04. Come Save Me (Julianne) (4:00)
05. Laying Down The Law (4:26)
06. Nature Of The Beast (3:55)
07. Stone (5:13)
08. Anything For You (3:57)
09. Best Of My Love (4:36)
10. Tough Love (3:46)
11. Missing You Bad Girl (4:42)

Produced by Chris Kimsey, Ahmet Ertegün, Howard Albert, Ron Albert, Kenney Jones, Shane Keister, Paul Rodgers

The Band

• Paul Rodgers: Lead Vocals, Guitars, Piano
• Kenney Jones: Drums

*****
• Jim Barber: Lead Guitar
• John Staehely: Guitar
• Pino Palladino: Bass
• David Gilmour: Guitar on "Stone"
• Chris Rea: Guitar on "Stone"
• Bryan Adams, Mike Hehir: Guitars
• John Astley, Steve Pigott: Keyboards, Programming
• Albhy Galuten: Synthesizer
• George Hawkins: Bass
• Tom Pool: Drums
• Joe Lala: Percussion
• The Memphis Horns: Horns

Exact Audio Copy V1.0 beta 3 from 29. August 2011

Отчёт EAC об извлечении, выполненном 8. июня 2014, 14:30

The Law / The Law

Дисковод: PLEXTOR BD-R PX-B950SA Adapter: 0 ID: 1

Режим чтения : Скоростной

Коррекция смещения при чтении : 6
Способность читать области Lead-in и Lead-out : Нет
Заполнение пропущенных сэмплов тишиной : Да
Удаление блоков с тишиной в начале и конце : Нет
При вычислениях CRC использовались нулевые сэмплы : Да
Интерфейс : Встроенный Win32-интерфейс для Win NT/2000

Выходной формат : Пользовательский кодировщик
Выбранный битрейт : 768 kBit/s
Качество : Высокий
Добавление ID3-тега : Нет
Утилита сжатия : C:\Program Files (x86)\Exact Audio Copy\FLAC\FLAC.EXE
Дополнительные параметры : -8 -V -T "ARTIST=%artist%" -T "TITLE=%title%" -T "ALBUM=%albumtitle%" -T "DATE=%year%" -T "TRACKNUMBER=%tracknr%" -T "GENRE=%genre%" -T "COMMENT=%comment%" -T "BAND=%albuminterpret%" -T "ALBUMARTIST=%albuminterpret%" -T "COMPOSER=%composer%" %haslyrics%–tag-from-file=LYRICS="%lyricsfile%"%haslyrics% -T "DISCNUMBER=%cdnumber%" -T "TOTALDISCS=%totalcds%" -T "TOTALTRACKS=%numtracks%" %hascover%–picture="%coverfile%"%hascover% %source% -o %dest%


TOC извлечённого CD

Трек | Старт | Длительность | Начальный сектор | Конечный сектор
––––––––––––––––––––––––––––––––––-
1 | 0:00.00 | 3:55.25 | 0 | 17649
2 | 3:55.25 | 4:31.27 | 17650 | 38001
3 | 8:26.52 | 4:14.68 | 38002 | 57119
4 | 12:41.45 | 4:00.07 | 57120 | 75126
5 | 16:41.52 | 4:25.48 | 75127 | 95049
6 | 21:07.25 | 3:54.50 | 95050 | 112649
7 | 25:02.00 | 5:13.05 | 112650 | 136129
8 | 30:15.05 | 3:56.70 | 136130 | 153899
9 | 34:12.00 | 4:36.27 | 153900 | 174626
10 | 38:48.27 | 3:45.43 | 174627 | 191544
11 | 42:33.70 | 4:41.62 | 191545 | 212681


Характеристики диапазона извлечения и сообщения об ошибках

Выбранный диапазон

Имя файла G:\RIP\The LaW 1991 Japanese Pressing FLAC\The Law - The Law.wav

Пиковый уровень 100.0 %
Скорость извлечения 27.7 X
CRC теста 7F25096A
CRC копии 7F25096A
Копирование… OK

Ошибок не произошло


AccurateRip: сводка

Трек 1 : извлечено точно (доверие 2) [26830093] (AR v1)
Трек 2 : извлечено точно (доверие 2) [31691D7B] (AR v1)
Трек 3 : извлечено точно (доверие 2) [F7296610] (AR v1)
Трек 4 : извлечено точно (доверие 2) [E396AACF] (AR v1)
Трек 5 : извлечено точно (доверие 2) [441F2A07] (AR v1)
Трек 6 : извлечено точно (доверие 2) [6FBE7AB0] (AR v1)
Трек 7 : извлечено точно (доверие 2) [8CAE94E2] (AR v1)
Трек 8 : извлечено точно (доверие 2) [52F007EE] (AR v1)
Трек 9 : извлечено точно (доверие 2) [D8D2AB03] (AR v1)
Трек 10 : извлечено точно (доверие 2) [22C28DA3] (AR v1)
Трек 11 : извлечено точно (доверие 2) [1E0F8597] (AR v1)

Все треки извлечены точно

Конец отчёта

==== Контрольная сумма отчёта DE6D577E8AAF9C90FF6E1C8FB2B60ED5E192C2C4DD8CE00B91BED327D9D78BDB ====


Many thanks to the original uploader: alzal

SEE also:
Bad Company 1990 Holy Water [Japan 1st Press]

Free 2006 Free Forever [2DVD]

Paul Rodgers 2007 Live In Glasgow [Blu-ray]
–––––––––
Nitroflare