Subcategories

The Ozark Mountain Daredevils - The Car Over The Lake Album `75 & Men From Earth `76 (2006)

Posted By: v3122
The Ozark Mountain Daredevils - The Car Over The Lake Album `75 & Men From Earth `76 (2006)

The Ozark Mountain Daredevils - The Car Over The Lake Album `75 & Men From Earth `76 (2006)
EAC | Flac(Image) + Cue + Log & MP3 CBR 320Kbps
BGO Records, BGOCD737 | ~ 474 or 183 Mb | Scans(jpg) -> 91 Mb
Country Rock, Southern Rock

The Ozark Mountain Daredevils were among the more popular of mid-'70s country-rock outfits, slotting in chronologically and stylistically between the Eagles and Firefall. As exponents of '70s country-rock, the group rode a wave of success for five years on A&M Records and survived in some form into the 1990s, with a following just large enough to justify occasional record releases in their later years.

The sextet was formed in Missouri during the early '70s, consisting of guitarists John Dillon and Steve Cash, blues harpist/singer/guitarist Randle Chowning, drummer/guitarist/singer Larry Lee, keyboard player Buddy Brayfield, and bassist-vocalist Michael Granda, and was signed to A&M Records in 1973. Their first album, recorded under the supervision of producer Glyn Johns (who had also worked with the Eagles), was a critical success and yielded a Top 30 hit in "If You Want to Get to Heaven." A year later, they had the biggest hit in their history, "Jackie Blue," a mellow piece of country-rock that got to number three on the charts and still gets played occasionally as a '70s oldie. They had an ethereal edge to their sound and songs that made them especially appealing to college-age listeners during the middle of the decade. Their self-titled debut album set the tone for the group's next four releases, although by 1978's Don't Look Down, the sound was somewhat closer to country-pop than country-rock. Collegiate girls and their boyfriends could relate to them, and a sense of humor didn't hurt (their third LP, The Car Over the Lake Album had cover art featuring – you guessed it – a car over a lake).

Lee, Dillon (who later played with fellow Daredevil Steve Cash on the Waylon Jennings/Jessi Colter White Mansions concept album), and Chowning authored most of the songs that anyone knows ("Jackie Blue," "Following the Way I Feel," "Fly Away Home"). The group enjoyed success primarily on FM radio from 1973 until 1978, and were popular enough to justify the recording and release of a double-LP concert album – they switched labels to CBS in 1980, losing Lee and Chowning by the end of the decade but picking up Buddy Emmons on steel guitar and Rune Walle on mandolin. The group ceased recording activity in the 1980s, but re-formed and began making records again in the mid-'90s, and there have been some surprising (and very rewarding) archival releases devoted to their work, including early sessions (in which they were at their purest country and bluegrass) and a reunion concert. All of their A&M library has reappeared on CD (some more than once, with upgrades), especially in Europe, and as of 2007 the group was still playing shows to enthusiastic audiences in and around Missouri. Brown died in a house fire in 2004 and the band played a memorial show in his memory in the fall of that same year, but after that the group went into semi-retirement, emerging to play shows now and then in different configurations before settling on a pretty consistent line up of John Dillon, Steve Cash, Michael Granda, Ron Gremp, Dave Painter, Kelly Brown, Bill Jones, Ruell Chappell and Nick Sibley. A new live album, Alive & Wild, was issued in 2011.

by Bruce Eder, allmusic
The Ozark Mountain Daredevils - The Car Over The Lake Album `75 & Men From Earth `76 (2006):

The Ozark Mountain Daredevils - The Car Over The Lake Album `75 & Men From Earth `76 (2006)

Tracklist:

The Car Over The Lake Album:
01. Keep On Churnin'
02. If I Only Knew
03. Leatherwood
04. Cobblestone Mountain
05. Mr. Powell
06. Gypsy Forest
07. Thin Ice
08. From Time To Time
09. Southern Cross
10. Out On The Sea
11. Whippoorwill

Men From Earth:
12. Fly Away Home
13. You Know Like I Know
14. Breakaway (From Those Chains)
15. The Red Plum
16. Mountain Range
17. Watermill
18. Noah
19. It's How You Think
20. Arroyo
21. Homemade Wine

Exact Audio Copy V1.1 from 23. June 2015

Отчёт EAC об извлечении, выполненном 15. сентября 2017, 15:49

The Ozark Mountain Daredevils / The Car Over The Lake Album/Men From Earth

Дисковод: ASUS DRW-24B3ST Adapter: 0 ID: 0

Режим чтения : Достоверность
Использование точного потока : Да
Отключение кэша аудио : Да
Использование указателей C2 : Нет

Коррекция смещения при чтении : 6
Способность читать области Lead-in и Lead-out : Нет
Заполнение пропущенных сэмплов тишиной : Да
Удаление блоков с тишиной в начале и конце : Нет
При вычислениях CRC использовались нулевые сэмплы : Да
Интерфейс : Установленный внешний ASPI-интерфейс

Выходной формат : Пользовательский кодировщик
Выбранный битрейт : 1024 kBit/s
Качество : Высокий
Добавление ID3-тега : Нет
Утилита сжатия : C:\Program Files (x86)\Exact Audio Copy\Flac\flac.exe
Дополнительные параметры : -V -8 -T "Date=%year%" -T "Genre=%genre%" %source%


TOC извлечённого CD

Трек | Старт | Длительность | Начальный сектор | Конечный сектор
––––––––––––––––––––––––––––––––––-
1 | 0:00.00 | 2:58.29 | 0 | 13378
2 | 2:58.29 | 3:26.25 | 13379 | 28853
3 | 6:24.54 | 4:02.71 | 28854 | 47074
4 | 10:27.50 | 2:24.18 | 47075 | 57892
5 | 12:51.68 | 3:14.10 | 57893 | 72452
6 | 16:06.03 | 2:54.31 | 72453 | 85533
7 | 19:00.34 | 2:58.53 | 85534 | 98936
8 | 21:59.12 | 3:56.40 | 98937 | 116676
9 | 25:55.52 | 3:31.18 | 116677 | 132519
10 | 29:26.70 | 3:44.22 | 132520 | 149341
11 | 33:11.17 | 5:13.50 | 149342 | 172866
12 | 38:24.67 | 2:53.44 | 172867 | 185885
13 | 41:18.36 | 4:06.46 | 185886 | 204381
14 | 45:25.07 | 4:01.74 | 204382 | 222530
15 | 49:27.06 | 2:06.52 | 222531 | 232032
16 | 51:33.58 | 4:48.15 | 232033 | 253647
17 | 56:21.73 | 4:14.14 | 253648 | 272711
18 | 60:36.12 | 3:08.44 | 272712 | 286855
19 | 63:44.56 | 4:23.52 | 286856 | 306632
20 | 68:08.33 | 5:12.66 | 306633 | 330098
21 | 73:21.24 | 2:39.56 | 330099 | 342079


Характеристики диапазона извлечения и сообщения об ошибках

Выбранный диапазон

Имя файла E:\Torrents\The Ozark Mountain Daredevils - 1975,1976 - The Car Over The Lake Album - Men From Earth\The Ozark Mountain Daredevils - The Car Over The Lake Album,Men From Earth.wav

Пиковый уровень 100.0 %
Скорость извлечения 9.6 X
Качество диапазона 100.0 %
CRC теста EB7FEB16
CRC копии EB7FEB16
Копирование… OK

Ошибок не произошло


AccurateRip: сводка

Трек 1 точность не определена (достоверность 3) [168F9A27], AccurateRip вернул [6473889A] (AR v2)
Трек 2 точность не определена (достоверность 2) [DBF3D2E7], AccurateRip вернул [6A8995FC] (AR v2)
Трек 3 точность не определена (достоверность 3) [C07D1480], AccurateRip вернул [F92B80B9] (AR v2)
Трек 4 точность не определена (достоверность 2) [667A93D9], AccurateRip вернул [E9AAC9A5] (AR v2)
Трек 5 точность не определена (достоверность 2) [3481D7FB], AccurateRip вернул [7B429B61] (AR v2)
Трек 6 точность не определена (достоверность 3) [BA668973], AccurateRip вернул [83C3D243] (AR v2)
Трек 7 точность не определена (достоверность 3) [0DF6FE5C], AccurateRip вернул [88546DA8] (AR v2)
Трек 8 точность не определена (достоверность 2) [E6EAD3E7], AccurateRip вернул [414CF112] (AR v2)
Трек 9 точность не определена (достоверность 2) [2B36A323], AccurateRip вернул [4DEAEEFE] (AR v2)
Трек 10 точность не определена (достоверность 2) [F1F7DFE6], AccurateRip вернул [300786D4] (AR v2)
Трек 11 точность не определена (достоверность 2) [F2AD456D], AccurateRip вернул [12A95602] (AR v2)
Трек 12 точность не определена (достоверность 3) [6CF14F09], AccurateRip вернул [273A5E92] (AR v2)
Трек 13 точность не определена (достоверность 2) [BA080126], AccurateRip вернул [BD7CB88B] (AR v2)
Трек 14 точность не определена (достоверность 2) [E35863EE], AccurateRip вернул [9113C9CE] (AR v2)
Трек 15 точность не определена (достоверность 2) [1459D02E], AccurateRip вернул [02203638] (AR v2)
Трек 16 точность не определена (достоверность 2) [AE97AC8A], AccurateRip вернул [98F01E2C] (AR v2)
Трек 17 точность не определена (достоверность 2) [CC30169B], AccurateRip вернул [4796DF43] (AR v2)
Трек 18 точность не определена (достоверность 2) [BCAF95FA], AccurateRip вернул [7301019F] (AR v2)
Трек 19 точность не определена (достоверность 2) [B75F1468], AccurateRip вернул [116B543C] (AR v2)
Трек 20 точность не определена (достоверность 2) [A6B85BCB], AccurateRip вернул [B22EA58B] (AR v2)
Трек 21 точность не определена (достоверность 3) [9E644FFF], AccurateRip вернул [DC4DE748] (AR v2)

Ни один трек не прошёл проверки на точность
В вашей базе может быть иной вариант штамповки диска

Конец отчёта

==== Контрольная сумма отчёта CD555DB4F6169CA1DB3C1D12ED2C0FE5E77A58A16C78DA5949570D669EEB9A55 ====


[CUETools log; Date: 17.09.2017 13:34:22; Version: 2.1.5]
[AccurateRip ID: 00371ee7-0357fe93-4911d115] found.
Track [ CRC | V2 ] Status
01 [c020e13a|168f9a27] (0+0/7) No match
02 [a2648900|dbf3d2e7] (0+0/6) No match
03 [95d419a1|c07d1480] (0+0/7) No match
04 [50da0978|667a93d9] (0+0/6) No match
05 [f96657a7|3481d7fb] (0+0/6) No match
06 [816e4941|ba668973] (0+0/7) No match
07 [1803e2f0|0df6fe5c] (0+0/7) No match
08 [ddd7b2e2|e6ead3e7] (0+0/6) No match
09 [6162987e|2b36a323] (0+0/6) No match
10 [1b64613c|f1f7dfe6] (0+0/6) No match
11 [36b8efca|f2ad456d] (0+0/6) No match
12 [299386aa|6cf14f09] (0+0/7) No match
13 [3e2445cf|ba080126] (0+0/6) No match
14 [37f5eb7e|e35863ee] (0+0/6) No match
15 [e982bc28|1459d02e] (0+0/6) No match
16 [fba25b98|ae97ac8a] (0+0/6) No match
17 [ad5b068f|cc30169b] (0+0/6) No match
18 [4e82ecc6|bcaf95fa] (0+0/6) No match
19 [6e1e5a89|b75f1468] (0+0/6) No match
20 [e8050c9b|a6b85bcb] (0+0/6) No match
21 [04856918|9e644fff] (0+0/7) No match
Offsetted by -104:
01 [6473889a] (3/7) Accurately ripped
02 [dbce1878] (2/6) Accurately ripped
03 [f92b80b9] (3/7) Accurately ripped
04 [95a94b64] (2/6) Accurately ripped
05 [b56a3929] (2/6) Accurately ripped
06 [83c3d243] (3/7) Accurately ripped
07 [88546da8] (3/7) Accurately ripped
08 [d534ed42] (2/6) Accurately ripped
09 [0a1a557e] (2/6) Accurately ripped
10 [68891b6c] (2/6) Accurately ripped
11 [19eacf3a] (2/6) Accurately ripped
12 [273a5e92] (3/7) Accurately ripped
13 [9925b8c7] (2/6) Accurately ripped
14 [339dba1e] (2/6) Accurately ripped
15 [bed89a48] (2/6) Accurately ripped
16 [a855c540] (2/6) Accurately ripped
17 [74a9b077] (2/6) Accurately ripped
18 [dd2b975c] (2/6) Accurately ripped
19 [41bcf38b] (2/6) Accurately ripped
20 [6547347b] (2/6) Accurately ripped
21 [dc4de748] (3/7) Accurately ripped
Offsetted by 12:
01 [9979cdea] (2/7) Accurately ripped
02 [6a8995fc] (2/6) Accurately ripped
03 [d922a16d] (2/7) Accurately ripped
04 [e9aac9a5] (2/6) Accurately ripped
05 [7b429b61] (2/6) Accurately ripped
06 [8a270f2e] (2/7) Accurately ripped
07 [8135ab8c] (2/7) Accurately ripped
08 [414cf112] (2/6) Accurately ripped
09 [4deaeefe] (2/6) Accurately ripped
10 [300786d4] (2/6) Accurately ripped
11 [12a95602] (2/6) Accurately ripped
12 [2000465e] (2/7) Accurately ripped
13 [bd7cb88b] (2/6) Accurately ripped
14 [9113c9ce] (2/6) Accurately ripped
15 [02203638] (2/6) Accurately ripped
16 [98f01e2c] (2/6) Accurately ripped
17 [4796df43] (2/6) Accurately ripped
18 [7301019f] (2/6) Accurately ripped
19 [116b543c] (2/6) Accurately ripped
20 [b22ea58b] (2/6) Accurately ripped
21 [b08bd0b0] (2/7) Accurately ripped
Offsetted by -12:
01 [e6c7f48a] (0/7) No match (V2 was not tested)
02 [da3f7c04] (0/6) No match (V2 was not tested)
03 [528591d5] (0/7) No match (V2 was not tested)
04 [f928dd0d] (0/6) No match (V2 was not tested)
05 [12c6b784] (0/6) No match (V2 was not tested)
06 [789582a3] (0/7) No match (V2 was not tested)
07 [aed21a54] (0/7) No match (V2 was not tested)
08 [7a6274b2] (0/6) No match (V2 was not tested)
09 [74da41fe] (0/6) No match (V2 was not tested)
10 [06c13ba4] (0/6) No match (V2 was not tested)
11 [5ac88992] (0/6) No match (V2 was not tested)
12 [3326c6f6] (0/7) No match (V2 was not tested)
13 [becbd313] (0/6) No match (V2 was not tested)
14 [ded80d2e] (0/6) No match (V2 was not tested)
15 [d0e54218] (0/6) No match (V2 was not tested)
16 [5e549904] (0/6) No match (V2 was not tested)
17 [131f2ddb] (0/6) No match (V2 was not tested)
18 [71eb6d47] (0/6) No match (V2 was not tested)
19 [caf1617c] (0/6) No match (V2 was not tested)
20 [1ddb73ab] (0/6) No match (V2 was not tested)
21 [587f0180] (0/7) No match (V2 was not tested)

Track Peak [ CRC32 ] [W/O NULL] [ LOG ]
– 100,0 [EB7FEB16] [8AC1934B] CRC32
01 100,0 [2928E09A] [875A1F17]
02 100,0 [AC0E3B8C] [A4EBB6A9]
03 93,3 [71A1CD44] [DB2A54DD]
04 100,0 [5748382D] [FE5FE27C]
05 89,1 [7DDC26C3] [11B26C3B]
06 94,4 [20B185AC] [CF4C6BC7]
07 94,4 [300A0A29] [A765DF66]
08 100,0 [D5131A14] [905D0F4B]
09 94,4 [E30A57AA] [831EC6E7]
10 84,1 [E08FC4F0] [0E67E331]
11 79,4 [13FFD331] [053021DC]
12 92,2 [17E3091C] [C6617AC8]
13 84,1 [C443CB75] [9B6E5C45]
14 92,2 [82E95B1A] [433DAEDE]
15 92,2 [87D6B41C] [2594C138]
16 92,2 [B4A2AAB1] [D8536560]
17 92,2 [BD9A4B07] [7D4A9766]
18 89,1 [3B9B8AFB] [16A22BC8]
19 89,1 [9B800425] [9D1AA084]
20 92,2 [8580EDD9] [95F330C8]
21 92,2 [B5C81DFD] [C2876CDC]


The Ozark Mountain Daredevils - The Car Over The Lake Album `75 & Men From Earth `76 (2006)

All thanks go to Копысов

The Ozark Mountain Daredevils in my Blog

Download The Ozark Mountain Daredevils - The Car Over The Lake Album `75 & Men From Earth `76 (2006):