Subcategories
Tags
Language
Tags

The Rolling Stones - I Gave You Diamonds, You Give Me Disease: The Exile Outtakes (2008)

Posted By: v3122
The Rolling Stones - I Gave You Diamonds, You Give Me Disease: The Exile Outtakes (2008)

The Rolling Stones - I Gave You Diamonds, You Give Me Disease: The Exile Outtakes (2008)
Flac(Image) + Cue | Sister Morphine, Morph-015 | ~ 431 Mb
Blues Rock / Rock & Roll / Classic Rock

~ This is a collection of alternate mixes, Rehearsals, Live Recordings Of Exile On main ST. ~

The Rolling Stones - I Gave You Diamonds, You Give Me Disease: The Exile Outtakes (2008):

Tracklist:

01. Exile On Mainstreet Blues (Mick on piano & vocals from NME-flexi-single 5/1972)
02. All Down The Line (Alternate mix from witjdrawn US-single 5/1972)
03. Sweet Virginia (Early rough mic)
04. Shake Your Hips (Rehearsal-take rec, in Montreux 3/1972)
05. Stop Breaking Down (Early mix with different vocal)
06. Tumbling Dice (Rehearsal-take rec, in Montreux 3/1972)
07. Shine A Light (Early mix with different vocal)
08. Ventilator Blues (Rec, at Dallas Soundcheck 6/24/1972)
09. Loving Cup (Alternate mix with different vocal)
10. Let It Loose (Rec, at Dallas Soundcheck 6/24/1972)
11. Boogie With Stu (Rec, at Montreux US-Tour rehearsals 3/1972)

Bonus Tracks: Recorded in Perth, Australia, 24 Feb, 1973 (afternoon show)

12. Rocks Off
13. Happy
14. Tumbling Dice
15. All Down The Line
16. Rip This Joint

[CUETools log; Date: 11.05.2021 11:09:03; Version: 2.1.4]
[AccurateRip ID: 002b724d-0215edd0-ee11a410] found.
Track [ CRC | V2 ] Status
01 [b0a585ac|ffc4d3e2] (0+0/2) No match
02 [b8b9d532|50dd8c2c] (0+0/2) No match
03 [c3a2c2a0|7596de45] (0+0/2) No match
04 [d40d4d78|9dff6b40] (0+0/2) No match
05 [620b73a7|18cd2594] (0+0/2) No match
06 [a31ac239|f27c8e90] (0+0/2) No match
07 [293f5fd0|28153525] (0+0/2) No match
08 [788bfd33|41298a05] (0+0/2) No match
09 [3a5ff308|e6e28625] (0+0/2) No match
10 [8a422245|7e7c96c4] (0+0/2) No match
11 [06261c25|2210a758] (0+0/2) No match
12 [24ba7ea8|9acdcf31] (0+0/2) No match
13 [4d927481|0272254d] (0+0/2) No match
14 [ffbb5e34|102841e3] (0+0/2) No match
15 [7f38113f|70803c2b] (0+0/2) No match
16 [3e5b38c7|b802884b] (0+0/2) No match
Offsetted by 6:
01 [c830371f] (0/2) No match (V2 was not tested)
02 [194423ed] (0/2) No match (V2 was not tested)
03 [2fcd69e6] (0/2) No match (V2 was not tested)
04 [2246941e] (0/2) No match (V2 was not tested)
05 [e2ad75ac] (0/2) No match (V2 was not tested)
06 [fa865eb0] (0/2) No match (V2 was not tested)
07 [8ecfd82c] (0/2) No match (V2 was not tested)
08 [22583a7b] (0/2) No match (V2 was not tested)
09 [17d13e45] (0/2) No match (V2 was not tested)
10 [5f2f2d32] (0/2) No match (V2 was not tested)
11 [8f1b6462] (0/2) No match (V2 was not tested)
12 [e51d2fd0] (0/2) No match (V2 was not tested)
13 [e5682a72] (0/2) No match (V2 was not tested)
14 [7e257d20] (0/2) No match (V2 was not tested)
15 [655e8c79] (0/2) No match (V2 was not tested)
16 [999a5b14] (0/2) No match (V2 was not tested)
Offsetted by 1357:
01 [a4edb274] (0/2) No match (V2 was not tested)
02 [7c917ff8] (0/2) No match (V2 was not tested)
03 [49d2a2a1] (0/2) No match (V2 was not tested)
04 [14ee92d1] (0/2) No match (V2 was not tested)
05 [675e730e] (0/2) No match (V2 was not tested)
06 [dd22327d] (0/2) No match (V2 was not tested)
07 [231b56bd] (0/2) No match (V2 was not tested)
08 [afff7655] (0/2) No match (V2 was not tested)
09 [cf2324fb] (0/2) No match (V2 was not tested)
10 [4002ecbe] (0/2) No match (V2 was not tested)
11 [42ed40fc] (0/2) No match (V2 was not tested)
12 [37be2055] (0/2) No match (V2 was not tested)
13 [cd04dee1] (0/2) No match (V2 was not tested)
14 [3be2d5f3] (0/2) No match (V2 was not tested)
15 [e3c52c3d] (0/2) No match (V2 was not tested)
16 [f61ae699] (0/2) No match (V2 was not tested)

Track Peak [ CRC32 ] [W/O NULL]
– 97,7 [8287FA69] [18BDA92B]
01 97,7 [7B770020] [FA0741F6]
02 97,7 [4EFC0DF3] [CDD68D9E]
03 97,7 [ADE1EF9A] [511B2384]
04 97,7 [FC25F56B] [B7B45FD8]
05 97,7 [8C3A91A4] [D03F0D18]
06 97,7 [6469A738] [59453FEB]
07 97,7 [70C6E4BA] [E475279E]
08 97,7 [F6A6D0AB] [F086393D]
09 97,7 [66084405] [16D94D74]
10 97,7 [0F61FFDB] [624E3DEB]
11 97,7 [EF398E97] [827AC591]
12 97,7 [93F58D6D] [5F08898F]
13 97,7 [652EAC0F] [88FCE48D]
14 97,7 [D6088455] [8060952C]
15 97,7 [09472E6C] [99C421C7]
16 97,7 [0200C212] [9EC807CF]


The Rolling Stones - I Gave You Diamonds, You Give Me Disease: The Exile Outtakes (2008)

All thanks go to the original releaser

Rolling Stones in my Blog

Download The Rolling Stones - I Gave You Diamonds, You Give Me Disease: The Exile Outtakes (2008):