Tags
Language
Tags
May 2024
Su Mo Tu We Th Fr Sa
28 29 30 1 2 3 4
5 6 7 8 9 10 11
12 13 14 15 16 17 18
19 20 21 22 23 24 25
26 27 28 29 30 31 1

The Roulettes - Stakes and Chips (1965) [Reissue 1992]

Posted By: gribovar
The Roulettes - Stakes and Chips (1965) [Reissue 1992]

The Roulettes - Stakes and Chips (1965) [Reissue 1992]
EAC Rip | WavPack (image+.cue+log) - 171 MB | MP3 CBR 320 kbps (LAME 3.93) - 121 MB | Covers - 26 MB
Genre: Pop Rock, Beat | RAR 3% Rec. | Label: BGO Records (BGOCD130)

The definitive Roulettes collection, 22 songs covering the group's entire recorded history, with more highlights than one would expect to find. "Bad Time," "I'll Remember Tonight" (which is more familiar to Americans in its cover version by the Mugwumps), "Stubborn Kind of Fellow," and "I Hope He Breaks Your Heart" are priceless, and most of the rest isn't far behind. The sound is excellent, and the notes are entertaining and wonderfully detailed.
Tracklist:
01. Bad Time
02. What You Gonna Do?
03. Settle Down
04. Taste of Honey
05. Find Out the Truth
06. I’ll Remember Tonight
07. You Don’t Love Me
08. Stubborn Kind of Fellow
09. I Hope He Breaks Your Heart
10. I Can’t Think of Anyone Else
11. Shake
12. Soon You’ll Be Leaving Me
13. Me Body
14. This Little Girl

Bonus tracks:
15. Can You Go
16. Tell Tale Tit
17. The Long Cigarette
18. Junk
19. Jackpot
20. Yesterday, Today and Tomorrow
21. Tracks of My Tears
22. I Can’t Stop

Total time: 51:25

Exact Audio Copy V1.3 from 2. September 2016

EAC extraction logfile from 7. January 2020, 10:59

The Roulettes / Stakes and Chips

Used drive : PLEXTOR DVDR PX-L890SA Adapter: 1 ID: 0

Read mode : Secure
Utilize accurate stream : Yes
Defeat audio cache : Yes
Make use of C2 pointers : No

Read offset correction : 6
Overread into Lead-In and Lead-Out : No
Fill up missing offset samples with silence : Yes
Delete leading and trailing silent blocks : No
Null samples used in CRC calculations : Yes
Used interface : Native Win32 interface for Win NT & 2000

Used output format : User Defined Encoder
Selected bitrate : 1024 kBit/s
Quality : High
Add ID3 tag : No
Command line compressor : C:\Program Files (x86)\Exact Audio Copy\wavpack.exe
Additional command line options : -lm %source%


TOC of the extracted CD

Track | Start | Length | Start sector | End sector
––––––––––––––––––––––––––––-
1 | 0:00.33 | 2:40.27 | 33 | 12059
2 | 2:40.60 | 2:07.03 | 12060 | 21587
3 | 4:47.63 | 1:31.60 | 21588 | 28472
4 | 6:19.48 | 2:12.05 | 28473 | 38377
5 | 8:31.53 | 2:12.62 | 38378 | 48339
6 | 10:44.40 | 1:56.43 | 48340 | 57082
7 | 12:41.08 | 2:05.12 | 57083 | 66469
8 | 14:46.20 | 2:38.33 | 66470 | 78352
9 | 17:24.53 | 2:13.62 | 78353 | 88389
10 | 19:38.40 | 3:05.00 | 88390 | 102264
11 | 22:43.40 | 2:17.50 | 102265 | 112589
12 | 25:01.15 | 2:10.20 | 112590 | 122359
13 | 27:11.35 | 2:10.45 | 122360 | 132154
14 | 29:22.05 | 2:45.43 | 132155 | 144572
15 | 32:07.48 | 2:06.37 | 144573 | 154059
16 | 34:14.10 | 1:45.18 | 154060 | 161952
17 | 35:59.28 | 3:03.42 | 161953 | 175719
18 | 39:02.70 | 2:39.45 | 175720 | 187689
19 | 41:42.40 | 2:06.18 | 187690 | 197157
20 | 43:48.58 | 2:18.12 | 197158 | 207519
21 | 46:06.70 | 2:46.13 | 207520 | 219982
22 | 48:53.08 | 2:32.25 | 219983 | 231407


Range status and errors

Selected range

Filename D:\wwphil\The Roulettes - Stakes And Chips (1992, BGO Rs)\The Roulettes - Stakes and Chips.wav

Peak level 98.4 %
Extraction speed 8.5 X
Range quality 100.0 %
Test CRC DF98E07C
Copy CRC DF98E07C
Copy OK

No errors occurred


AccurateRip summary

Track 1 cannot be verified as accurate (confidence 3) [AC0A3E3D], AccurateRip returned [3718D28D] (AR v2)
Track 2 cannot be verified as accurate (confidence 3) [48D42C47], AccurateRip returned [EC0CCDBF] (AR v2)
Track 3 cannot be verified as accurate (confidence 3) [992EE04C], AccurateRip returned [3C4C846D] (AR v2)
Track 4 cannot be verified as accurate (confidence 3) [7E352770], AccurateRip returned [29EFD5FD] (AR v2)
Track 5 cannot be verified as accurate (confidence 3) [A7EAC9C3], AccurateRip returned [8BD0ADFE] (AR v2)
Track 6 cannot be verified as accurate (confidence 3) [D78D32E2], AccurateRip returned [A7DFB6EF] (AR v2)
Track 7 cannot be verified as accurate (confidence 3) [0E2AD5CE], AccurateRip returned [135BDDCC] (AR v2)
Track 8 cannot be verified as accurate (confidence 3) [D7EE9297], AccurateRip returned [284CEAE5] (AR v2)
Track 9 cannot be verified as accurate (confidence 3) [AD63AC56], AccurateRip returned [95F3959E] (AR v2)
Track 10 cannot be verified as accurate (confidence 3) [F55B377D], AccurateRip returned [B7E9F3BB] (AR v2)
Track 11 cannot be verified as accurate (confidence 3) [3BE549B5], AccurateRip returned [8A8498D4] (AR v2)
Track 12 cannot be verified as accurate (confidence 3) [10ED4993], AccurateRip returned [CF8603CE] (AR v2)
Track 13 cannot be verified as accurate (confidence 3) [2BE6DCF1], AccurateRip returned [BFC86C83] (AR v2)
Track 14 cannot be verified as accurate (confidence 3) [F3FDF2F3], AccurateRip returned [283328DE] (AR v2)
Track 15 cannot be verified as accurate (confidence 3) [97706D39], AccurateRip returned [D0CAA484] (AR v2)
Track 16 cannot be verified as accurate (confidence 3) [98AF4996], AccurateRip returned [8C2E3AFC] (AR v2)
Track 17 cannot be verified as accurate (confidence 3) [D82461C4], AccurateRip returned [AFAD329E] (AR v2)
Track 18 cannot be verified as accurate (confidence 3) [18E3D2B5], AccurateRip returned [6E0D2762] (AR v2)
Track 19 cannot be verified as accurate (confidence 3) [F9DA2D61], AccurateRip returned [133C4976] (AR v2)
Track 20 cannot be verified as accurate (confidence 3) [BCE403A9], AccurateRip returned [BE81FEE7] (AR v2)
Track 21 cannot be verified as accurate (confidence 3) [11AC6C47], AccurateRip returned [643BB685] (AR v2)
Track 22 cannot be verified as accurate (confidence 3) [09A11850], AccurateRip returned [0ED222BB] (AR v2)

No tracks could be verified as accurate
You may have a different pressing from the one(s) in the database

End of status report

==== Log checksum 3E72F046E380B0645A4F034A2D4F15F020486A8C53082C8B1B4F115300ABA9E6 ====

[CUETools log; Date: 31.01.2024 14:43:02; Version: 2.1.4]
Pregap length 00:00:33.
[CTDB TOCID: g1KQo2GNIdTnqRXOtX1SIs3_dwE-] found.
Track | CTDB Status
1 | (5/5) Accurately ripped
2 | (5/5) Accurately ripped
3 | (5/5) Accurately ripped
4 | (5/5) Accurately ripped
5 | (5/5) Accurately ripped
6 | (5/5) Accurately ripped
7 | (5/5) Accurately ripped
8 | (5/5) Accurately ripped
9 | (5/5) Accurately ripped
10 | (5/5) Accurately ripped
11 | (5/5) Accurately ripped
12 | (5/5) Accurately ripped
13 | (5/5) Accurately ripped
14 | (5/5) Accurately ripped
15 | (5/5) Accurately ripped
16 | (5/5) Accurately ripped
17 | (5/5) Accurately ripped
18 | (5/5) Accurately ripped
19 | (5/5) Accurately ripped
20 | (5/5) Accurately ripped
21 | (5/5) Accurately ripped
22 | (5/5) Accurately ripped
[AccurateRip ID: 00277fbb-027c4e36-310c0d16] found.
Track [ CRC | V2 ] Status
01 [96e56911|ac0a3e3d] (0+2/7) Accurately ripped
02 [82fef69d|48d42c47] (0+2/7) Accurately ripped
03 [caf65dcc|992ee04c] (0+2/7) Accurately ripped
04 [db86fb57|7e352770] (0+2/7) Accurately ripped
05 [2d5ca30c|a7eac9c3] (0+2/7) Accurately ripped
06 [22394cfc|d78d32e2] (0+2/7) Accurately ripped
07 [f4f93f60|0e2ad5ce] (0+2/7) Accurately ripped
08 [c4a68700|d7ee9297] (0+2/7) Accurately ripped
09 [bfb777cb|ad63ac56] (0+2/7) Accurately ripped
10 [7aed6d54|f55b377d] (0+2/7) Accurately ripped
11 [c2b9d6c1|3be549b5] (0+2/7) Accurately ripped
12 [02cfb8f9|10ed4993] (0+2/7) Accurately ripped
13 [94bc91e8|2be6dcf1] (0+2/7) Accurately ripped
14 [d0f36eaf|f3fdf2f3] (0+2/7) Accurately ripped
15 [4705dc1e|97706d39] (0+2/7) Accurately ripped
16 [7332bf9a|98af4996] (0+2/7) Accurately ripped
17 [b1d0dc54|d82461c4] (0+2/7) Accurately ripped
18 [f0247343|18e3d2b5] (0+2/7) Accurately ripped
19 [c0490afb|f9da2d61] (0+2/7) Accurately ripped
20 [61bc2071|bce403a9] (0+2/7) Accurately ripped
21 [f88a9f10|11ac6c47] (0+2/7) Accurately ripped
22 [f3523175|09a11850] (0+2/7) Accurately ripped
Offsetted by -36:
01 [1a92d965] (0/7) No match (V2 was not tested)
02 [20606821] (0/7) No match (V2 was not tested)
03 [69d99450] (0/7) No match (V2 was not tested)
04 [812437ab] (0/7) No match (V2 was not tested)
05 [0b248ea0] (0/7) No match (V2 was not tested)
06 [ed2859dc] (0/7) No match (V2 was not tested)
07 [f464e3d0] (0/7) No match (V2 was not tested)
08 [0db9b350] (0/7) No match (V2 was not tested)
09 [a2275b13] (0/7) No match (V2 was not tested)
10 [34e220dc] (0/7) No match (V2 was not tested)
11 [0afe7645] (0/7) No match (V2 was not tested)
12 [bb6600d9] (0/7) No match (V2 was not tested)
13 [22a070f0] (0/7) No match (V2 was not tested)
14 [fd556df7] (0/7) No match (V2 was not tested)
15 [7a70b25a] (0/7) No match (V2 was not tested)
16 [61dd0eba] (0/7) No match (V2 was not tested)
17 [80b211fc] (0/7) No match (V2 was not tested)
18 [3dde86ab] (0/7) No match (V2 was not tested)
19 [d3ea1443] (0/7) No match (V2 was not tested)
20 [5d01a0d1] (0/7) No match (V2 was not tested)
21 [4361c9b0] (0/7) No match (V2 was not tested)
22 [f1713231] (0/7) No match (V2 was not tested)
Offsetted by -6:
01 [5782511f] (0/7) No match (V2 was not tested)
02 [f28f3433] (0/7) No match (V2 was not tested)
03 [bac6e6e2] (0/7) No match (V2 was not tested)
04 [4c768565] (0/7) No match (V2 was not tested)
05 [7cfdf4fa] (0/7) No match (V2 was not tested)
06 [eeb679cc] (0/7) No match (V2 was not tested)
07 [ca35dac8] (0/7) No match (V2 was not tested)
08 [d0d463b8] (0/7) No match (V2 was not tested)
09 [6574c857] (0/7) No match (V2 was not tested)
10 [99eb8b40] (0/7) No match (V2 was not tested)
11 [f96ff157] (0/7) No match (V2 was not tested)
12 [cc3e1a49] (0/7) No match (V2 was not tested)
13 [d70d3714] (0/7) No match (V2 was not tested)
14 [5859193b] (0/7) No match (V2 was not tested)
15 [fa425528] (0/7) No match (V2 was not tested)
16 [9af9ccca] (0/7) No match (V2 was not tested)
17 [29a10ff0] (0/7) No match (V2 was not tested)
18 [27c3767f] (0/7) No match (V2 was not tested)
19 [c38e8c87] (0/7) No match (V2 was not tested)
20 [60f26081] (0/7) No match (V2 was not tested)
21 [2fae7b80] (0/7) No match (V2 was not tested)
22 [c8575c3f] (0/7) No match (V2 was not tested)

Track Peak [ CRC32 ] [W/O NULL] [ LOG ]
– 98,4 [DF98E07C] [538E8EF1] CRC32
01 98,1 [F62D0566] [098F5787]
02 85,9 [C52528A6] [44B14C68]
03 94,1 [6BFE9947] [029DDA59]
04 83,3 [95299D33] [675B7160]
05 91,7 [6C8FFFF8] [B56DA637]
06 90,9 [7266C737] [0F69DF00]
07 93,5 [118DB270] [27FFE1AE]
08 96,5 [F20F4E6F] [2F8CA54A]
09 94,5 [A8DC9F37] [D607BD99]
10 86,4 [D8211D96] [2FCB5A33]
11 94,1 [C88061FE] [AF1607C2]
12 95,0 [6427FC1C] [9D45577A]
13 97,3 [D9500BE9] [F8BCF6C8]
14 97,8 [279E2CD4] [2ADE8501]
15 92,4 [DC9D6121] [A2229311]
16 90,6 [D4D35078] [39E97076]
17 89,1 [81F14978] [E44CB289]
18 91,3 [3166BCBD] [AC94CA8D]
19 95,9 [CF0027D9] [0482BE46]
20 92,0 [0B591030] [80E19B63]
21 98,4 [BB9F2B80] [BE65C638]
22 96,0 [997E9DDD] [2C2EEF69]

Thanks to wwf