Tags
Language
Tags

The Shadows - The Final Tour (2004) [BDRip 720p]

Posted By: juanchito
The Shadows - The Final Tour (2004) [BDRip 720p]

The Shadows - The Final Tour (2004)
BDRip 720p | MKV | 1280x720, 29.970 fps, ~5908 kbps | 7.07 GB
Audio: English DTS, 48.0 KHz, 5.1 ch, ~1510 kbps | Length: 02:16:27
Genre: Rock & Roll, Instrumental Rock


The Shadows long and influential career has spanned 6 decades, with hit singles or albums in every one of them. Hank Marvin s guitar playing has been an inspiration to hordes of guitarists down the years, including the likes of Brian May, Eric Clapton and Pete Townshend. Over a decade since their last tour, Hank Marvin, Bruce Welch and Brian Bennett reunited as The Shadows for The Final Tour, which kicked off in spring 2004. A sell out everywhere, the band played to over 90,000 people in the UK. This concert was recorded at Cardiff s International Arena on June 5. The tracklisting includes an astonishing 23 UK top ten hits, of which no less than 8 were No.1 s, together with other favourite Shadows tracks.

The Shadows - The Final Tour (2004) [BDRip 720p]

The Shadows - The Final Tour (2004) [BDRip 720p]

The Shadows - The Final Tour (2004) [BDRip 720p]



Tracklist
1. Apache Intro
2. Riders In The Sky
3. The Frightened City
4. Theme For Young Lovers
5. Peace Pipe
6. The Savage
7. Let Me Be The One
8. The Stranger
9. Kon-Tiki
10. Going Home (Theme From Local Hero)
11. Dance On
12. Nivram
13. Lady Of The Morning
14. My Home Town
15. Guitar Tango
16. Geronimo
17. Sleepwalk
18. 36-24-36
19. Shazam
20. Don't Cry For Me Argentina
21. Equinoxe V
22. Mountains Of The Moon
23. Shadoogie
24. Gonzales
25. Don't Make My Baby Blue
26. The Rise And Fall Of Flingel Bunt
27. Atlantis
28. Shindig
29. Man Of Mystery
30. Foot Tapper
31. Please Don't Tease
32. In The Country
33. I Could Easily Fall
34. The Day I Met Marie
35. Gee Whiz It's You
36. Summer Holiday
37. Bachelor Boy
38. Little B
39. Theme From The Deerhunter
40. Wonderful Land
41. FBI
42. Apache

General
Complete name : G:\HDTV\!Music\The.Shadows.The.Final.Tour.2004.BDRip.720p.x264.DTS.mkv
Format : Matroska
File size : 7.07 GiB
Duration : 2h 16mn
Overall bit rate : 7 418 Kbps
Movie name : The Shadows: The Final Tour
Encoded date : UTC 2010-05-16 09:32:28
Writing application : mkvmerge v3.2.0 ('Beginnings') built on Feb 12 2010 16:46:17
Writing library : libebml v0.7.9 + libmatroska v0.8.1

Video
ID : 1
Format : AVC
Format/Info : Advanced Video Codec
Format profile : High@L4.0
Format settings, CABAC : Yes
Format settings, ReFrames : 3 frames
Muxing mode : Container profile=Unknown@4.0
Codec ID : V_MPEG4/ISO/AVC
Duration : 2h 16mn
Bit rate : 5 761 Kbps
Nominal bit rate : 5 908 Kbps
Width : 1 280 pixels
Height : 720 pixels
Display aspect ratio : 16:9
Frame rate : 29.970 fps
Resolution : 8 bits
Colorimetry : 4:2:0
Scan type : Progressive
Bits/(Pixel*Frame) : 0.209
Stream size : 5.48 GiB (78%)
Writing library : x264 core 89 r1471M 1144615
Encoding settings : cabac=1 / ref=3 / deblock=1:0:0 / analyse=0x3:0x133 / me=umh / subme=7 / psy=1 / psy_rd=1.00:0.00 / mixed_ref=1 / me_range=16 / chroma_me=1 / trellis=1 / 8x8dct=1 / cqm=0 / deadzone=21,11 / fast_pskip=1 / chroma_qp_offset=-2 / threads=6 / sliced_threads=0 / nr=0 / decimate=1 / interlaced=0 / constrained_intra=0 / bframes=3 / b_pyramid=0 / b_adapt=1 / b_bias=0 / direct=1 / wpredb=1 / wpredp=2 / keyint=300 / keyint_min=30 / scenecut=40 / intra_refresh=0 / rc_lookahead=40 / rc=2pass / mbtree=1 / bitrate=5908 / ratetol=1.0 / qcomp=0.60 / qpmin=10 / qpmax=51 / qpstep=4 / cplxblur=20.0 / qblur=0.5 / vbv_maxrate=25000 / vbv_bufsize=25000 / ip_ratio=1.40 / aq=1:1.00 / pulldown=0 / nal_hrd=vbr
Language : English

Audio
ID : 2
Format : DTS
Format/Info : Digital Theater Systems
Codec ID : A_DTS
Duration : 2h 16mn
Bit rate mode : Constant
Bit rate : 1 510 Kbps
Channel(s) : 6 channels
Channel positions : Front: L C R, Side: L R, LFE
Sampling rate : 48.0 KHz
Resolution : 16 bits
Stream size : 1.44 GiB (20%)
Title : DTS 5.1
Language : English


Thanks to the original uploader