Subcategories

The Snakes - Live In Europe (1998) [Japan 1st Press]

Posted By: Andi_Deris
The Snakes - Live In Europe (1998) [Japan 1st Press]

The Snakes - Live In Europe (1998) [Japan 1st Press]
EAC Rip | FLAC: Image+Cue+Log | 492 Mb | MP3 CBR 320 kbps | 161 Mb | Scans | Time: 01:03:23
Hard Rock, Blues Rock | Pony Canyon Inc. | PCCY-01318

Although best known from their days in Whitesnake, Bernie Marsden & Micky Moody prove here that good old fashioned blues/rock is far from dead. This album was a taster for their new studio album also being released on Talking Elephant. Here we see the band rocking the stage with classic Whitesnake numbers. Fronted by Johnny Lande Norwegian hard rock and heavy metal singer. Known for being the former vocalist of bands Ark, Beyond Twilight, Millenium, Vagabond, The Snakes, and most notably of power metal band Masterplan, as well as for his solo career as Jorn.

The Snakes - Live In Europe (1998) [Japan 1st Press]




The Snakes - Live In Europe (1998) [Japan 1st Press]


Track Listing

01. Walking In The Shadow Of The Blues (05:16)
02. Sweet Talker (04:49)
03. Trouble (05:51)
04. Slow An' Easy (06:04)
05. Don't Break My Heart Again (05:41)
06. Ready An' Willing (06:19)
07. Ain't No Love In The Heart Of The City (08:20)
08. Rough An' Ready (03:25)
09. Fool For Your Loving (05:30)
10. Wine Women An' Song (05:52)
11. Here I Go Again (06:17)

Produced by Bernie Marsden

The Band

• Jørn Lande (listed as "Johnny Lande") (The Snakes, Alien, Masterplan, Avantasia, Mundanus Imperium, Beyond Twilight, Millenium, Wild Willy's Gang, Yngwie Malmsteen) - lead vocals
• Micky Moody (Tramline, Juicy Lucy, Snafu, David Coverdale, Whitesnake, Eric Burdon, Uriah Heep, The Moody Marsden Band, The Company of Snakes) - guitar & vocals
• Bernie Marsden (UFO, Cozy Powell's Hammer, Babe Ruth, Paice Ashton Lord, Whitesnake, The Moody Marsden Band, The Company of Snakes) - guitar & vocals
• Don Airey (Deep Purple, Rainbow, Ozzy Osbourne, Black Sabbath, Electric Light Orchestra, Gary Moore, Glenn Tipton, Judas Priest, Wishbone Ash, Whitesnake, Ten, Jethro Tull, …) - keyboards
• Sid Ringsby (TNT, TinDrum, Jorn) - bass
• Willy Bendiksen (Blonde on Blonde, Jorn, Perfect Crime, Wild Willy's Gang) - drums

Notes

This album was recorded in Europe in the Fall of 1997.

"Ain't No Love In The Heart Of The City" is a 1974 R&B song, written by Michael Price and Dan Walsh, and first recorded by Bobby "Blue" Bland (Robert Calvin Bland) for the album "Dreamer" (1974).
A well-known cover of the song is by the hard rock band Whitesnake, who included it on their 1978 debut album, "Snakebite" (1978), and again as a live recording on "Live…In The Heart Of The City" (1980). The cover was the new band's first hit, and it became a staple of their live set.

Exact Audio Copy V0.99 prebeta 5 from 4. May 2009

Отчёт EAC об извлечении, выполненном 15. января 2010, 16:39

The Snakes / Live in Europe

Дисковод: Optiarc DVD RW AD-5170A Adapter: 0 ID: 0

Режим чтения : Достоверность
Использование точного потока : Да
Отключение кэша аудио : Да
Использование указателей C2 : Нет

Коррекция смещения при чтении : 48
Способность читать области Lead-in и Lead-out : Нет
Заполнение пропущенных сэмплов тишиной : Да
Удаление блоков с тишиной в начале и конце : Нет
При вычислениях CRC использовались нулевые сэмплы : Да
Интерфейс : Установленный внешний ASPI-интерфейс

Выходной формат : Пользовательский кодировщик
Выбранный битрейт : 1024 kBit/s
Качество : Высокий
Добавление ID3-тэга : Нет
Утилита сжатия : C:\Program Files\FLAC\flac.exe
Дополнительные параметры : -V -8 -T "artist=%a" -T "title=%t" -T "album=%g" -T "date=%y" -T "tracknumber=%n" -T "genre=%m" %s


TOC извлечённого CD

Трек | Старт | Длительность | Начальный сектор | Конечный сектор
––––––––––––––––––––––––––––––––––-
1 | 0:00.00 | 5:16.04 | 0 | 23703
2 | 5:16.04 | 4:48.60 | 23704 | 45363
3 | 10:04.64 | 5:51.08 | 45364 | 71696
4 | 15:55.72 | 6:04.24 | 71697 | 99020
5 | 22:00.21 | 5:40.73 | 99021 | 124593
6 | 27:41.19 | 6:18.64 | 124594 | 153007
7 | 34:00.08 | 8:19.64 | 153008 | 190496
8 | 42:19.72 | 3:24.62 | 190497 | 205858
9 | 45:44.59 | 5:29.52 | 205859 | 230585
10 | 51:14.36 | 5:51.39 | 230586 | 256949
11 | 57:06.00 | 6:16.56 | 256950 | 285205


Характеристики диапазона извлечения и сообщения об ошибках

Выбранный диапазон

Имя файла R:\Lossless\Upload\The Snakes - Live in Europe.wav

Пиковый уровень 100.0 %
Качество диапазона 100.0 %
CRC теста C4E3AB3A
CRC копии C4E3AB3A
Копирование… OK

Ошибок не произошло

Конец отчёта


Many thanks to the original uploader: Krolis5


Allen ~ Lande 2014 The Great Divide
Allen ~ Lande 2014 The Great Divide [Japanese Ed.]

Ark (Jorn Lande) 1999 Ark [Japanese Ed.]
Ark (Jorn Lande) 2001 Burn The Sun

Artlantica 2013 Across The Seven Seas

Avantasia 2016 Ghostlights [Limited Ed. 2CD]

Bernie Marsden 2014 Shine

The Company Of Snakes 2001 Here They Go Again [2CD]

Conception 1991-1997 Studio Discography [Japanese Ed.]

Coven, Pitrelli, O'Reilly 1992 CPR

Don Airey 1988 K2 - Tales Of Triumph And Tragedy

Empire 2001 Hypnotica [Japanese Ed. 2002]
Empire 2003 Trading Souls
Empire 2006 The Raven Ride [Japanese Ed.]
Empire 2007 Chasing Shadows [Japanese Ed.]

Jon Lord 2012 Concerto For Group And Orchestra
Jon Lord 2012 Concerto For Group And Orchestra [DVD 5.1]

Jorn 2004 Out To Every Nation [Japanese Ed.]
Jorn 2006 The Duke [Japanese Ed.]
Jorn 2007 The Gathering [Japanese Ed.]
Jorn 2007 Unlocking The Past [Japanese Ed.]
Jorn 2008 Lonely Are The Brave [Japanese Ed.]
Jorn 2009 Spirit Black [Japanese Ed.]
Jorn 2010 Dio [Japanese Ed.]
Jorn 2012 Bring Heavy Rock To The Land
Jorn 2012 Bring Heavy Rock To The Land [Japanese Ed.]
Jorn 2013 Symphonic [Japanese Ed.]
Jorn 2013 Traveller
Jorn 2013 Traveller [Japanese Ed.]
Jorn 2016 Heavy Rock Radio [Japanese Ed.]

Ken Hensley 2008 Blood On The Highway: The Exclusive Release Concert [DVD9]

Living Loud 2004 Debut Live Concert - Sydney Fox Studios 2004 [DVD]

M3 2005 Rough An' Ready [DVD]
M3 2006 Classic Snake Live [Japanese Ed.] 2CD

Magnus Karlsson's Free Fall 2015 Kingdom Of Rock [Japanese Edition]

Masterplan 2013 Novum Initium [Limited Ed.]

Riot 1995 The Brethren Of The Long House [Japan 1st Press]

The Snakes 1998 Once Bitten… [Japan 1st Press]

TNT 1984 Knights Of The New Thunder
TNT 1987 Tell No Tales [Japan 1st Press]
TNT 1989 Intuition [Japan 2nd Press]

Tony Ashton And Friends 2009 Endangered Species - Live At Abbey Road [2CD+DVD]

V.A. 2010 Magic: A Tribute To Ronnie James Dio
V.A. 2014 Ronnie James Dio - This Is Your Life
V.A. 2014 Ronnie James Dio - This Is Your Life [Japanese Ed.]

Whitesnake 2015 The Purple Album
––––––––––
Nitroflare