Tags
Language
Tags

VA - The Ultimate James Bond Film Music Collection (2006)

Posted By: v3122
VA - The Ultimate James Bond Film Music Collection (2006)

VA - The Ultimate James Bond Film Music Collection (2006)
EAC | Flac(Image) + Cue + Log & MP3 CBR 320Kbps
4CD | Silva Screen, SILCD1212 | ~ 1257 or 519 Mb | Scans(jpg) -> 42 Mb
Soundtrack

Performed by the City of Prague Philharmonic Orchestra, conducted by Nic Raine and James Fitzpatrick, this four-CD set collects the 20 James Bond movie themes used since the series first began in 1962 with DR.NO, as well as music from the two "unofficial" releases, CASINO ROYALE and NEVER SAY NEVER AGAIN. Notable incidental themes from each movie are also featured.

~ allmusic
VA - The Ultimate James Bond Film Music Collection (2006):

VA - The Ultimate James Bond Film Music Collection (2006)

Tracklist CD1:

1. The James Bond Theme (Original Version) (Dr. NO)
2. Suite (From Russia With Love)
3. From Russia With Love (Film Version) (From Russia With Love)
4. The Zagreb Express (From Russia With Love)
5. The Golden Horn (From Russia With Love)
6. Girl Trouble (From Russia With Love)
7. 007 Takes The Lektor (From Russia With Love)
8. From Russia With Love (Symphonic Version) (From Russia With Love)
9. Into Miami/Alpine Drive (Goldfinger)
10. Dawn Raid At Fort Knox (Goldfinger)
11. Goldfinger (Goldfinger)
12. Thunderball (Thunderball)
13. The Bomb/Cafe Martinique (Thunderball)
14. Fight On The Disco Volante/Death Of Largo (Thunderball)

Exact Audio Copy V0.99 prebeta 5 from 4. May 2009

EAC extraction logfile from 24. October 2009, 21:32

Various Artists / The Ultimate James Bond Film Music Collection (CD1)

Used drive : SONY DVD RW DW-Q58A Adapter: 1 ID: 1

Read mode : Secure
Utilize accurate stream : Yes
Defeat audio cache : Yes
Make use of C2 pointers : No

Read offset correction : 6
Overread into Lead-In and Lead-Out : No
Fill up missing offset samples with silence : Yes
Delete leading and trailing silent blocks : No
Null samples used in CRC calculations : Yes
Used interface : Installed external ASPI interface

Used output format : Internal WAV Routines
Sample format : 44.100 Hz; 16 Bit; Stereo


TOC of the extracted CD

Track | Start | Length | Start sector | End sector
––––––––––––––––––––––––––––-
1 | 0:00.00 | 1:57.62 | 0 | 8836
2 | 1:57.62 | 5:22.37 | 8837 | 33023
3 | 7:20.24 | 2:17.37 | 33024 | 43335
4 | 9:37.61 | 2:28.49 | 43336 | 54484
5 | 12:06.35 | 2:07.71 | 54485 | 64080
6 | 14:14.31 | 2:08.69 | 64081 | 73749
7 | 16:23.25 | 3:08.13 | 73750 | 87862
8 | 19:31.38 | 2:52.38 | 87863 | 100800
9 | 22:24.01 | 2:50.06 | 100801 | 113556
10 | 25:14.07 | 5:30.42 | 113557 | 138348
11 | 30:44.49 | 2:30.56 | 138349 | 149654
12 | 33:15.30 | 2:16.15 | 149655 | 159869
13 | 35:31.45 | 3:08.34 | 159870 | 174003
14 | 38:40.04 | 6:30.18 | 174004 | 203271


Range status and errors

Selected range

Filename I:\James Bond Ultimate\Disc1\Various Artists - The Ultimate James Bond Film Music Collection (CD1).wav

Peak level 97.6 %
Range quality 99.9 %
Copy CRC E1DFAC9B
Copy OK

No errors occurred


AccurateRip summary

Track 1 not present in database
Track 2 not present in database
Track 3 not present in database
Track 4 not present in database
Track 5 not present in database
Track 6 not present in database
Track 7 not present in database
Track 8 not present in database
Track 9 not present in database
Track 10 not present in database
Track 11 not present in database
Track 12 not present in database
Track 13 not present in database
Track 14 not present in database

None of the tracks are present in the AccurateRip database

End of status report


foobar2000 1.2.9 / Dynamic Range Meter 1.1.1
log date: 2017-06-06 16:39:04

––––––––––––––––––––––––––––––––––––––––
Analyzed: John Barry / The Ultimate James Bond Film Music Collection
––––––––––––––––––––––––––––––––––––––––

DR Peak RMS Duration Track
––––––––––––––––––––––––––––––––––––––––
DR9 -0.36 dB -13.37 dB 2:17 03-From Russia with Love: From Russia with Love (Film Version)
DR12 -1.96 dB -20.41 dB 2:29 04-From Russia with Love: The Zagreb Express
DR10 -0.48 dB -12.75 dB 2:08 05-From Russia with Love: The Golden Horn
DR8 -0.32 dB -12.58 dB 2:09 06-From Russia with Love: Girl Trouble
DR8 -0.38 dB -10.66 dB 3:08 07-From Russia with Love: 007 Takes the Lektor
DR10 -0.21 dB -15.32 dB 2:53 08-From Russia with Love: From Russia with Love (Symphonic Version)
DR11 -0.38 dB -15.33 dB 2:50 09-Goldfinger: Intro Miami / Alpine Drive
DR8 -0.32 dB -11.67 dB 5:31 10-Goldfinger: Dawn Raid at Fort Knox
DR10 -0.51 dB -15.09 dB 2:31 11-Goldfinger: Goldfinger
DR9 -0.25 dB -12.67 dB 2:16 12-Thunderball: Thunderball
DR10 -0.34 dB -16.00 dB 3:08 13-Thunderball: The Bomb / CafР№ Martinique
DR8 -0.33 dB -12.40 dB 6:30 14-Thunderball: Fight on the Disco Volante / Death of Largo
––––––––––––––––––––––––––––––––––––––––

Number of tracks: 12
Official DR value: DR9

Samplerate: 44100 Hz
Channels: 2
Bits per sample: 16
Bitrate: 789 kbps
Codec: FLAC
================================================================================

––––––––––––––––––––––––––––––––––––––––
Analyzed: Monty Norman / The Ultimate James Bond Film Music Collection
––––––––––––––––––––––––––––––––––––––––

DR Peak RMS Duration Track
––––––––––––––––––––––––––––––––––––––––
DR8 -0.32 dB -11.04 dB 1:58 01-Dr. No: The James Bond Theme (Original Version)
DR9 -0.32 dB -15.04 dB 5:22 02-Dr. No: Suite - Death of the Tarantula / Killing the Ward / Death of Dr. No
––––––––––––––––––––––––––––––––––––––––

Number of tracks: 2
Official DR value: DR9

Samplerate: 44100 Hz
Channels: 2
Bits per sample: 16
Bitrate: 789 kbps
Codec: FLAC
================================================================================



[CUETools log; Date: 06.06.2017 16:39:13; Version: 2.1.4]
HDCD: peak extend: yes, transient filter: none, gain: none
[CTDB TOCID: 5lRr6hDHv4VI1hpA6qB8_RtvI10-] found.
Track | CTDB Status
1 | (17/17) Accurately ripped
2 | (17/17) Accurately ripped
3 | (17/17) Accurately ripped
4 | (17/17) Accurately ripped
5 | (17/17) Accurately ripped
6 | (17/17) Accurately ripped
7 | (17/17) Accurately ripped
8 | (17/17) Accurately ripped
9 | (17/17) Accurately ripped
10 | (17/17) Accurately ripped
11 | (17/17) Accurately ripped
12 | (17/17) Accurately ripped
13 | (17/17) Accurately ripped
14 | (17/17) Accurately ripped
[AccurateRip ID: 00156fd4-00e641a0-cc0a960e] found.
Track [ CRC | V2 ] Status
01 [b6e7086c|7d0c8c54] (00+03/17) Accurately ripped
02 [82dc4a55|d4622271] (00+03/17) Accurately ripped
03 [c6ffffcd|20632cea] (00+03/17) Accurately ripped
04 [b6578ae6|c9011764] (00+03/17) Accurately ripped
05 [4efccab7|62161e8d] (00+03/17) Accurately ripped
06 [6aaf2d61|84418453] (00+03/17) Accurately ripped
07 [54e8afda|4bbfd3d8] (00+03/17) Accurately ripped
08 [bdf59d38|571ebc75] (00+03/17) Accurately ripped
09 [1bf66d68|5c6bc460] (00+03/17) Accurately ripped
10 [b3929870|a3db26a9] (00+03/17) Accurately ripped
11 [4a6ec6f3|c92cbb47] (00+03/17) Accurately ripped
12 [11bf0dfe|2081366b] (00+03/17) Accurately ripped
13 [b139c21f|21dc5052] (00+03/17) Accurately ripped
14 [de6edc89|9bd3d190] (00+03/17) Accurately ripped
Offsetted by -30:
01 [d3c6fb26] (02/17) Accurately ripped
02 [5bd74529] (02/17) Accurately ripped
03 [09083c2f] (02/17) Accurately ripped
04 [eb206d43] (02/17) Accurately ripped
05 [9b487973] (02/17) Accurately ripped
06 [69ef3631] (02/17) Accurately ripped
07 [90192bd9] (02/17) Accurately ripped
08 [2794f891] (02/17) Accurately ripped
09 [8711ed8a] (02/17) Accurately ripped
10 [ce0e7361] (02/17) Accurately ripped
11 [d0a5e112] (02/17) Accurately ripped
12 [78c1f30d] (02/17) Accurately ripped
13 [a2c598c1] (02/17) Accurately ripped
14 [db257d9b] (02/17) Accurately ripped
Offsetted by 6:
01 [7ded717a] (00/17) No match (V2 was not tested)
02 [ba5ee6f9] (00/17) No match (V2 was not tested)
03 [7def0c3d] (00/17) No match (V2 was not tested)
04 [88aa6c6d] (00/17) No match (V2 was not tested)
05 [90737b09] (00/17) No match (V2 was not tested)
06 [520c332b] (00/17) No match (V2 was not tested)
07 [1b748beb] (00/17) No match (V2 was not tested)
08 [1066bc93] (00/17) No match (V2 was not tested)
09 [0039c44e] (00/17) No match (V2 was not tested)
10 [8a11d0f2] (00/17) No match (V2 was not tested)
11 [5935a7a5] (00/17) No match (V2 was not tested)
12 [f775b5da] (00/17) No match (V2 was not tested)
13 [f68992ea] (00/17) No match (V2 was not tested)
14 [491d56a9] (00/17) No match (V2 was not tested)

Track Peak [ CRC32 ] [W/O NULL] [ LOG ]
– 97,6 [E1DFAC9B] [C2488A29] CRC32
01 96,3 [848275DD] [FF4995D2]
02 96,3 [1F0408B1] [2796CD05]
03 95,9 [6B2FE662] [9FC8C0ED]
04 79,7 [C04A286A] [A865F957]
05 94,6 [87F0B7B1] [224B0B15]
06 96,3 [97029856] [AEBB3E17]
07 95,7 [36258E54] [6B23B13E]
08 97,6 [86AB9768] [42C693E3]
09 95,7 [BD4E2FF4] [C1135060]
10 96,3 [7621C337] [10F07AA9]
11 94,2 [5CA59028] [D29436A4]
12 97,1 [EBA7C86B] [044050DC]
13 96,1 [5EF898B7] [2B71E952]
14 96,2 [6F065913] [A1AE8F94]


VA - The Ultimate James Bond Film Music Collection (2006)

Tracklist CD2:

1. Bond's Funeral/Mountains and Sunsets (You Only Live Twice)
2. The Wedding/Capsule in Space (You Only Live Twice)
3. You Only Live Twice (You Only Live Twice)
4. This Never Happened To The Other Fella (On Her Majesty's Secret Service)
5. We Have All The Time In The World (On Her Majesty's Secret Service)
6. Bond Meets The Girls (On Her Majesty's Secret Service)
7. The Ski Chase (On Her Majesty's Secret Service)
8. Mr. Wint And Mr. Kidd (Diamonds Are Forever)
9. Circus, Circus (Diamonds Are Forever)
10. Blofeld's Laser (Diamonds Are Forever)
11. Diamonds Are Forever (Diamonds Are Forever)
12. Live and Let Die (Live and Let Die)

Exact Audio Copy V0.99 prebeta 5 from 4. May 2009

EAC extraction logfile from 24. October 2009, 21:46

Various Artists / The Ultimate James Bond Film Music Collection (CD2)

Used drive : SONY DVD RW DW-Q58A Adapter: 1 ID: 1

Read mode : Secure
Utilize accurate stream : Yes
Defeat audio cache : Yes
Make use of C2 pointers : No

Read offset correction : 6
Overread into Lead-In and Lead-Out : No
Fill up missing offset samples with silence : Yes
Delete leading and trailing silent blocks : No
Null samples used in CRC calculations : Yes
Used interface : Installed external ASPI interface

Used output format : Internal WAV Routines
Sample format : 44.100 Hz; 16 Bit; Stereo


TOC of the extracted CD

Track | Start | Length | Start sector | End sector
––––––––––––––––––––––––––––-
1 | 0:00.00 | 5:21.10 | 0 | 24084
2 | 5:21.10 | 4:47.69 | 24085 | 45678
3 | 10:09.04 | 2:55.73 | 45679 | 58876
4 | 13:05.02 | 4:20.63 | 58877 | 78439
5 | 17:25.65 | 3:30.00 | 78440 | 94189
6 | 20:55.65 | 4:51.28 | 94190 | 116042
7 | 25:47.18 | 4:20.43 | 116043 | 135585
8 | 30:07.61 | 4:51.06 | 135586 | 157416
9 | 34:58.67 | 2:33.51 | 157417 | 168942
10 | 37:32.43 | 4:52.40 | 168943 | 190882
11 | 42:25.08 | 3:07.14 | 190883 | 204921
12 | 45:32.22 | 2:59.67 | 204922 | 218413


Range status and errors

Selected range

Filename I:\James Bond Ultimate\Disc2\Various Artists - The Ultimate James Bond Film Music Collection (CD2).wav

Peak level 97.1 %
Range quality 99.9 %
Copy CRC 987DFE1F
Copy OK

No errors occurred


AccurateRip summary

Track 1 not present in database
Track 2 not present in database
Track 3 not present in database
Track 4 not present in database
Track 5 not present in database
Track 6 not present in database
Track 7 not present in database
Track 8 not present in database
Track 9 not present in database
Track 10 not present in database
Track 11 not present in database
Track 12 not present in database

None of the tracks are present in the AccurateRip database

End of status report


foobar2000 1.2.9 / Dynamic Range Meter 1.1.1
log date: 2017-06-06 16:39:35

––––––––––––––––––––––––––––––––––––––––
Analyzed: Prague Philharmonic Orchestra / The Ultimate James Bond Film Music Collection (CD2)
––––––––––––––––––––––––––––––––––––––––

DR Peak RMS Duration Track
––––––––––––––––––––––––––––––––––––––––
DR12 -1.79 dB -19.18 dB 5:21 01-You Only Live Twice (Bond's Funeral/Mountains and Sunsets)
DR9 -0.33 dB -14.00 dB 4:48 02-You Only Live Twice (The Wedding/Capsule in Space)
DR10 -0.50 dB -15.40 dB 2:56 03-You Only Live Twice (You Only Live Twice)
DR10 -0.33 dB -15.80 dB 4:21 04-On Her Majesty's Secret Service (This Never Happened to the
DR11 -1.98 dB -16.84 dB 3:30 05-On Her Majesty's Secret Service (We Have All The Time in the
DR13 -5.09 dB -22.11 dB 4:51 06-On Her Majesty's Secret Service (Bond Meets the Girls)
DR9 -0.41 dB -11.77 dB 4:21 07-On Her Majesty's Secret Service (The Ski Chase)
DR11 -0.47 dB -16.61 dB 4:51 08-Diamonds Are Forever (Mr. Wint and Mr. Kidd)
DR11 -0.78 dB -14.59 dB 2:34 09-Diamonds Are Forever (Circus, Circus)
DR9 -0.31 dB -13.09 dB 4:53 10-Diamonds Are Forever (Blofeld's Laser)
DR10 -0.69 dB -14.64 dB 3:07 11-Diamonds Are Forever (Diamonds Are Forever)
DR8 -0.25 dB -11.31 dB 3:00 12-Live And Let Die (Live and Let Die)
––––––––––––––––––––––––––––––––––––––––

Number of tracks: 12
Official DR value: DR10

Samplerate: 44100 Hz
Channels: 2
Bits per sample: 16
Bitrate: 735 kbps
Codec: FLAC
================================================================================



[CUETools log; Date: 06.06.2017 16:39:29; Version: 2.1.4]
HDCD: peak extend: yes, transient filter: none, gain: none
[CTDB TOCID: Wb3ac6Ek5VmfO.BaZF70uujjxZU-] found.
Track | CTDB Status
1 | (19/19) Accurately ripped
2 | (19/19) Accurately ripped
3 | (19/19) Accurately ripped
4 | (19/19) Accurately ripped
5 | (19/19) Accurately ripped
6 | (19/19) Accurately ripped
7 | (19/19) Accurately ripped
8 | (19/19) Accurately ripped
9 | (19/19) Accurately ripped
10 | (19/19) Accurately ripped
11 | (19/19) Accurately ripped
12 | (19/19) Accurately ripped
[AccurateRip ID: 0016c9e7-00d241bb-9a0b600c] found.
Track [ CRC | V2 ] Status
01 [30d127b1|e38023bc] (00+03/15) Accurately ripped
02 [48deabd7|400e97e5] (00+03/15) Accurately ripped
03 [056c66fb|3adb3b2b] (00+03/16) Accurately ripped
04 [eef3cce4|bcbee27d] (00+03/15) Accurately ripped
05 [1f6bca4e|da1b295c] (00+03/16) Accurately ripped
06 [0f1f6a90|b2b51c91] (00+03/15) Accurately ripped
07 [3066c05c|2d47160d] (00+03/16) Accurately ripped
08 [ee1bb25e|ac9791ba] (00+03/15) Accurately ripped
09 [e1d0f0b8|e4daca6c] (00+03/16) Accurately ripped
10 [43808d07|386f1bf9] (00+03/15) Accurately ripped
11 [19720128|673e594b] (00+03/15) Accurately ripped
12 [0635f614|97ff6552] (00+03/15) Accurately ripped
Offsetted by -30:
01 [0af45277] (02/15) Accurately ripped
02 [35f28862] (02/15) Accurately ripped
03 [27d072c9] (02/16) Accurately ripped
04 [b4a21376] (02/15) Accurately ripped
05 [5f97a095] (02/16) Accurately ripped
06 [2bae55a4] (02/15) Accurately ripped
07 [f8b34149] (02/16) Accurately ripped
08 [c6fe88b0] (02/15) Accurately ripped
09 [e3b8c0ad] (02/16) Accurately ripped
10 [41169f1b] (02/15) Accurately ripped
11 [ee946782] (02/15) Accurately ripped
12 [a771eab0] (02/15) Accurately ripped
Offsetted by 6:
01 [9eca1f23] (00/15) No match (V2 was not tested)
02 [db584cde] (00/15) No match (V2 was not tested)
03 [55a7f791] (00/16) No match (V2 was not tested)
04 [895b6766] (00/15) No match (V2 was not tested)
05 [d146eb1e] (00/16) No match (V2 was not tested)
06 [56f4917e] (00/15) No match (V2 was not tested)
07 [6a6d433c] (00/16) No match (V2 was not tested)
08 [7a6dcad3] (00/15) No match (V2 was not tested)
09 [27b77aec] (00/16) No match (V2 was not tested)
10 [7b5b8688] (00/15) No match (V2 was not tested)
11 [b785b7cd] (00/15) No match (V2 was not tested)
12 [e5f6c528] (00/15) No match (V2 was not tested)

Track Peak [ CRC32 ] [W/O NULL] [ LOG ]
– 97,1 [987DFE1F] [308D8646] CRC32
01 81,3 [CF34AFA9] [639AEC96]
02 96,3 [A9F118B1] [C18A1928]
03 94,3 [F31AC8A8] [93E95212]
04 96,2 [46ECF32A] [1AB3F827]
05 79,6 [5ADD03E7] [76E10708]
06 55,6 [B9CAC1E2] [8FD15E56]
07 95,4 [D80C2C50] [1219DFBF]
08 94,7 [12EA2088] [F0A81C97]
09 91,4 [88A7D9C6] [60CCC15C]
10 96,5 [6E3B7870] [21E959F0]
11 92,3 [FAA753DC] [C8AF11CC]
12 97,1 [4889D839] [B8D58417]


VA - The Ultimate James Bond Film Music Collection (2006)

Tracklist CD3:

1. The Man With The Golden Gun (The Man With The Golden Gun)
2. Kung Fu Fight/Let's Go Get 'Em (The Man With The Golden Gun)
3. Chew Me In Grisly Land/Return To Scaramanga's Fun House (The Man With The Golden Gun)
4. SLow Boat From China/Nick Nack (The Man With The Golden Gun)
5. Nobody Does It Better (The Spy Who Loved Me)
6. Ride To Atlantis (The Man With The Golden Gun)
7. The Tanker (The Man With The Golden Gun)
8. Arrival At Chateau Drax/Freefall (Moonraker)
9. Miss Goodhead Meets Bond (Moonraker)
10. Flight Into SPace (Moonraker)
11. Moonraker (Moonraker)
12. For Your Eyes Only (For Your Eyes Only)
13. Suite - Bond Meets Octopussy/The Palace Fight (Octopussy)
14. All Time High (Octopussy)

Exact Audio Copy V0.99 prebeta 5 from 4. May 2009

EAC extraction logfile from 24. October 2009, 22:04

Various Artists / The Ultimate James Bond Film Music Collection (CD3)

Used drive : SONY DVD RW DW-Q58A Adapter: 1 ID: 1

Read mode : Secure
Utilize accurate stream : Yes
Defeat audio cache : Yes
Make use of C2 pointers : No

Read offset correction : 6
Overread into Lead-In and Lead-Out : No
Fill up missing offset samples with silence : Yes
Delete leading and trailing silent blocks : No
Null samples used in CRC calculations : Yes
Used interface : Installed external ASPI interface

Used output format : Internal WAV Routines
Sample format : 44.100 Hz; 16 Bit; Stereo


TOC of the extracted CD

Track | Start | Length | Start sector | End sector
––––––––––––––––––––––––––––-
1 | 0:00.00 | 3:39.09 | 0 | 16433
2 | 3:39.09 | 3:52.12 | 16434 | 33845
3 | 7:31.21 | 4:37.22 | 33846 | 54642
4 | 12:08.43 | 2:59.47 | 54643 | 68114
5 | 15:08.15 | 3:47.10 | 68115 | 85149
6 | 18:55.25 | 3:20.19 | 85150 | 100168
7 | 22:15.44 | 4:10.65 | 100169 | 118983
8 | 26:26.34 | 2:04.38 | 118984 | 128321
9 | 28:30.72 | 3:23.48 | 128322 | 143594
10 | 31:54.45 | 6:05.01 | 143595 | 170970
11 | 37:59.46 | 3:33.67 | 170971 | 187012
12 | 41:33.38 | 3:07.26 | 187013 | 201063
13 | 44:40.64 | 7:20.15 | 201064 | 234078
14 | 52:01.04 | 4:05.14 | 234079 | 252467


Range status and errors

Selected range

Filename I:\James Bond Ultimate\Disc3\Various Artists - The Ultimate James Bond Film Music Collection (CD3).wav

Peak level 98.0 %
Range quality 100.0 %
Copy CRC 8282595A
Copy OK

No errors occurred


AccurateRip summary

Track 1 not present in database
Track 2 not present in database
Track 3 not present in database
Track 4 not present in database
Track 5 not present in database
Track 6 not present in database
Track 7 not present in database
Track 8 not present in database
Track 9 not present in database
Track 10 not present in database
Track 11 not present in database
Track 12 not present in database
Track 13 not present in database
Track 14 not present in database

None of the tracks are present in the AccurateRip database

End of status report


foobar2000 1.2.9 / Dynamic Range Meter 1.1.1
log date: 2017-06-06 16:39:54

––––––––––––––––––––––––––––––––––––––––
Analyzed: Prague Philharmonic Orchestra / The Ultimate James Bond Film Music Collection (CD3)
––––––––––––––––––––––––––––––––––––––––

DR Peak RMS Duration Track
––––––––––––––––––––––––––––––––––––––––
DR11 -0.31 dB -16.23 dB 3:39 01-The Man With The Golden Gun (The Man with the Golden Gun)
DR11 -0.27 dB -16.02 dB 3:52 02-The Man With The Golden Gun (Kung Fu Fight/Let's Go Get 'Em)
DR12 -0.18 dB -18.89 dB 4:37 03-ga's Fun House)
DR11 -0.40 dB -17.26 dB 3:00 04-The Man With The Golden Gun (Slow Boat from China/Nick Nack)
DR10 -0.29 dB -14.87 dB 3:47 05-The Spy Who Loved Me (Nobody Does it Better)
DR11 -0.62 dB -15.95 dB 3:20 06-The Spy Who Loved Me (The Tanker)
DR11 -0.24 dB -13.83 dB 4:11 07-The Spy Who Loved Me (Ride to Atlantis)
DR11 -0.21 dB -14.53 dB 2:05 08-Moonraker (Arrival at Chateau Drax/Freefall)
DR11 -5.54 dB -20.83 dB 3:24 09-Moonraker (Miss Goodhead Meets Bond)
DR10 -0.24 dB -14.80 dB 6:05 10-Moonraker (Flight into Space)
DR11 -1.68 dB -15.56 dB 3:34 11-Moonraker (Moonraker)
DR10 -0.37 dB -13.19 dB 3:07 12-For Your Eyes Only (For Your Eyes Only)
DR10 -0.24 dB -15.37 dB 7:20 13-Octopussy (Suite - Bond Meets Octopussy/The Palace Fight)
DR10 -0.23 dB -14.17 dB 4:05 14-Octopussy (All Time High)
––––––––––––––––––––––––––––––––––––––––

Number of tracks: 14
Official DR value: DR11

Samplerate: 44100 Hz
Channels: 2
Bits per sample: 16
Bitrate: 731 kbps
Codec: FLAC
================================================================================



[CUETools log; Date: 06.06.2017 16:39:53; Version: 2.1.4]
HDCD: peak extend: yes, transient filter: none, gain: none
[CTDB TOCID: 4arKkVt9Vc56rQuQrplA6M2Ff5c-] found.
Track | CTDB Status
1 | (15/17) Accurately ripped
2 | (17/17) Accurately ripped
3 | (17/17) Accurately ripped
4 | (17/17) Accurately ripped
5 | (17/17) Accurately ripped
6 | (17/17) Accurately ripped
7 | (17/17) Accurately ripped
8 | (17/17) Accurately ripped
9 | (17/17) Accurately ripped
10 | (17/17) Accurately ripped
11 | (17/17) Accurately ripped
12 | (17/17) Accurately ripped
13 | (17/17) Accurately ripped
14 | (17/17) Accurately ripped
[AccurateRip ID: 001b6325-0125bfd0-af0d260e] found.
Track [ CRC | V2 ] Status
01 [d724cf48|4228f0b8] (00+03/13) Accurately ripped
02 [9c04c902|6d26a754] (00+03/14) Accurately ripped
03 [9b8f0177|2f61240e] (00+03/14) Accurately ripped
04 [08a6b152|e77ad974] (00+03/14) Accurately ripped
05 [bf9179ed|007e55ea] (00+03/13) Accurately ripped
06 [2d992ce4|5eaf10d5] (00+03/14) Accurately ripped
07 [b10ae833|4bdc11e8] (00+03/14) Accurately ripped
08 [087f1990|2f689d5f] (00+03/14) Accurately ripped
09 [b298a768|27af8b21] (00+03/14) Accurately ripped
10 [84d1e787|bef52b84] (00+03/14) Accurately ripped
11 [bb3a9332|e9311d1b] (00+03/13) Accurately ripped
12 [14d12352|d657b4a3] (00+03/13) Accurately ripped
13 [5ee42474|b1126fd2] (00+03/13) Accurately ripped
14 [4add3767|e7c13351] (00+03/13) Accurately ripped
Offsetted by -30:
01 [e50c3ee6] (00/13) No match (V2 was not tested)
02 [56eac48f] (00/14) No match (V2 was not tested)
03 [c44ec40b] (00/14) No match (V2 was not tested)
04 [b3f70028] (00/14) No match (V2 was not tested)
05 [3377bdf6] (00/13) No match (V2 was not tested)
06 [225e5a61] (00/14) No match (V2 was not tested)
07 [01400fa9] (00/14) No match (V2 was not tested)
08 [4ebb1907] (00/14) No match (V2 was not tested)
09 [5d991315] (00/14) No match (V2 was not tested)
10 [eedc0496] (00/14) No match (V2 was not tested)
11 [5757fc6f] (00/13) No match (V2 was not tested)
12 [0a685dad] (00/13) No match (V2 was not tested)
13 [bd98c016] (00/13) No match (V2 was not tested)
14 [c08864ed] (00/13) No match (V2 was not tested)
Offsetted by 6:
01 [6df685c2] (00/13) No match (V2 was not tested)
02 [09bf7aa3] (00/14) No match (V2 was not tested)
03 [a8e14f68] (00/14) No match (V2 was not tested)
04 [b796331a] (00/14) No match (V2 was not tested)
05 [9b0984ba] (00/13) No match (V2 was not tested)
06 [2ac423c7] (00/14) No match (V2 was not tested)
07 [e6523703] (00/14) No match (V2 was not tested)
08 [f38ec2f5] (00/14) No match (V2 was not tested)
09 [686ff501] (00/14) No match (V2 was not tested)
10 [fea405c5] (00/14) No match (V2 was not tested)
11 [c110f897] (00/13) No match (V2 was not tested)
12 [0ec9f4a9] (00/13) No match (V2 was not tested)
13 [b72ee872] (00/13) No match (V2 was not tested)
14 [2bca8271] (00/13) No match (V2 was not tested)

Track Peak [ CRC32 ] [W/O NULL] [ LOG ]
– 98,0 [8282595A] [BEBE4160] CRC32
01 96,5 [98E856F2] [553C16F1]
02 96,9 [3DCF5D59] [CF4976C9]
03 98,0 [31CF963F] [EF84250D]
04 95,5 [DA356714] [F48F0F52]
05 96,6 [6CFF687E] [B98530D6]
06 93,1 [6F137956] [B0EAB389]
07 97,2 [B4483B92] [5565443D]
08 97,6 [70531E87] [376C1AB8]
09 52,8 [430FFA43] [CCC0A506]
10 97,3 [77A9652E] [779F4FF1]
11 82,3 [40E7FE0F] [EE77AE09]
12 95,8 [05718BB5] [01980D39]
13 97,2 [C4276163] [88A81D96]
14 97,4 [08D97421] [F1AC1377]


VA - The Ultimate James Bond Film Music Collection (2006)

Tracklist CD4:

1. Wine With Stacy/Fanfare/Snow Job (A View To Kill)
2. Koskov Escapes/Hercules Take Off (The Living Daylights)
3. Mujahadin/Afghanistan Plan (The Living Daylights)
4. Air Bond/Necros Attacks (The Living Daylights)
5. End Title (The Living Daylights)
6. Suite (License To Kill)
7. Goldeneye (Goldeneye)
8. Tank Drive Around St. Petersburg (Goldeneye)
9. Tomorrow Never Dies (Tomorrow Never Dies)
10. Surrender (Tomorrow Never Dies)
11. Ice Bandits (The World Is Not Enough)
12. Access Denied (The World Is Not Enough)
13. The World Is Not Enough (The World Is Not Enough)
14. Die Another Day (Die Another Day)
15. Going Down Together (Die Another Day)
16. The James Bond Theme (Symphonic Version) (The James Bond Theme)

Bonus Tracks:
17. Never Say Never Again (The Unofficial James Bond)
18. The Look Of Love (Casino Royale 1967)
19. Casino Royale (Casino Roayle 1967)

Exact Audio Copy V0.99 prebeta 5 from 4. May 2009

EAC extraction logfile from 24. October 2009, 22:25

Various Artists / The Ultimate James Bond Film Music Collection (CD4)

Used drive : SONY DVD RW DW-Q58A Adapter: 1 ID: 1

Read mode : Secure
Utilize accurate stream : Yes
Defeat audio cache : Yes
Make use of C2 pointers : No

Read offset correction : 6
Overread into Lead-In and Lead-Out : No
Fill up missing offset samples with silence : Yes
Delete leading and trailing silent blocks : No
Null samples used in CRC calculations : Yes
Used interface : Installed external ASPI interface

Used output format : Internal WAV Routines
Sample format : 44.100 Hz; 16 Bit; Stereo


TOC of the extracted CD

Track | Start | Length | Start sector | End sector
––––––––––––––––––––––––––––-
1 | 0:00.00 | 4:48.17 | 0 | 21616
2 | 4:48.17 | 2:59.62 | 21617 | 35103
3 | 7:48.04 | 4:12.01 | 35104 | 54004
4 | 12:00.05 | 3:27.20 | 54005 | 69549
5 | 15:27.25 | 3:03.32 | 69550 | 83306
6 | 18:30.57 | 4:59.22 | 83307 | 105753
7 | 23:30.04 | 4:06.09 | 105754 | 124212
8 | 27:36.13 | 5:53.35 | 124213 | 150722
9 | 33:29.48 | 4:46.50 | 150723 | 172222
10 | 38:16.23 | 3:40.47 | 172223 | 188769
11 | 41:56.70 | 3:41.29 | 188770 | 205373
12 | 45:38.24 | 1:35.38 | 205374 | 212536
13 | 47:13.62 | 3:55.35 | 212537 | 230196
14 | 51:09.22 | 4:00.72 | 230197 | 248268
15 | 55:10.19 | 2:49.71 | 248269 | 261014
16 | 58:00.15 | 3:04.07 | 261015 | 274821
17 | 61:04.22 | 3:09.25 | 274822 | 289021
18 | 64:13.47 | 3:46.21 | 289022 | 305992
19 | 67:59.68 | 2:35.16 | 305993 | 317633


Range status and errors

Selected range

Filename I:\James Bond Ultimate\Disc4\Various Artists - The Ultimate James Bond Film Music Collection (CD4).wav

Peak level 98.3 %
Range quality 99.9 %
Copy CRC 4573AB51
Copy OK

No errors occurred


AccurateRip summary

Track 1 not present in database
Track 2 not present in database
Track 3 not present in database
Track 4 not present in database
Track 5 not present in database
Track 6 not present in database
Track 7 not present in database
Track 8 not present in database
Track 9 not present in database
Track 10 not present in database
Track 11 not present in database
Track 12 not present in database
Track 13 not present in database
Track 14 not present in database
Track 15 not present in database
Track 16 not present in database
Track 17 not present in database
Track 18 not present in database
Track 19 not present in database

None of the tracks are present in the AccurateRip database

End of status report


foobar2000 1.2.9 / Dynamic Range Meter 1.1.1
log date: 2017-06-06 16:40:12

––––––––––––––––––––––––––––––––––––––––
Analyzed: Prague Philharmonic Orchestra / The Ultimate James Bond Film Music Collection (CD4)
––––––––––––––––––––––––––––––––––––––––

DR Peak RMS Duration Track
––––––––––––––––––––––––––––––––––––––––
DR10 -0.25 dB -14.40 dB 4:48 01-A View To a Kill (Wine with Stacy/Fanfare/Snow Job)
DR10 -0.40 dB -12.89 dB 3:00 02-The Living Daylights (Koskov Escapes/Hercules Takes Off)
DR13 -0.96 dB -17.82 dB 4:12 03-The Living Daylights (Mujahadin/Afghanistan Plan)
DR9 -0.37 dB -11.50 dB 3:27 04-The Living Daylights (Air Bond/Necros Attacks)
DR11 -1.61 dB -16.28 dB 3:03 05-The Living Daylights (End Title)
DR11 -0.31 dB -16.95 dB 4:59 06-License to Kill (Suite)
DR8 -0.26 dB -11.63 dB 4:06 07-Goldeneye (Goldeneye)
DR10 -0.29 dB -13.87 dB 5:53 08-Goldeneye (Tank Drive Around St. Petersburg)
DR9 -0.34 dB -11.73 dB 4:47 09-Tomorrow Never Dies (Tomorrow Never Dies)
DR10 -0.21 dB -12.43 dB 3:41 10-Tomorrow Never Dies (Surrender)
DR9 -0.24 dB -10.61 dB 3:41 11-The World is Not Enough (Ice Bandits)
DR10 -4.32 dB -18.63 dB 1:36 12-The World is Not Enough (Access Denied)
DR9 -0.14 dB -11.54 dB 3:55 13-The World is Not Enough (The World is Not Enough)
DR7 -0.51 dB -9.69 dB 4:01 14-Die Another Day (Die Another Day)
DR10 -0.52 dB -13.96 dB 2:50 15-Gie Another Day (Going Down Together)
DR8 -0.24 dB -11.03 dB 3:04 16-The James Bond Theme (Symphonic)
DR8 -0.39 dB -10.93 dB 3:09 17-Never Say Never Again (Never Say Never Again)
DR8 -0.31 dB -11.68 dB 3:46 18-Casino Royale 1967 (The Look of Love)
DR8 -0.43 dB -10.75 dB 2:35 19-Casino Royale 1967 (Casino Royale)
––––––––––––––––––––––––––––––––––––––––

Number of tracks: 19
Official DR value: DR9

Samplerate: 44100 Hz
Channels: 2
Bits per sample: 16
Bitrate: 824 kbps
Codec: FLAC
================================================================================



[CUETools log; Date: 06.06.2017 16:40:14; Version: 2.1.4]
HDCD: peak extend: yes, transient filter: none, gain: none
[CTDB TOCID: KTujuGWy1JAKlTnI1LQp8_iv.Jg-] found.
Track | CTDB Status
1 | (17/17) Accurately ripped
2 | (17/17) Accurately ripped
3 | (17/17) Accurately ripped
4 | (17/17) Accurately ripped
5 | (17/17) Accurately ripped
6 | (17/17) Accurately ripped
7 | (17/17) Accurately ripped
8 | (17/17) Accurately ripped
9 | (17/17) Accurately ripped
10 | (17/17) Accurately ripped
11 | (17/17) Accurately ripped
12 | (17/17) Accurately ripped
13 | (17/17) Accurately ripped
14 | (17/17) Accurately ripped
15 | (17/17) Accurately ripped
16 | (17/17) Accurately ripped
17 | (17/17) Accurately ripped
18 | (17/17) Accurately ripped
19 | (16/17) Accurately ripped
[AccurateRip ID: 00331e71-02c56c5f-fc108b13] found.
Track [ CRC | V2 ] Status
01 [94422618|ed0e2d73] (00+03/17) Accurately ripped
02 [ad9bdb0c|26ed01ce] (00+03/17) Accurately ripped
03 [b878a1fa|895fe491] (00+03/17) Accurately ripped
04 [bab50aa7|6639cc59] (00+03/17) Accurately ripped
05 [21b5cc52|81907bd3] (00+03/17) Accurately ripped
06 [1d155f24|267f17c1] (00+03/17) Accurately ripped
07 [0aa11b36|c1b7467f] (00+03/16) Accurately ripped
08 [e82c0cbc|5c56a85c] (00+03/17) Accurately ripped
09 [b726f9f5|87776b28] (00+03/17) Accurately ripped
10 [630a6202|667cb427] (00+03/17) Accurately ripped
11 [95baa0d2|0ae94bfc] (00+03/17) Accurately ripped
12 [b09ae472|babec812] (00+03/17) Accurately ripped
13 [d4bc4dae|d8653cff] (00+03/17) Accurately ripped
14 [43b31c6d|2f117d46] (00+03/17) Accurately ripped
15 [37bf0066|16da71b9] (00+03/17) Accurately ripped
16 [6e01f80e|10b7206e] (00+03/17) Accurately ripped
17 [c4552eb5|ddcd51b9] (00+03/17) Accurately ripped
18 [0e158a48|d2cf3bfd] (00+03/17) Accurately ripped
19 [0dc44942|37ed57a8] (00+03/17) Accurately ripped
Offsetted by -30:
01 [83e7d054] (02/17) Accurately ripped
02 [de76867e] (02/17) Accurately ripped
03 [5c4327c3] (02/17) Accurately ripped
04 [cdec0a04] (02/17) Accurately ripped
05 [fa41683d] (02/17) Accurately ripped
06 [f5624f2e] (02/17) Accurately ripped
07 [77b214a0] (02/16) Accurately ripped
08 [1ec8f0ed] (02/17) Accurately ripped
09 [cd07168f] (02/17) Accurately ripped
10 [c6f78b01] (02/17) Accurately ripped
11 [61d20127] (02/17) Accurately ripped
12 [c90e4988] (02/17) Accurately ripped
13 [c743f6ec] (02/17) Accurately ripped
14 [2ead6978] (02/17) Accurately ripped
15 [bc21ec4b] (02/17) Accurately ripped
16 [63c92910] (02/17) Accurately ripped
17 [98a601ad] (02/17) Accurately ripped
18 [919af807] (02/17) Accurately ripped
19 [530893a5] (02/17) Accurately ripped
Offsetted by 6:
01 [3121040c] (00/17) No match (V2 was not tested)
02 [98f938a0] (00/17) No match (V2 was not tested)
03 [38d4f922] (00/17) No match (V2 was not tested)
04 [e8ce5673] (00/17) No match (V2 was not tested)
05 [c423c45b] (00/17) No match (V2 was not tested)
06 [a1050538] (00/17) No match (V2 was not tested)
07 [da55ebeb] (00/16) No match (V2 was not tested)
08 [43e0df06] (00/17) No match (V2 was not tested)
09 [f0521d65] (00/17) No match (V2 was not tested)
10 [1c35b87e] (00/17) No match (V2 was not tested)
11 [a040c0c0] (00/17) No match (V2 was not tested)
12 [44e79e9c] (00/17) No match (V2 was not tested)
13 [5afe7778] (00/17) No match (V2 was not tested)
14 [cb2a68ac] (00/17) No match (V2 was not tested)
15 [1e1304f7] (00/17) No match (V2 was not tested)
16 [3cda2174] (00/17) No match (V2 was not tested)
17 [0a3aa921] (00/17) No match (V2 was not tested)
18 [4f6a3da4] (00/17) No match (V2 was not tested)
19 [000d0738] (00/17) No match (V2 was not tested)

Track Peak [ CRC32 ] [W/O NULL] [ LOG ]
– 98,3 [4573AB51] [2862870E] CRC32
01 97,1 [EF6FF449] [75207ADD]
02 95,4 [79BA46B9] [79939ABA]
03 89,5 [E1E9156E] [1FDC4D7B]
04 95,7 [A4C6C169] [9FFBE7D5]
05 83,1 [18AD64F5] [8C7FFED4]
06 96,5 [295A15DC] [7D5821E4]
07 97,0 [E6A67507] [0135C026]
08 96,7 [DFDBBCD2] [FDAAA029]
09 96,1 [79F8B978] [E9C182BC]
10 97,6 [251A3539] [A103D555]
11 97,2 [99CB8DEA] [A337BB73]
12 60,7 [34276283] [79E5BBB1]
13 98,3 [7CC62686] [DF0689C8]
14 94,2 [A2ECE067] [D915756E]
15 94,1 [571B29B7] [40432195]
16 97,2 [7483B330] [13933AE2]
17 95,5 [C0DD1419] [6E62B652]
18 96,5 [32568687] [7406A42E]
19 95,1 [429DCE9F] [B3B21922]


VA - The Ultimate James Bond Film Music Collection (2006)

All thanks go to borsland

Download VA - The Ultimate James Bond Film Music Collection (2006):