Subcategories

VA - The Very Best Of MTV Unplugged Vol. 1, 2 (2002, 2003)

Posted By: v3122
VA - The Very Best Of MTV Unplugged Vol. 1, 2 (2002, 2003)

VA - The Very Best Of MTV Unplugged Vol. 1, 2 (2002, 2003)
EAC | Flac(Image) + Cue + Log & MP3 CBR 320Kbps
2CD | Universal, 583 545-2 & 5046-62383-2 | ~ 979 or 373 Mb | Scans(jpg) -> 182 Mb
Blues Rock, Acoustic, Folk Rock, Pop Rock, Classic Rock

The Very Best Of MTV Unplugged Vol. 1

As one of the most highly acclaimed series in the history of MTV, Unplugged afforded the opportunity for some of commercial music's most praised entertainers (as well as those musicians with a bit more artistic merit) to spotlight their hit songs in a different context. The show was met with surprisingly high acclaim and viewership, and everyone and their brother signed up for an "acoustic" session. Very Best of MTV Unplugged compiles some of the series most lauded moments, most notably Eric Clapton's smash performance of "Tears in Heaven." However, this is by no means a complete document of the sheer depth of talent that the show has provided over the years, nor is it indicative of the diversity that has been showcased. Aside from R.E.M., many notable performances from the show's early years (which featured, among others, the Cure and 10,000 Maniacs with their memorable rendition of "Because the Night") are conspicuously absent from the disc, as well as performances from the landmark Unplugged hip-hop sessions. Those issues aside, memorable performances do abound here, from some of the most important names in the history of pop music.

The Very Best Of MTV Unplugged Vol. 2

The second volume of The Very Best of MTV Unplugged digs a little deeper into the long-running show's archives and manages to pull out a healthy number of unreleased tracks along the way. The Unplugged series always seemed to be a stab at depth for a station that was focused on surface and image above all, and it worked, both for MTV and the artists who appeared on the show. The best moments here are the ones that take the biggest chances, offering different arrangements of songs, like the string-heavy version of "Zombie" by the Cranberries and the interestingly jazzy yet still overproduced Phil Collins with "In the Air Tonight." Both of those songs see release for the first time here, along with six others from Chris Isaak, R.E.M., Tori Amos, Seal, Elton John, and Sheryl Crow. Other artists represented are perennial faves Bob Dylan and Eric Clapton along with the hopelessly outdated Midnight Oil and furiously eccentric Björk, whose harpsichord-backed "Human Behaviour" is another highlight.

~ allmusic
VA - The Very Best Of MTV Unplugged Vol. 1, 2 (2002, 2003)

VA - The Very Best Of MTV Unplugged Vol. 1 (2002) Repost:

VA - The Very Best Of MTV Unplugged Vol. 1, 2 (2002, 2003)

Tracklist:

01. Eric Clapton - Tears In Heaven (4:37)
02. Alanis Morissette - Ironic (3:52)
03. R.E.M. - Losing My Religion (4:38)
04. Sheryl Crow - Strong Enough (3:10)
05. Lenny Kravitz - Are You Gonna Go My Way (6:16)
06. Jimmy Page & Robert Plant - Gallows Pole (4:14)
07. Bryan Adams - Summer Of '69 (3:58)
08. Paul Simon - Mrs. Robinson (3:05)
09. Annie Lennox - Here Comes The Rain Again (4:29)
10. Paul McCartney - Every Night (3:19)
11. Rod Stewart - Tonight's The Night (Gonna Be Alright) (3:59)
12. Cranberries, The - Linger (5:04)
13. k.d. lang - Constant Craving (4:28)
14. Corrs, The - What Can I Do? (4:29)
15. Seal - Kiss From A Rose (4:16)
16. Live - Lightning Crashes (5:21)
17. Noel Gallagher - Don't Look Back In Anger (4:35)
18. Sting - Walking On The Moon (3:14)

Exact Audio Copy V1.0 beta 3 from 29. August 2011

Отчёт EAC об извлечении, выполненном 29. марта 2014, 19:08

Various / The Very Best Of MTV Unplugged

Дисковод: ASUS DRW-22B2ST Adapter: 0 ID: 0

Режим чтения : Достоверность
Использование точного потока : Да
Отключение кэша аудио : Да
Использование указателей C2 : Нет

Коррекция смещения при чтении : 6
Способность читать области Lead-in и Lead-out : Нет
Заполнение пропущенных сэмплов тишиной : Да
Удаление блоков с тишиной в начале и конце : Нет
При вычислениях CRC использовались нулевые сэмплы : Да
Интерфейс : Встроенный Win32-интерфейс для Win NT/2000

Выходной формат : Внутренние WAV-операции
Формат сэмплов : 44.100 Гц; 16 бит; стерео


TOC извлечённого CD

Трек | Старт | Длительность | Начальный сектор | Конечный сектор
––––––––––––––––––––––––––––––––––-
1 | 0:00.05 | 4:36.63 | 5 | 20767
2 | 4:36.68 | 3:51.48 | 20768 | 38140
3 | 8:28.41 | 4:37.42 | 38141 | 58957
4 | 13:06.08 | 3:10.33 | 58958 | 73240
5 | 16:16.41 | 6:15.49 | 73241 | 101414
6 | 22:32.15 | 4:13.61 | 101415 | 120450
7 | 26:46.01 | 3:58.20 | 120451 | 138320
8 | 30:44.21 | 3:04.44 | 138321 | 152164
9 | 33:48.65 | 4:29.25 | 152165 | 172364
10 | 38:18.15 | 3:18.41 | 172365 | 187255
11 | 41:36.56 | 3:59.19 | 187256 | 205199
12 | 45:36.00 | 5:03.74 | 205200 | 227998
13 | 50:39.74 | 4:27.57 | 227999 | 248080
14 | 55:07.56 | 4:29.27 | 248081 | 268282
15 | 59:37.08 | 4:16.10 | 268283 | 287492
16 | 63:53.18 | 5:21.12 | 287493 | 311579
17 | 69:14.30 | 4:34.55 | 311580 | 332184
18 | 73:49.10 | 3:14.22 | 332185 | 346756


Характеристики диапазона извлечения и сообщения об ошибках

Выбранный диапазон

Имя файла D:\Various - The Very Best Of MTV Unplugged.wav

Пиковый уровень 96.4 %
Скорость извлечения 9.6 X
Качество диапазона 99.9 %
CRC теста D450B869
CRC копии D450B869
Копирование… OK

Ошибок не произошло


AccurateRip: сводка

Трек 1 : извлечено точно (доверие 100) [668EF5E3] (AR v2)
Трек 2 : извлечено точно (доверие 100) [F5F0AC22] (AR v2)
Трек 3 : извлечено точно (доверие 100) [E92197C6] (AR v2)
Трек 4 : извлечено точно (доверие 101) [4103579E] (AR v2)
Трек 5 : извлечено точно (доверие 101) [2055902C] (AR v2)
Трек 6 : извлечено точно (доверие 99) [694A9BBE] (AR v2)
Трек 7 : извлечено точно (доверие 101) [E426DD6D] (AR v2)
Трек 8 : извлечено точно (доверие 101) [FAC727A0] (AR v2)
Трек 9 : извлечено точно (доверие 100) [2864E995] (AR v2)
Трек 10 : извлечено точно (доверие 100) [DA8F1F52] (AR v2)
Трек 11 : извлечено точно (доверие 101) [004D9E94] (AR v2)
Трек 12 : извлечено точно (доверие 100) [17916508] (AR v2)
Трек 13 : извлечено точно (доверие 100) [C0B8DF4A] (AR v2)
Трек 14 : извлечено точно (доверие 97) [654B14F0] (AR v2)
Трек 15 : извлечено точно (доверие 98) [2C595F71] (AR v2)
Трек 16 : извлечено точно (доверие 96) [A6CCDF71] (AR v2)
Трек 17 : извлечено точно (доверие 99) [7A391979] (AR v2)
Трек 18 : извлечено точно (доверие 96) [2339EF88] (AR v2)

Все треки извлечены точно

Конец отчёта

–– CUETools DB Plugin V2.1.3

[CTDB TOCID: A1yS2DAh0dBfd98O_26sVg0ABqM-] found, Submit result: discs with pregaps not supported in this protocol version
[94945e1a] (145/145) Accurately ripped


==== Контрольная сумма отчёта 2FFA9C50300A28045E91D7A7055798380C232DF85D36E79DD8F85B375A34F886 ====


[CUETools log; Date: 20.07.2018 13:29:57; Version: 2.1.5]
Pregap length 00:00:05.
[CTDB TOCID: A1yS2DAh0dBfd98O_26sVg0ABqM-] found.
Track | CTDB Status
1 | (296/301) Accurately ripped
2 | (295/301) Accurately ripped
3 | (294/301) Accurately ripped
4 | (294/301) Accurately ripped
5 | (293/301) Accurately ripped
6 | (287/301) Accurately ripped
7 | (293/301) Accurately ripped
8 | (294/301) Accurately ripped
9 | (292/301) Accurately ripped
10 | (293/301) Accurately ripped
11 | (291/301) Accurately ripped
12 | (292/301) Accurately ripped
13 | (292/301) Accurately ripped
14 | (293/301) Accurately ripped
15 | (291/301) Accurately ripped
16 | (286/301) Accurately ripped
17 | (290/301) Accurately ripped
18 | (289/301) Accurately ripped
[AccurateRip ID: 00323628-029d35f2-0b120f12] found.
Track [ CRC | V2 ] Status
01 [6361d4d9|668ef5e3] (147+193/362) Accurately ripped
02 [826b01c6|f5f0ac22] (147+192/361) Accurately ripped
03 [f3d03cc6|e92197c6] (147+192/363) Accurately ripped
04 [4321b026|4103579e] (147+193/363) Accurately ripped
05 [b217afca|2055902c] (147+194/365) Accurately ripped
06 [d8a78b59|694a9bbe] (145+190/357) Accurately ripped
07 [9d9d62ae|e426dd6d] (147+193/362) Accurately ripped
08 [a7873029|fac727a0] (147+193/364) Accurately ripped
09 [a80f6cf2|2864e995] (146+192/360) Accurately ripped
10 [364a855f|da8f1f52] (146+192/361) Accurately ripped
11 [3743256b|004d9e94] (147+194/365) Accurately ripped
12 [8cc2474c|17916508] (147+193/362) Accurately ripped
13 [3a1943b7|c0b8df4a] (146+192/362) Accurately ripped
14 [44158558|654b14f0] (145+190/357) Accurately ripped
15 [a1d885bf|2c595f71] (147+191/360) Accurately ripped
16 [18871ae8|a6ccdf71] (145+187/352) Accurately ripped
17 [efce04e6|7a391979] (144+190/355) Accurately ripped
18 [d6def1c2|2339ef88] (142+184/349) Accurately ripped
Offsetted by -649:
01 [bb4867d2] (003/362) Accurately ripped
02 [90ec0398] (003/361) Accurately ripped
03 [173caa18] (003/363) Accurately ripped
04 [ad31b97e] (003/363) Accurately ripped
05 [56eb9087] (003/365) Accurately ripped
06 [4fe83bea] (003/357) Accurately ripped
07 [ff10bca2] (003/362) Accurately ripped
08 [0aaa2793] (003/364) Accurately ripped
09 [e51de09f] (003/360) Accurately ripped
10 [491d684c] (003/361) Accurately ripped
11 [93bfdcc7] (003/365) Accurately ripped
12 [1fd0814f] (003/362) Accurately ripped
13 [65dd9d60] (003/362) Accurately ripped
14 [1c374563] (003/357) Accurately ripped
15 [b9760784] (003/360) Accurately ripped
16 [ebdc1d46] (003/352) Accurately ripped
17 [0870f298] (003/355) Accurately ripped
18 [22e0fe95] (003/349) Accurately ripped
Offsetted by -646:
01 [1f763feb] (003/362) Accurately ripped
02 [b3a4e30f] (003/361) Accurately ripped
03 [d7ed155d] (003/363) Accurately ripped
04 [fb65db0a] (003/363) Accurately ripped
05 [ba5f4c33] (003/365) Accurately ripped
06 [2862c891] (003/357) Accurately ripped
07 [6f3dd8af] (003/362) Accurately ripped
08 [d224dc51] (003/364) Accurately ripped
09 [c9fbd5fa] (003/360) Accurately ripped
10 [00b76748] (002/361) Accurately ripped
11 [d03c599c] (003/365) Accurately ripped
12 [0ba8791f] (003/362) Accurately ripped
13 [6c8923b0] (003/362) Accurately ripped
14 [a4155bbb] (003/357) Accurately ripped
15 [2c979ec0] (003/360) Accurately ripped
16 [c7617010] (003/352) Accurately ripped
17 [4cfbaef4] (002/355) Accurately ripped
18 [14ee0162] (003/349) Accurately ripped
Offsetted by -1310:
01 [503753dc] (000/362) No match (V2 was not tested)
02 [b62aa1fb] (000/361) No match (V2 was not tested)
03 [c890e6e4] (000/363) No match (V2 was not tested)
04 [02a9f0ba] (000/363) No match (V2 was not tested)
05 [d1314be4] (000/365) No match (V2 was not tested)
06 [7fd96983] (000/357) No match (V2 was not tested)
07 [5ef7114a] (000/362) No match (V2 was not tested)
08 [994e087b] (000/364) No match (V2 was not tested)
09 [a041019d] (000/360) No match (V2 was not tested)
10 [b34a82e7] (000/361) No match (V2 was not tested)
11 [922605eb] (000/365) No match (V2 was not tested)
12 [10a30ef3] (000/362) No match (V2 was not tested)
13 [8840c461] (000/362) No match (V2 was not tested)
14 [298efbf2] (000/357) No match (V2 was not tested)
15 [bdbec5f4] (000/360) No match (V2 was not tested)
16 [8307da8a] (000/352) No match (V2 was not tested)
17 [385522bf] (000/355) No match (V2 was not tested)
18 [87fef11c] (000/349) No match (V2 was not tested)
Offsetted by -1292:
01 [5bfc9822] (000/362) No match (V2 was not tested)
02 [38cb2fa4] (000/361) No match (V2 was not tested)
03 [6981a4d6] (000/363) No match (V2 was not tested)
04 [a3a3bd40] (000/363) No match (V2 was not tested)
05 [c8fd1da8] (000/365) No match (V2 was not tested)
06 [4ff696af] (000/357) No match (V2 was not tested)
07 [f0b2c1a7] (000/362) No match (V2 was not tested)
08 [beca94c8] (000/364) No match (V2 was not tested)
09 [23952699] (000/360) No match (V2 was not tested)
10 [34f88839] (000/361) No match (V2 was not tested)
11 [5f9c36f4] (000/365) No match (V2 was not tested)
12 [7e0b54f3] (000/362) No match (V2 was not tested)
13 [35e4f0f6] (000/362) No match (V2 was not tested)
14 [7df03cec] (000/357) No match (V2 was not tested)
15 [31cca1e5] (000/360) No match (V2 was not tested)
16 [f7cc95bd] (000/352) No match (V2 was not tested)
17 [9a647a36] (000/355) No match (V2 was not tested)
18 [bc1a5766] (000/349) No match (V2 was not tested)
Offsetted by -702:
01 [d82cd9ff] (000/362) No match (V2 was not tested)
02 [feddda99] (000/361) No match (V2 was not tested)
03 [1c3fb332] (000/363) No match (V2 was not tested)
04 [f6fb7bb6] (000/363) No match (V2 was not tested)
05 [abba408d] (000/365) No match (V2 was not tested)
06 [22071f90] (000/357) No match (V2 was not tested)
07 [c1a3ca8c] (000/362) No match (V2 was not tested)
08 [7c17bc3c] (000/364) No match (V2 was not tested)
09 [1a418892] (000/360) No match (V2 was not tested)
10 [fac45919] (000/361) No match (V2 was not tested)
11 [3d064d78] (000/365) No match (V2 was not tested)
12 [d982d10b] (000/362) No match (V2 was not tested)
13 [f465ea97] (000/362) No match (V2 was not tested)
14 [5b97216a] (000/357) No match (V2 was not tested)
15 [cdf9dd9e] (000/360) No match (V2 was not tested)
16 [f6a72704] (000/352) No match (V2 was not tested)
17 [a393bb9b] (000/355) No match (V2 was not tested)
18 [db86e306] (000/349) No match (V2 was not tested)
Offsetted by -676:
01 [4cbd92c0] (000/362) No match (V2 was not tested)
02 [6072616a] (000/361) No match (V2 was not tested)
03 [80499345] (000/363) No match (V2 was not tested)
04 [00291324] (000/363) No match (V2 was not tested)
05 [d5a8ff95] (000/365) No match (V2 was not tested)
06 [c851e97d] (000/357) No match (V2 was not tested)
07 [7a203a29] (000/362) No match (V2 was not tested)
08 [cb754a87] (000/364) No match (V2 was not tested)
09 [c3ad1bf2] (000/360) No match (V2 was not tested)
10 [ea2ebd56] (000/361) No match (V2 was not tested)
11 [184e07ec] (000/365) No match (V2 was not tested)
12 [f5ece809] (000/362) No match (V2 was not tested)
13 [b4f61896] (000/362) No match (V2 was not tested)
14 [0c67ce4f] (000/357) No match (V2 was not tested)
15 [587bd70a] (000/360) No match (V2 was not tested)
16 [e9afb70c] (000/352) No match (V2 was not tested)
17 [01c9d1d2] (000/355) No match (V2 was not tested)
18 [75a05c08] (000/349) No match (V2 was not tested)
Offsetted by -71:
01 [182d73a5] (000/362) No match (V2 was not tested)
02 [cdc994e6] (000/361) No match (V2 was not tested)
03 [30dc7b24] (000/363) No match (V2 was not tested)
04 [c150e625] (000/363) No match (V2 was not tested)
05 [7a12c309] (000/365) No match (V2 was not tested)
06 [c9d0b7c0] (000/357) No match (V2 was not tested)
07 [005147ee] (000/362) No match (V2 was not tested)
08 [c5903a4a] (000/364) No match (V2 was not tested)
09 [5e31041c] (000/360) No match (V2 was not tested)
10 [58f4111a] (000/361) No match (V2 was not tested)
11 [ee6891bd] (000/365) No match (V2 was not tested)
12 [46c7c028] (000/362) No match (V2 was not tested)
13 [e556d91a] (000/362) No match (V2 was not tested)
14 [b2abd9b6] (000/357) No match (V2 was not tested)
15 [321d9083] (000/360) No match (V2 was not tested)
16 [f2cd6297] (000/352) No match (V2 was not tested)
17 [1006decb] (000/355) No match (V2 was not tested)
18 [1ee888e0] (000/349) No match (V2 was not tested)
Offsetted by -6:
01 [bb87e06d] (002/362) Accurately ripped
02 [ef691239] (002/361) Accurately ripped
03 [8701bf08] (002/363) Accurately ripped
04 [6b868744] (002/363) Accurately ripped
05 [5026cb25] (002/365) Accurately ripped
06 [6d391c4c] (002/357) Accurately ripped
07 [4653fd3f] (002/362) Accurately ripped
08 [5a7b3d78] (002/364) Accurately ripped
09 [24e00782] (000/360) No match (V2 was not tested)
10 [dd7c86e4] (002/361) Accurately ripped
11 [192df2f9] (002/365) Accurately ripped
12 [9611437a] (000/362) No match (V2 was not tested)
13 [0ca171e9] (002/362) Accurately ripped
14 [460aa96a] (000/357) No match (V2 was not tested)
15 [af39f852] (000/360) No match (V2 was not tested)
16 [370742f8] (000/352) No match (V2 was not tested)
17 [661dc09a] (000/355) No match (V2 was not tested)
18 [5e579805] (002/349) Accurately ripped
Offsetted by 6:
01 [fda9620f] (000/362) No match (V2 was not tested)
02 [a9a12aaa] (000/361) No match (V2 was not tested)
03 [0ab529e8] (000/363) No match (V2 was not tested)
04 [aaa7fa4c] (000/363) No match (V2 was not tested)
05 [477d0e8c] (000/365) No match (V2 was not tested)
06 [6815e387] (000/357) No match (V2 was not tested)
07 [ee73be5b] (000/362) No match (V2 was not tested)
08 [14f2368f] (000/364) No match (V2 was not tested)
09 [cc170b12] (000/360) No match (V2 was not tested)
10 [70890dd7] (000/361) No match (V2 was not tested)
11 [2df5e557] (000/365) No match (V2 was not tested)
12 [668c0aa0] (000/362) No match (V2 was not tested)
13 [584ea092] (000/362) No match (V2 was not tested)
14 [05dbcd1c] (000/357) No match (V2 was not tested)
15 [f5b7aeb4] (000/360) No match (V2 was not tested)
16 [8e6e5690] (000/352) No match (V2 was not tested)
17 [9df64256] (000/355) No match (V2 was not tested)
18 [138497cd] (000/349) No match (V2 was not tested)

Track Peak [ CRC32 ] [W/O NULL] [ LOG ]
– 96,4 [D450B869] [CF086EF6] CRC32
01 77,5 [0B2165C4] [13DB063E]
02 77,6 [2ACCC445] [D9DA9EAB]
03 86,4 [1E38F9CC] [258A0218]
04 91,7 [270D71D1] [DF2DE38A]
05 95,7 [4F540A30] [33004701]
06 90,3 [D8AB8CDA] [D1D13BE0]
07 83,0 [135C74A1] [EB7161A8]
08 89,0 [46A7C5B6] [E6D05C5A]
09 87,8 [49D0AFAE] [A54B9490]
10 90,0 [2003DA64] [672BC16A]
11 96,4 [A438CF8B] [3DEDDDA1]
12 90,5 [5645DAFE] [9DE6D95B]
13 96,1 [5158BA47] [317EA6DD]
14 81,8 [0C583A82] [D42C8021]
15 93,2 [D8537B1F] [1B337FB9]
16 92,9 [FE2C6F0D] [B506504F]
17 90,8 [CBBCE1E6] [556587BC]
18 72,9 [550EFC21] [0F69AA9D]


VA - The Very Best Of MTV Unplugged Vol. 1, 2 (2002, 2003)

* * *

VA - The Very Best Of MTV Unplugged Vol. 1, 2 (2002, 2003)

VA - The Very Best Of MTV Unplugged Vol. 2 (2003) Repost:

VA - The Very Best Of MTV Unplugged Vol. 1, 2 (2002, 2003)

Tracklist:

01. Sting - Every Breath You Take (5:07)
02. Chris Isaak - Wicked Game (4:54)
03. The Cranberries - Zombie (4:17)
04. R.E.M. - Imitation of Life (4:07)
05. Eric Clapton - Layla (4:20)
06. Crowded House - Four Seasons in One Day (2:46)
07. Tori Amos - Cornflake Girl (5:32)
08. Rod Stewart - Have I Told You Lately (That I Love You) (3:59)
09. Bob Dylan - Like a Rolling Stone (8:29)
10. Bjork - Human Behaviour (3:24)
11. Seal - Crazy (4:49)
12. Midnight Oil - Beds Are Burning (4:49)
13. Sheryl Crow - Run, Baby, Run (5:05)
14. Bryan Adams - I'm Ready (4:26)
15. Phil Collins - In the Air Tonight (4:58)
16. Elton John - Don't Let the Sun Go Down on Me (6:55)

Exact Audio Copy V1.0 beta 3 from 29. August 2011

EAC extraction logfile from 29. January 2015, 20:11

Various Artists / The Very Best of MTV Unplugged, Volume 2

Used drive : ASUS DRW-22B2ST Adapter: 0 ID: 0

Read mode : Secure
Utilize accurate stream : Yes
Defeat audio cache : Yes
Make use of C2 pointers : No

Read offset correction : 6
Overread into Lead-In and Lead-Out : No
Fill up missing offset samples with silence : Yes
Delete leading and trailing silent blocks : No
Null samples used in CRC calculations : Yes
Used interface : Native Win32 interface for Win NT & 2000

Used output format : Internal WAV Routines
Sample format : 44.100 Hz; 16 Bit; Stereo


TOC of the extracted CD

Track | Start | Length | Start sector | End sector
––––––––––––––––––––––––––––-
1 | 0:00.00 | 5:07.02 | 0 | 23026
2 | 5:07.02 | 4:54.08 | 23027 | 45084
3 | 10:01.10 | 4:17.22 | 45085 | 64381
4 | 14:18.32 | 4:07.19 | 64382 | 82925
5 | 18:25.51 | 4:20.33 | 82926 | 102458
6 | 22:46.09 | 2:45.61 | 102459 | 114894
7 | 25:31.70 | 5:32.18 | 114895 | 139812
8 | 31:04.13 | 3:59.33 | 139813 | 157770
9 | 35:03.46 | 8:29.20 | 157771 | 195965
10 | 43:32.66 | 3:24.20 | 195966 | 211285
11 | 46:57.11 | 4:49.14 | 211286 | 232974
12 | 51:46.25 | 4:48.72 | 232975 | 254646
13 | 56:35.22 | 5:04.71 | 254647 | 277517
14 | 61:40.18 | 4:25.69 | 277518 | 297461
15 | 66:06.12 | 4:57.44 | 297462 | 319780
16 | 71:03.56 | 6:55.35 | 319781 | 350940


Range status and errors

Selected range

Filename D:\Very Best of MTV\Various Artists - The Very Best of MTV Unplugged, Volume 2.wav

Peak level 95.6 %
Extraction speed 9.6 X
Range quality 99.9 %
Test CRC CD846765
Copy CRC CD846765
Copy OK

No errors occurred


AccurateRip summary

Track 1 accurately ripped (confidence 22) [C17FD688] (AR v2)
Track 2 accurately ripped (confidence 22) [64C2EC5F] (AR v2)
Track 3 accurately ripped (confidence 22) [6F7412E3] (AR v2)
Track 4 accurately ripped (confidence 22) [A95F7296] (AR v2)
Track 5 accurately ripped (confidence 22) [2154A8FB] (AR v2)
Track 6 accurately ripped (confidence 22) [82FDE9C3] (AR v2)
Track 7 accurately ripped (confidence 22) [8E7426D2] (AR v2)
Track 8 accurately ripped (confidence 22) [DACB36C1] (AR v2)
Track 9 accurately ripped (confidence 22) [4C89B30B] (AR v2)
Track 10 accurately ripped (confidence 22) [1766F181] (AR v2)
Track 11 accurately ripped (confidence 22) [23C70AA3] (AR v2)
Track 12 accurately ripped (confidence 22) [89F1B0CB] (AR v2)
Track 13 accurately ripped (confidence 22) [8F0EBD4E] (AR v2)
Track 14 accurately ripped (confidence 22) [2EFAB458] (AR v2)
Track 15 accurately ripped (confidence 22) [A7370226] (AR v2)
Track 16 accurately ripped (confidence 20) [D91D93CC] (AR v2)

All tracks accurately ripped

End of status report

–– CUETools DB Plugin V2.1.3

[CTDB TOCID: I25zdryO95IQkq6pbM7prwom67A-] found, Submit result: I25zdryO95IQkq6pbM7prwom67A- has been confirmed
[ef29e857] (142/164) Accurately ripped
[8341fef1] (001/164) No match
[8c0981b2] (005/164) No match
[885e700d] (001/164) No match
[aef1b60d] (001/164) No match
[d5762c88] (001/164) No match
[144ffb45] (001/164) No match
[0b01cdf1] (001/164) No match
[1703571c] (001/164) No match
[2e0359f7] (001/164) No match
[a90b1fe0] (001/164) No match
[c5a51dc5] (001/164) No match
[b4889c89] (001/164) No match
[fe06de36] (001/164) No match
[f1f2dc80] (002/164) Differs in 1176 samples @10:01:09-10:01:10
[d0348a07] (001/164) No match
[d352e588] (001/164) No match
[75a04b7b] (001/164) No match
You can use CUETools to repair this rip.


==== Log checksum FAB6103E7598654DEE2167B9329FE2BD5F071B37FCCF1D7B510F045310469288 ====


[CUETools log; Date: 20.07.2018 13:30:25; Version: 2.1.5]
[CTDB TOCID: I25zdryO95IQkq6pbM7prwom67A-] found.
Track | CTDB Status
1 | (337/348) Accurately ripped
2 | (332/348) Accurately ripped, or (11/348) differs in 1160 samples @04:54:07-04:54:08
3 | (331/348) Accurately ripped, or (11/348) differs in 16 samples @00:00:00
4 | (332/348) Accurately ripped, or (9/348) differs in 2 samples @01:23:09,02:03:32
5 | (331/348) Accurately ripped, or (9/348) differs in 3 samples @02:03:47,02:20:19,02:34:29
6 | (344/348) Accurately ripped
7 | (329/348) Accurately ripped, or (9/348) differs in 1 samples @03:46:67
8 | (340/348) Accurately ripped
9 | (331/348) Accurately ripped, or (9/348) differs in 6 samples @03:29:06,03:33:31,05:10:02,06:37:55,06:51:31,08:20:10
10 | (331/348) Accurately ripped, or (9/348) differs in 11 samples @00:04:26,00:07:33,00:20:43,00:44:28,00:45:09,00:57:03,01:14:10,01:49:69,01:59:41,02:31:25,02:36:15
11 | (328/348) Accurately ripped, or (9/348) differs in 5 samples @00:05:24,00:52:26,02:03:73,03:48:42,04:35:49
12 | (326/348) Accurately ripped, or (9/348) differs in 1 samples @04:34:48
13 | (339/348) Accurately ripped
14 | (339/348) Accurately ripped
15 | (324/348) Accurately ripped, or (9/348) differs in 2 samples @00:44:06,02:49:06
16 | (325/348) Accurately ripped, or (9/348) differs in 6 samples @01:10:50,01:47:29,03:14:17,03:56:47,04:15:33,06:07:67
[AccurateRip ID: 002bce96-02106b7a-e3124710] found.
Track [ CRC | V2 ] Status
01 [cac98fd4|c17fd688] (006+036/285) Accurately ripped
02 [cacb4b2a|64c2ec5f] (006+036/287) Accurately ripped
03 [7be5a908|6f7412e3] (006+036/290) Accurately ripped
04 [17d75ca2|a95f7296] (006+036/288) Accurately ripped
05 [50832f3e|2154a8fb] (006+036/288) Accurately ripped
06 [97d6dc55|82fde9c3] (006+036/287) Accurately ripped
07 [f3d85bb4|8e7426d2] (007+036/288) Accurately ripped
08 [c3312160|dacb36c1] (007+036/288) Accurately ripped
09 [a89fde9a|4c89b30b] (006+036/283) Accurately ripped
10 [f0572bab|1766f181] (006+036/286) Accurately ripped
11 [4caebba6|23c70aa3] (007+036/286) Accurately ripped
12 [11c3e068|89f1b0cb] (006+036/282) Accurately ripped
13 [161869a8|8f0ebd4e] (006+036/281) Accurately ripped
14 [a8d25388|2efab458] (006+036/275) Accurately ripped
15 [40f8a627|a7370226] (006+036/276) Accurately ripped
16 [59da6848|d91d93cc] (007+034/267) Accurately ripped
Offsetted by 96:
01 [bae34517] (095/285) Accurately ripped
02 [aad7596d] (095/287) Accurately ripped
03 [1ddc1a13] (096/290) Accurately ripped
04 [2edba22c] (094/288) Accurately ripped
05 [b8b96480] (095/288) Accurately ripped
06 [19d35ef2] (095/287) Accurately ripped
07 [e84f12a5] (095/288) Accurately ripped
08 [765aab1e] (095/288) Accurately ripped
09 [128904e4] (095/283) Accurately ripped
10 [d2d8c665] (094/286) Accurately ripped
11 [4c03ca51] (094/286) Accurately ripped
12 [387f28f0] (094/282) Accurately ripped
13 [17988342] (092/281) Accurately ripped
14 [b6595fe4] (092/275) Accurately ripped
15 [2fad5f9d] (090/276) Accurately ripped
16 [a8fa4158] (087/267) Accurately ripped
Offsetted by -1388:
01 [54d86a22] (000/285) No match (V2 was not tested)
02 [2244620b] (000/287) No match (V2 was not tested)
03 [e03b1683] (000/290) No match (V2 was not tested)
04 [a72b85e3] (000/288) No match (V2 was not tested)
05 [06945db5] (000/288) No match (V2 was not tested)
06 [6f1963be] (000/287) No match (V2 was not tested)
07 [69fa2b56] (000/288) No match (V2 was not tested)
08 [1e5a7faf] (000/288) No match (V2 was not tested)
09 [e4124b4c] (000/283) No match (V2 was not tested)
10 [e1ae254a] (000/286) No match (V2 was not tested)
11 [4960d896] (000/286) No match (V2 was not tested)
12 [babe031b] (000/282) No match (V2 was not tested)
13 [f23366e5] (000/281) No match (V2 was not tested)
14 [0078aed2] (000/275) No match (V2 was not tested)
15 [e9676acf] (000/276) No match (V2 was not tested)
16 [d84098fd] (000/267) No match (V2 was not tested)
Offsetted by -1214:
01 [ec5d9246] (000/285) No match (V2 was not tested)
02 [c210d375] (000/287) No match (V2 was not tested)
03 [6b3e1349] (000/290) No match (V2 was not tested)
04 [bb265eb1] (000/288) No match (V2 was not tested)
05 [641dedf7] (000/288) No match (V2 was not tested)
06 [480bf739] (000/287) No match (V2 was not tested)
07 [3fa2b0ab] (000/288) No match (V2 was not tested)
08 [bd19230a] (000/288) No match (V2 was not tested)
09 [3abbac96] (000/283) No match (V2 was not tested)
10 [c4b86bf8] (000/286) No match (V2 was not tested)
11 [78fce8da] (000/286) No match (V2 was not tested)
12 [cc672ae6] (000/282) No match (V2 was not tested)
13 [adda5b6e] (000/281) No match (V2 was not tested)
14 [c0707e08] (000/275) No match (V2 was not tested)
15 [d7b1e103] (000/276) No match (V2 was not tested)
16 [0c284224] (000/267) No match (V2 was not tested)
Offsetted by -641:
01 [501ea5a3] (000/285) No match (V2 was not tested)
02 [210e7be8] (000/287) No match (V2 was not tested)
03 [0f699cd8] (000/290) No match (V2 was not tested)
04 [9b5a1b96] (000/288) No match (V2 was not tested)
05 [8d490a93] (000/288) No match (V2 was not tested)
06 [9ac09991] (000/287) No match (V2 was not tested)
07 [a41f10ff] (000/288) No match (V2 was not tested)
08 [5a8f775b] (000/288) No match (V2 was not tested)
09 [a1fca4d2] (000/283) No match (V2 was not tested)
10 [f3d266e4] (000/286) No match (V2 was not tested)
11 [e99f7786] (000/286) No match (V2 was not tested)
12 [b630b556] (000/282) No match (V2 was not tested)
13 [00c9c126] (000/281) No match (V2 was not tested)
14 [5dd2de1f] (000/275) No match (V2 was not tested)
15 [fbe05fa2] (000/276) No match (V2 was not tested)
16 [629ca4a5] (000/267) No match (V2 was not tested)
Offsetted by -628:
01 [1ddfbb3c] (003/285) Accurately ripped
02 [ca994a91] (003/287) Accurately ripped
03 [cdf166bd] (003/290) Accurately ripped
04 [079af9ad] (000/288) No match (V2 was not tested)
05 [739f3e83] (000/288) No match (V2 was not tested)
06 [7329235c] (003/287) Accurately ripped
07 [e8226c2e] (000/288) No match (V2 was not tested)
08 [045b27e5] (003/288) Accurately ripped
09 [be2a4ab1] (000/283) No match (V2 was not tested)
10 [b4824df1] (000/286) No match (V2 was not tested)
11 [e794083e] (000/286) No match (V2 was not tested)
12 [88e36651] (000/282) No match (V2 was not tested)
13 [275396f0] (003/281) Accurately ripped
14 [33fd8e49] (003/275) Accurately ripped
15 [4a94d933] (000/276) No match (V2 was not tested)
16 [40d72207] (000/267) No match (V2 was not tested)
Offsetted by -589:
01 [fa002ab8] (002/285) Accurately ripped
02 [0a5e727f] (002/287) Accurately ripped
03 [49fc580f] (002/290) Accurately ripped
04 [17b7b777] (002/288) Accurately ripped
05 [04da1399] (002/288) Accurately ripped
06 [89f868e1] (002/287) Accurately ripped
07 [42860826] (002/288) Accurately ripped
08 [3962ca8d] (002/288) Accurately ripped
09 [72b249b3] (000/283) No match (V2 was not tested)
10 [2b8e1997] (002/286) Accurately ripped
11 [a1b2950d] (002/286) Accurately ripped
12 [06a94b4a] (002/282) Accurately ripped
13 [74cdcd4a] (000/281) No match (V2 was not tested)
14 [1b39dfcf] (002/275) Accurately ripped
15 [4effa730] (000/276) No match (V2 was not tested)
16 [a8d5ce2d] (000/267) No match (V2 was not tested)
Offsetted by -550:
01 [48d14627] (002/285) Accurately ripped
02 [a77d332f] (002/287) Accurately ripped
03 [473396aa] (002/290) Accurately ripped
04 [d17410af] (002/288) Accurately ripped
05 [15597f03] (002/288) Accurately ripped
06 [8d13c5a5] (002/287) Accurately ripped
07 [2b340b96] (002/288) Accurately ripped
08 [4962a803] (002/288) Accurately ripped
09 [238845ce] (002/283) Accurately ripped
10 [94b94e98] (002/286) Accurately ripped
11 [01d09547] (002/286) Accurately ripped
12 [eb69e608] (000/282) No match (V2 was not tested)
13 [4f1d39cd] (002/281) Accurately ripped
14 [339a0b4a] (000/275) No match (V2 was not tested)
15 [8205b421] (002/276) Accurately ripped
16 [52848f64] (000/267) No match (V2 was not tested)
Offsetted by 6:
01 [398b4a53] (000/285) No match (V2 was not tested)
02 [b258789b] (000/287) No match (V2 was not tested)
03 [9566befc] (000/290) No match (V2 was not tested)
04 [f2ae3e8c] (000/288) No match (V2 was not tested)
05 [10550ad7] (000/288) No match (V2 was not tested)
06 [a9217232] (000/287) No match (V2 was not tested)
07 [0c2839f0] (000/288) No match (V2 was not tested)
08 [584c1906] (000/288) No match (V2 was not tested)
09 [21e9c492] (000/283) No match (V2 was not tested)
10 [9ba70e97] (000/286) No match (V2 was not tested)
11 [cd85db72] (000/286) No match (V2 was not tested)
12 [f5911b0c] (000/282) No match (V2 was not tested)
13 [c0c363dd] (000/281) No match (V2 was not tested)
14 [e9098d51] (000/275) No match (V2 was not tested)
15 [374a10b9] (000/276) No match (V2 was not tested)
16 [73182a1e] (000/267) No match (V2 was not tested)
Offsetted by 30:
01 [ab6021f3] (000/285) No match
02 [0be4a908] (000/287) No match (V2 was not tested)
03 [6f9fa3f1] (000/290) No match (V2 was not tested)
04 [184ffadf] (000/288) No match (V2 was not tested)
05 [a44448a7] (000/288) No match (V2 was not tested)
06 [a5c31586] (000/287) No match (V2 was not tested)
07 [a05e2c00] (000/288) No match (V2 was not tested)
08 [ad31eba0] (000/288) No match (V2 was not tested)
09 [2bdf613a] (000/283) No match (V2 was not tested)
10 [d88e4dec] (000/286) No match (V2 was not tested)
11 [3aff4607] (000/286) No match (V2 was not tested)
12 [3a17ade4] (000/282) No match (V2 was not tested)
13 [c998858f] (000/281) No match (V2 was not tested)
14 [ace17090] (000/275) No match (V2 was not tested)
15 [2a3617fc] (000/276) No match (V2 was not tested)
16 [808d69f5] (000/267) No match
Offsetted by 66:
01 [82f556c2] (000/285) No match
02 [c77e7db4] (000/287) No match
03 [8a0e75d3] (000/290) No match
04 [68c385e4] (000/288) No match
05 [deacd1c5] (000/288) No match
06 [b95b9897] (000/287) No match
07 [f0499ebb] (000/288) No match
08 [b4be7c9d] (000/288) No match
09 [aa6fbe29] (000/283) No match
10 [cef1d4b2] (000/286) No match
11 [935bce2f] (000/286) No match
12 [7c3fb586] (000/282) No match
13 [96791871] (000/281) No match
14 [4d0d2fdb] (000/275) No match
15 [fa84cc91] (000/276) No match
16 [d602ed1b] (000/267) No match (V2 was not tested)
Offsetted by 102:
01 [707db6f0] (000/285) No match (V2 was not tested)
02 [ceeedbec] (000/287) No match (V2 was not tested)
03 [e8c0901d] (000/290) No match (V2 was not tested)
04 [0ba60afa] (000/288) No match (V2 was not tested)
05 [d7ee27c0] (000/288) No match (V2 was not tested)
06 [ef3d4c43] (000/287) No match (V2 was not tested)
07 [035f13c8] (000/288) No match (V2 was not tested)
08 [45e6bbb4] (000/288) No match (V2 was not tested)
09 [ae1f5bcf] (000/283) No match (V2 was not tested)
10 [0a08a7d3] (000/286) No match (V2 was not tested)
11 [f79023c1] (000/286) No match (V2 was not tested)
12 [0d12666b] (000/282) No match (V2 was not tested)
13 [9a559084] (000/281) No match (V2 was not tested)
14 [b688cd26] (000/275) No match (V2 was not tested)
15 [7f75787b] (000/276) No match (V2 was not tested)
16 [1a1540dc] (000/267) No match (V2 was not tested)

Track Peak [ CRC32 ] [W/O NULL] [ LOG ]
– 95,6 [CD846765] [DE2FD0DD] CRC32
01 92,0 [42C1C90C] [59803CCC]
02 90,1 [9FF02BCB] [2CE8EE4E]
03 92,1 [4BDEB10A] [C969DEAC]
04 90,3 [E524AE73] [138D4FA8]
05 88,4 [943D5516] [A2CFF7C4]
06 87,5 [7181C353] [224F85B3]
07 90,9 [1B96E72B] [54B454B8]
08 91,5 [1E3CDDDF] [ADDB8CA7]
09 76,6 [F2587BB6] [A2735273]
10 83,7 [AAEEEC96] [952C926B]
11 95,6 [743AEDCD] [FBCDB709]
12 94,7 [2B8C0972] [72C84B8E]
13 93,4 [039AB371] [7C4613A3]
14 84,7 [E309FA2A] [7037296F]
15 94,0 [6ADA08FD] [C85FF7B9]
16 88,9 [205AD65B] [30094D71]


VA - The Very Best Of MTV Unplugged Vol. 1, 2 (2002, 2003)

All thanks go to Nick Fisher

MTV or MTV in my Blog

Download VA - The Very Best Of MTV Unplugged Vol. 1, 2 (2002, 2003):