Tags
Language
Tags

Mick Jagger - The Very Best of Mick Jagger (2007)

Posted By: v3122
Mick Jagger - The Very Best of Mick Jagger (2007)

Mick Jagger - The Very Best of Mick Jagger (2007)
EAC | Flac(Image) + Cue + Log & MP3 CBR 320Kbps
Atlantic/Rhino 8122-79961-0 | ~ 542 or 174 Mb | Scans(png) -> 496 Mb
DVD5: NTSC 4:3 (720x480) VBR | AC3, 2 ch / LPCM, 2 ch -> 4.32 Gb
Pop Rock / Classic Rock / Rock & Roll

There is no rock star greater than Mick Jagger. There are plenty other as great, but nobody eclipses Mick in terms of art and influence, as he virtually created the modern-day rock & roll rebel. Given that, why is it that almost nobody takes his solo recordings seriously? Even his longtime partner Keith Richards is quoted on record calling Jagger's 2001 album Goddess in the Doorway "Dogsh*t in the doorway," a tacit signal that all the dismissive reviews of Jagger's solo stuff were not only justified, but appropriate – a judgment that may be a bit extreme, but in a way it's understandable, because Jagger's solo recordings showcased his least lovable aspects, particularly his relentless social climbing and obsession with style. In the Rolling Stones, this trend-chasing clashed with Richards' stubborn traditionalism, a creative tension that often resulted in tremendous music, but on his own Jagger was able to indulge his taste for fleeting fashion, which gave his solo albums a brittle, dated sound that also accentuated his cold, mercenary edge, which, in turn, made them feel a bit desperate. The Very Best of Mick Jagger, the first-ever compilation of his solo career, doesn't erase that impression, but it does illustrate some merit in it. By not relying strictly on hit singles and mixing in solo cuts from the '70s, when Jagger had yet to start his solo career in earnest, this 17-track set paints a better picture of what Jagger was attempting to achieve outside the Stones, capturing a rocker desperate to leave his status as the leader of the greatest rock & roll band ever far behind. Only "Memo from Turner," his contribution to the 1970 film Performance, truly treads close to the Stones, a cover of Sonny Boy Williamson's "Checkin' Up on My Baby," an unreleased track from his 1993 session with the L.A. blues band the Red Devils, coming in a close second. Jagger's solo career was all about running away from the Stones, but it's nice to have that reminder of his strengths here, since so much of his solo career is so carefully competent, playing to the sounds of the time, whether it's the stiff Nile Rodgers dance-rock of "Just Another Night," the tasteful classicism of the Rick Rubin-produced Wandering Spirit, or the featureless studio sheen of Goddess in the Doorway. More than anything, it's the productions that hurt the Jagger solo albums, as they lack the heart and muscle of the Stones, substituting it for careful craft. At least that sense of craft could still be heard in many of the songs, and many of the best are here, including his first solo hits "Lucky in Love" and "Just Another Night," but also latter-day songs like the lively "Put Me the Trash" and the terrific country tune "Evening Gown." These are solid songs; they're only weighed down by the professional polish, so determined to fit into the mainstream that it winds up being too bland. And that's why all the odd detours that are sprinkled through the album stand out so much: not just "Memo from Turner" and "Checkin' Up on My Baby," but his duet with Peter Tosh on "(You Got to Walk And) Don't Look Back," his goofy duet with David Bowie on "Dancing in the Street," and especially, the John Lennon-produced disco of "Too Many Cooks (Spoil the Soup)," heavily bootlegged but unreleased until now and easily the highlight of this collection. These are times where the music is alive and unpredictable, a perfect contrast to Mick's meticulousness – which, of course, means they feel like the Stones, which is why Jagger never followed their path on his actual solo albums.

by Stephen Thomas Erlewine, allmusic
Mick Jagger - The Very Best of Mick Jagger (2007):

Mick Jagger - The Very Best of Mick Jagger (2007)

Tracklist CD:

01. God Gave Me Everything (Lenny Kravitz, Mick Jagger) 03:32
02. Put Me In The Trash (Jimmy Rip, Mick Jagger) 03:34
03. Just Another Night (Mick Jagger) 05:16
04. Don't Tear Me Up (Mick Jagger) 04:13
05. Charmed Life (Mick Jagger) 03:36
06. Sweet Thing (Mick Jagger) 04:19
07. Old Habits Die Hard (with Dave Stewart) (David A. Stewart, Mick Jagger) 04:24
08. Dancing In The Street (with David Bowie) (Ivy Jo Hunter, Marvin Gaye, William Stevenson) 03:19
09. Too Many Cooks (Angelo Bond, Edith Wayne, Ronald Dunbar) 04:04
10. Memo From Turner (Mick Jagger, Keith Richards) 04:03
11. Lucky In Love (Carlos Alomar, Mick Jagger) 05:03
12. Let's Work (David A. Stewart, Mick Jagger) 04:44
13. Joy (Mick Jagger) 04:40
14. Don't Call Me Up (Mick Jagger) 05:13
15. Checkin' Up On My Baby (with The Red Devils) (Sonny Boy Williamson) 03:22
16. (You Gotta Walk And) Don't Look Back (Peter Tosh with Mick Jagger) (Ronnie White, Smokey Robinson) 05:17
17. Evening Gown (Mick Jagger) 03:33

Exact Audio Copy V1.0 beta 3 from 29. August 2011

EAC extraction logfile from 16. October 2014, 4:30

Mick Jagger / The Very Best of Mick Jagger (Atlantic-Rhino 8122-79961-0 Argentina)

Used drive : HL-DT-STDVDRWBD CT30N Adapter: 0 ID: 1

Read mode : Secure
Utilize accurate stream : Yes
Defeat audio cache : Yes
Make use of C2 pointers : No

Read offset correction : 102
Overread into Lead-In and Lead-Out : No
Fill up missing offset samples with silence : Yes
Delete leading and trailing silent blocks : No
Null samples used in CRC calculations : Yes
Used interface : Native Win32 interface for Win NT & 2000

Used output format : User Defined Encoder
Selected bitrate : 1024 kBit/s
Quality : High
Add ID3 tag : No
Command line compressor : C:\Program Files (x86)\Exact Audio Copy\Flac\flac.exe
Additional command line options : -T "artist=%artist%" -T "title=%title%" -T "album=%albumtitle%" -T "date=%year%" -T "tracknumber=%tracknr%" -T "genre=%genre%" -5 %source%


TOC of the extracted CD

Track | Start | Length | Start sector | End sector
––––––––––––––––––––––––––––-
1 | 0:00.00 | 3:32.25 | 0 | 15924
2 | 3:32.25 | 3:34.30 | 15925 | 32004
3 | 7:06.55 | 5:15.57 | 32005 | 55686
4 | 12:22.37 | 4:12.43 | 55687 | 74629
5 | 16:35.05 | 3:35.70 | 74630 | 90824
6 | 20:11.00 | 4:18.45 | 90825 | 110219
7 | 24:29.45 | 4:24.25 | 110220 | 130044
8 | 28:53.70 | 3:18.62 | 130045 | 144956
9 | 32:12.57 | 4:04.08 | 144957 | 163264
10 | 36:16.65 | 4:03.25 | 163265 | 181514
11 | 40:20.15 | 5:02.62 | 181515 | 204226
12 | 45:23.02 | 4:44.28 | 204227 | 225554
13 | 50:07.30 | 4:40.32 | 225555 | 246586
14 | 54:47.62 | 5:13.08 | 246587 | 270069
15 | 60:00.70 | 3:21.57 | 270070 | 285201
16 | 63:22.52 | 5:17.00 | 285202 | 308976
17 | 68:39.52 | 3:32.40 | 308977 | 324916


Range status and errors

Selected range

Filename D:\EAC Rips\Mick Jagger - The Very Best of Mick Jagger (Atlantic-Rhino 8122-79961-0 Argentina).wav

Peak level 100.0 %
Extraction speed 2.1 X
Range quality 99.9 %
Test CRC 6D5A6E6B
Copy CRC 6D5A6E6B
Copy OK

No errors occurred


AccurateRip summary

Track 1 cannot be verified as accurate (confidence 86) [AEC0A271], AccurateRip returned [A12424DA] (AR v2)
Track 2 cannot be verified as accurate (confidence 85) [3AD9B4F3], AccurateRip returned [B314C4ED] (AR v2)
Track 3 cannot be verified as accurate (confidence 85) [E7A82A22], AccurateRip returned [484148DB] (AR v2)
Track 4 cannot be verified as accurate (confidence 86) [4E099928], AccurateRip returned [B9FBB5CF] (AR v2)
Track 5 cannot be verified as accurate (confidence 86) [A9792947], AccurateRip returned [2592E233] (AR v2)
Track 6 cannot be verified as accurate (confidence 85) [C27AD16B], AccurateRip returned [9F966CB9] (AR v2)
Track 7 cannot be verified as accurate (confidence 85) [D314387D], AccurateRip returned [A6E72704] (AR v2)
Track 8 cannot be verified as accurate (confidence 87) [9FE833C0], AccurateRip returned [1F714010] (AR v2)
Track 9 cannot be verified as accurate (confidence 85) [0D2F6A62], AccurateRip returned [8190FF77] (AR v2)
Track 10 cannot be verified as accurate (confidence 86) [660D95C8], AccurateRip returned [D741CE38] (AR v2)
Track 11 cannot be verified as accurate (confidence 85) [C9B8222D], AccurateRip returned [B1B11166] (AR v2)
Track 12 cannot be verified as accurate (confidence 85) [935681B7], AccurateRip returned [E568EA85] (AR v2)
Track 13 cannot be verified as accurate (confidence 86) [C8CE3F26], AccurateRip returned [11961BD3] (AR v2)
Track 14 cannot be verified as accurate (confidence 86) [A6A1F0C2], AccurateRip returned [3E5DBA8B] (AR v2)
Track 15 cannot be verified as accurate (confidence 86) [B9F393C8], AccurateRip returned [BB5444A0] (AR v2)
Track 16 cannot be verified as accurate (confidence 86) [89E56DAF], AccurateRip returned [5A86FF51] (AR v2)
Track 17 cannot be verified as accurate (confidence 82) [B0EF3F7B], AccurateRip returned [3777A295] (AR v2)

No tracks could be verified as accurate
You may have a different pressing from the one(s) in the database

End of status report

–– CUETools DB Plugin V2.1.3

[CTDB TOCID: 1P1BTu5qVdBXM2I_vsvw7zaGYpw-] found, Submit result: 1P1BTu5qVdBXM2I_vsvw7zaGYpw- has been confirmed
[a9bca29b] (109/115) Accurately ripped
[c36c9dbf] (001/115) No match
[70f0c719] (001/115) No match
[05429b67] (001/115) No match
[152b699b] (001/115) No match
[60146f0d] (001/115) No match
[704c1cee] (001/115) No match


==== Log checksum 15F38A95AC3BF988FD1663E85048D5F3237A942BA1EFAFA879C97D31DAD48F38 ====


[CUETools log; Date: 16/10/2014 04:31:43 a.m.; Version: 2.1.4]
[CTDB TOCID: 1P1BTu5qVdBXM2I_vsvw7zaGYpw-] found.
Track | CTDB Status
1 | (46/46) Accurately ripped
2 | (46/46) Accurately ripped
3 | (46/46) Accurately ripped
4 | (46/46) Accurately ripped
5 | (46/46) Accurately ripped
6 | (46/46) Accurately ripped
7 | (46/46) Accurately ripped
8 | (46/46) Accurately ripped
9 | (46/46) Accurately ripped
10 | (46/46) Accurately ripped
11 | (46/46) Accurately ripped
12 | (46/46) Accurately ripped
13 | (45/46) Accurately ripped
14 | (42/46) Accurately ripped
15 | (46/46) Accurately ripped
16 | (45/46) Accurately ripped
17 | (45/46) Accurately ripped
[AccurateRip ID: 002bb5e1-022df068-e410ec11] found.
Track [ CRC | V2 ] Status
01 [27c1b06a|aec0a271] (000+000/160) No match
02 [367a3e67|3ad9b4f3] (000+000/159) No match
03 [44e5b917|e7a82a22] (000+000/159) No match
04 [2cf7c353|4e099928] (000+000/158) No match
05 [8841c895|a9792947] (000+000/161) No match
06 [23876362|c27ad16b] (000+000/160) No match
07 [4c88f1d2|d314387d] (000+000/157) No match
08 [7f2f101c|9fe833c0] (000+000/163) No match
09 [03ae789c|0d2f6a62] (000+000/159) No match
10 [26c7ca6b|660d95c8] (000+000/163) No match
11 [d5f55059|c9b8222d] (000+000/160) No match
12 [8c64c160|935681b7] (000+000/161) No match
13 [88db2cec|c8ce3f26] (000+000/161) No match
14 [31b97514|a6a1f0c2] (000+000/158) No match
15 [54d00ea9|b9f393c8] (000+000/160) No match
16 [682ac085|89e56daf] (000+000/162) No match
17 [fee1847d|b0ef3f7b] (000+000/157) No match
Offsetted by -12:
01 [6d8a71dd] (002/160) Accurately ripped
02 [3e4e6df7] (002/159) Accurately ripped
03 [1cb0cfcc] (002/159) Accurately ripped
04 [fc0e516b] (002/158) Accurately ripped
05 [4a396198] (002/161) Accurately ripped
06 [5a9eee6e] (002/160) Accurately ripped
07 [70ff1658] (002/157) Accurately ripped
08 [39f9e18c] (002/163) Accurately ripped
09 [44333d57] (002/159) Accurately ripped
10 [4543715c] (002/163) Accurately ripped
11 [ff1d3b8c] (002/160) Accurately ripped
12 [f3db6eb8] (002/161) Accurately ripped
13 [6f35f358] (002/161) Accurately ripped
14 [4791038d] (002/158) Accurately ripped
15 [168a70a4] (002/160) Accurately ripped
16 [88bebf65] (002/162) Accurately ripped
17 [3a6921ed] (002/157) Accurately ripped
Offsetted by 48:
01 [a1910fc8] (002/160) Accurately ripped
02 [a5baafa2] (002/159) Accurately ripped
03 [ff276b7a] (002/159) Accurately ripped
04 [f09d8af3] (002/158) Accurately ripped
05 [36eb02cd] (002/161) Accurately ripped
06 [411e0016] (002/160) Accurately ripped
07 [5112312c] (002/157) Accurately ripped
08 [aa5f400f] (002/163) Accurately ripped
09 [497b25db] (002/159) Accurately ripped
10 [3839b596] (002/163) Accurately ripped
11 [8123910f] (002/160) Accurately ripped
12 [44d7943e] (002/161) Accurately ripped
13 [a6376601] (002/161) Accurately ripped
14 [3444afb9] (002/158) Accurately ripped
15 [5152821c] (002/160) Accurately ripped
16 [dbd4e119] (002/162) Accurately ripped
17 [10c30ebd] (002/157) Accurately ripped
Offsetted by 66:
01 [a12424da] (086/160) Accurately ripped
02 [b314c4ed] (085/159) Accurately ripped
03 [484148db] (085/159) Accurately ripped
04 [b9fbb5cf] (086/158) Accurately ripped
05 [2592e233] (086/161) Accurately ripped
06 [9f966cb9] (085/160) Accurately ripped
07 [a6e72704] (085/157) Accurately ripped
08 [1f714010] (087/163) Accurately ripped
09 [8190ff77] (085/159) Accurately ripped
10 [d741ce38] (086/163) Accurately ripped
11 [b1b11166] (085/160) Accurately ripped
12 [e568ea85] (085/161) Accurately ripped
13 [11961bd3] (086/161) Accurately ripped
14 [3e5dba8b] (086/158) Accurately ripped
15 [bb5444a0] (086/160) Accurately ripped
16 [5a86ff51] (086/162) Accurately ripped
17 [3777a295] (082/157) Accurately ripped

Track Peak [ CRC32 ] [W/O NULL] [ LOG ]
– 100,0 [6D5A6E6B] [A404E305] CRC32
01 98,8 [0680381C] [EF4D49D0]
02 98,8 [B04BCFAA] [DFE305DB]
03 98,8 [5F42C290] [7F82D035]
04 97,7 [330658D2] [35E80DC8]
05 98,7 [D552E248] [B2D4EEAB]
06 97,9 [E58F29BF] [23EFE03F]
07 100,0 [AD8D3C51] [53A9DEE8]
08 98,8 [9A4A612F] [F8AFA24F]
09 100,0 [3722F0C9] [BF5E74E3]
10 97,7 [66E6ED76] [0F667752]
11 99,5 [0791BBB8] [28F8C40E]
12 98,8 [263BCF7D] [5EAC8B79]
13 98,8 [037F8AA9] [6E9501E6]
14 98,8 [D799B3B1] [A4A18340]
15 98,8 [9575948E] [3EFABBB3]
16 99,6 [BD21523C] [9923DF3C]
17 98,8 [17ABF3BF] [90417E4D]


Mick Jagger - The Very Best of Mick Jagger (2007)

Tracklist DVD:

1. Interview with Mick Jagger
2. God gave me everything
3. Just another night
4. Sweet thing
5. Let’s work
6. Lucky in love
7. Don’t tear me up
8. Dancing in the street
9. Joy
10. Don’t look back

Title: Mick Jagger 2007 - The Very Best of Mick Jagger - DVD
Size: 4.02 Gb ( 4 218 188,00 KBytes ) - DVD-5
Enabled regions: 1, 2, 3, 4, 5, 6

VTS_01 :
Play Length: 00:00:07
Video: NTSC 4:3 (720x480) VBR

VTS_02 :
Play Length: 00:00:00
Video: NTSC 4:3 (720x480) VBR
Audio:
English (Dolby AC3, 2 ch)

VTS_03 :
Play Length: 01:12:09
Video: NTSC 4:3 (720x480) VBR
Audio:
English (LinearPCM, 2 ch)


Mick Jagger - The Very Best of Mick Jagger (2007)

Mick Jagger - The Very Best of Mick Jagger (2007)

Mick Jagger - The Very Best of Mick Jagger (2007)

Mick Jagger - The Very Best of Mick Jagger (2007)

Mick Jagger - The Very Best of Mick Jagger (2007)

All thanks go to Ready.zp

Mick Jagger in my Blog

Download Mick Jagger - The Very Best of Mick Jagger (2007):