Tags
Language
Tags

King Crimson - The Elements: 2017 Tour Box (2017)

Posted By: SERTiL
King Crimson - The Elements: 2017 Tour Box (2017)

King Crimson - The Elements: 2017 Tour Box
XLD Rip | FLAC (tracks)+cue, log, front cover - 899 MB | MP3 CBR 320 kbps - 325 MB | 142:01 min
Label: Discipline Global Mobile – KCTB17 | Tracks: 32 | Rls.date: 2017
Progressive Rock

The Elements tour box was originally devised specifically as a one-off edition for the 2014 King Crimson tour but has since become an in-demand series with subsequent 2015 & 2016 editions becoming firm sellers.

As with previous releases in the series, the full variety of King Crimson’s music can be presented over 2CDs with extracts from rehearsals, new live recordings, elements from studio recordings, full tracks, alternate takes & finished recordings from 1969-2016, many of which make their first appearance on CD. Every line-up is featured across the 2CD set. Of particular interest on the new set is the inclusion on disc 2, for the first time in KC history on a single disc, of every part of Larks’ Tongues in Aspic (some studio, some live) from Part I to Level 5 – interspersed with elements taken from the original studio sessions & rehearsals.

The accompanying booklet features sleeve-notes by co-compiler Sid Smith, photos of memorabilia, full info about the current tour & a number of band & individual photos of the now 8 musician King Crimson line-up.

TRACKLIST

Disc: 1
1. Wind (Extract)
2. 21st Century Schizoid Man (Greg Lake vocals, extract)
3. 21st Century Schizoid Man (edit, live 2015)
4. In The Wake Of Poseidon (intrumental edit)
5. Improv (Mel Collins, extract, live 2016)
6. Peace (2015, rehearsals extract)
7. Cirkus (live 2016)
8. Islands (instrumental edit)
9. Easy Money (live 2015)
10. Suitable Grounds For The Blues (2015 rehearsals edit)
11. The Great Deceiver (live, 1974)
12. Improv (Mel Collins, extract, live 2016)
13. Asbury Park (edit)
14. One More Red Nightmare (live 2016)
15. Meltdown (2015, rehearsals extract)
16. Thela Hun Ginjeet (StevenWilson alt. mix)
17. Heartbeat (live 1982)
18. Sleepless (live 2008)
19. RF intermission announcement (2016)

X Lossless Decoder version 20151214 (149.1)

XLD extraction logfile from 2017-06-19 19:57:44 -0400

King Crimson / The Elements (2017 Tour Box)

Used drive : HL-DT-ST DVD-RW GH41N (revision PQ04)
Media type : Pressed CD

Ripper mode : XLD Secure Ripper
Disable audio cache : OK for the drive with a cache less than 1375KiB
Make use of C2 pointers : NO
Read offset correction : 667
Max retry count : 20
Gap status : Analyzed, Appended (except HTOA)

TOC of the extracted CD
Track | Start | Length | Start sector | End sector
––––––––––––––––––––––––––––-
1 | 00:00:00 | 00:12:59 | 0 | 958
2 | 00:12:59 | 00:14:34 | 959 | 2042
3 | 00:27:18 | 04:20:36 | 2043 | 21578
4 | 04:47:54 | 04:00:65 | 21579 | 39643
5 | 08:48:44 | 00:32:64 | 39644 | 42107
6 | 09:21:33 | 01:36:73 | 42108 | 49380
7 | 10:58:31 | 07:17:08 | 49381 | 82163
8 | 18:15:39 | 05:30:30 | 82164 | 106943
9 | 23:45:69 | 08:31:54 | 106944 | 145322
10 | 32:17:48 | 01:27:44 | 145323 | 151891
11 | 33:45:17 | 03:50:47 | 151892 | 169188
12 | 37:35:64 | 00:41:25 | 169189 | 172288
13 | 38:17:14 | 06:56:61 | 172289 | 203549
14 | 45:14:00 | 06:00:69 | 203550 | 230618
15 | 51:14:69 | 01:04:62 | 230619 | 235480
16 | 52:19:56 | 06:30:74 | 235481 | 264804
17 | 58:50:55 | 04:06:42 | 264805 | 283296
18 | 62:57:22 | 07:04:10 | 283297 | 315106
19 | 70:01:32 | 01:21:18 | 315107 | 321199

AccurateRip Summary
Disc not found in AccurateRip DB.

All Tracks
Album gain : -6.23 dB
Peak : 0.955261
Statistics
Read error : 0
Jitter error (maybe fixed) : 0
Retry sector count : 0
Damaged sector count : 0

Track 01
Filename : /Volumes/Stantz/RED Rip/King Crimson - 2017 - The Elements (2017 Tour Box) [FLAC]/Disc 01/01 Wind (extract).flac
/Volumes/Stantz/RED Rip/King Crimson - 2017 - The Elements (2017 Tour Box) [V0]/Disc 01/01 Wind (extract).mp3
/Volumes/Stantz/RED Rip/King Crimson - 2017 - The Elements (2017 Tour Box) [320]/Disc 01/01 Wind (extract).mp3
Pre-gap length : 00:02:00

Track gain : 12.74 dB
Peak : 0.257294
CRC32 hash (test run) : DB91CCC9
CRC32 hash : DB91CCC9
CRC32 hash (skip zero) : 2CCEC688
AccurateRip v1 signature : F751FC39
AccurateRip v2 signature : AC63AAFB
->Track not present in AccurateRip database.
Statistics
Read error : 0
Jitter error (maybe fixed) : 0
Retry sector count : 0
Damaged sector count : 0

Track 02
Filename : /Volumes/Stantz/RED Rip/King Crimson - 2017 - The Elements (2017 Tour Box) [FLAC]/Disc 01/02 21st Century Schizoid Man (Greg Lake vocals, extract).flac
/Volumes/Stantz/RED Rip/King Crimson - 2017 - The Elements (2017 Tour Box) [V0]/Disc 01/02 21st Century Schizoid Man (Greg Lake vocals, extract).mp3
/Volumes/Stantz/RED Rip/King Crimson - 2017 - The Elements (2017 Tour Box) [320]/Disc 01/02 21st Century Schizoid Man (Greg Lake vocals, extract).mp3

Track gain : -5.70 dB
Peak : 0.359924
CRC32 hash (test run) : 405C1B2F
CRC32 hash : 405C1B2F
CRC32 hash (skip zero) : A1FAD55F
AccurateRip v1 signature : 24F256DD
AccurateRip v2 signature : 84BFD691
->Track not present in AccurateRip database.
Statistics
Read error : 0
Jitter error (maybe fixed) : 0
Retry sector count : 0
Damaged sector count : 0

Track 03
Filename : /Volumes/Stantz/RED Rip/King Crimson - 2017 - The Elements (2017 Tour Box) [FLAC]/Disc 01/03 21st Century Schizoid Man (edit, live 2015).flac
/Volumes/Stantz/RED Rip/King Crimson - 2017 - The Elements (2017 Tour Box) [V0]/Disc 01/03 21st Century Schizoid Man (edit, live 2015).mp3
/Volumes/Stantz/RED Rip/King Crimson - 2017 - The Elements (2017 Tour Box) [320]/Disc 01/03 21st Century Schizoid Man (edit, live 2015).mp3

Track gain : -6.21 dB
Peak : 0.824097
CRC32 hash (test run) : 38265745
CRC32 hash : 38265745
CRC32 hash (skip zero) : BC32431E
AccurateRip v1 signature : EFB17090
AccurateRip v2 signature : 7721B9DB
->Track not present in AccurateRip database.
Statistics
Read error : 0
Jitter error (maybe fixed) : 0
Retry sector count : 0
Damaged sector count : 0

Track 04
Filename : /Volumes/Stantz/RED Rip/King Crimson - 2017 - The Elements (2017 Tour Box) [FLAC]/Disc 01/04 In the Wake of Poseidon (instrumental edit).flac
/Volumes/Stantz/RED Rip/King Crimson - 2017 - The Elements (2017 Tour Box) [V0]/Disc 01/04 In the Wake of Poseidon (instrumental edit).mp3
/Volumes/Stantz/RED Rip/King Crimson - 2017 - The Elements (2017 Tour Box) [320]/Disc 01/04 In the Wake of Poseidon (instrumental edit).mp3

Track gain : -3.93 dB
Peak : 0.787567
CRC32 hash (test run) : 04F51142
CRC32 hash : 04F51142
CRC32 hash (skip zero) : EA37B0F9
AccurateRip v1 signature : C63D4FA2
AccurateRip v2 signature : BF66E9AD
->Track not present in AccurateRip database.
Statistics
Read error : 0
Jitter error (maybe fixed) : 0
Retry sector count : 0
Damaged sector count : 0

Track 05
Filename : /Volumes/Stantz/RED Rip/King Crimson - 2017 - The Elements (2017 Tour Box) [FLAC]/Disc 01/05 Improv (Mel Collins, extract, live 2016).flac
/Volumes/Stantz/RED Rip/King Crimson - 2017 - The Elements (2017 Tour Box) [V0]/Disc 01/05 Improv (Mel Collins, extract, live 2016).mp3
/Volumes/Stantz/RED Rip/King Crimson - 2017 - The Elements (2017 Tour Box) [320]/Disc 01/05 Improv (Mel Collins, extract, live 2016).mp3

Track gain : 11.52 dB
Peak : 0.090271
CRC32 hash (test run) : 754ED358
CRC32 hash : 754ED358
CRC32 hash (skip zero) : 0516B941
AccurateRip v1 signature : B1673158
AccurateRip v2 signature : 606B8828
->Track not present in AccurateRip database.
Statistics
Read error : 0
Jitter error (maybe fixed) : 0
Retry sector count : 0
Damaged sector count : 0

Track 06
Filename : /Volumes/Stantz/RED Rip/King Crimson - 2017 - The Elements (2017 Tour Box) [FLAC]/Disc 01/06 Peace (2015, rehearsals extract).flac
/Volumes/Stantz/RED Rip/King Crimson - 2017 - The Elements (2017 Tour Box) [V0]/Disc 01/06 Peace (2015, rehearsals extract).mp3
/Volumes/Stantz/RED Rip/King Crimson - 2017 - The Elements (2017 Tour Box) [320]/Disc 01/06 Peace (2015, rehearsals extract).mp3

Track gain : 3.62 dB
Peak : 0.955261
CRC32 hash (test run) : 3C5EBBEE
CRC32 hash : 3C5EBBEE
CRC32 hash (skip zero) : 735FCA1A
AccurateRip v1 signature : 289FEF8A
AccurateRip v2 signature : 494F29F7
->Track not present in AccurateRip database.
Statistics
Read error : 0
Jitter error (maybe fixed) : 0
Retry sector count : 0
Damaged sector count : 0

Track 07
Filename : /Volumes/Stantz/RED Rip/King Crimson - 2017 - The Elements (2017 Tour Box) [FLAC]/Disc 01/07 Cirkus (live 2016).flac
/Volumes/Stantz/RED Rip/King Crimson - 2017 - The Elements (2017 Tour Box) [V0]/Disc 01/07 Cirkus (live 2016).mp3
/Volumes/Stantz/RED Rip/King Crimson - 2017 - The Elements (2017 Tour Box) [320]/Disc 01/07 Cirkus (live 2016).mp3

Track gain : -6.29 dB
Peak : 0.830353
CRC32 hash (test run) : F87DBF1C
CRC32 hash : F87DBF1C
CRC32 hash (skip zero) : E868A9AF
AccurateRip v1 signature : 9AF72F02
AccurateRip v2 signature : 154E7481
->Track not present in AccurateRip database.
Statistics
Read error : 0
Jitter error (maybe fixed) : 0
Retry sector count : 0
Damaged sector count : 0

Track 08
Filename : /Volumes/Stantz/RED Rip/King Crimson - 2017 - The Elements (2017 Tour Box) [FLAC]/Disc 01/08 Islands (instrumental edit).flac
/Volumes/Stantz/RED Rip/King Crimson - 2017 - The Elements (2017 Tour Box) [V0]/Disc 01/08 Islands (instrumental edit).mp3
/Volumes/Stantz/RED Rip/King Crimson - 2017 - The Elements (2017 Tour Box) [320]/Disc 01/08 Islands (instrumental edit).mp3

Track gain : -0.20 dB
Peak : 0.739960
CRC32 hash (test run) : D9442427
CRC32 hash : D9442427
CRC32 hash (skip zero) : B4251548
AccurateRip v1 signature : BF8DF8A9
AccurateRip v2 signature : 395CCA30
->Track not present in AccurateRip database.
Statistics
Read error : 0
Jitter error (maybe fixed) : 0
Retry sector count : 0
Damaged sector count : 0

Track 09
Filename : /Volumes/Stantz/RED Rip/King Crimson - 2017 - The Elements (2017 Tour Box) [FLAC]/Disc 01/09 Easy Money (live 2015).flac
/Volumes/Stantz/RED Rip/King Crimson - 2017 - The Elements (2017 Tour Box) [V0]/Disc 01/09 Easy Money (live 2015).mp3
/Volumes/Stantz/RED Rip/King Crimson - 2017 - The Elements (2017 Tour Box) [320]/Disc 01/09 Easy Money (live 2015).mp3

Track gain : -5.98 dB
Peak : 0.783905
CRC32 hash (test run) : 19566B58
CRC32 hash : 19566B58
CRC32 hash (skip zero) : D5FBB809
AccurateRip v1 signature : E56E0AF8
AccurateRip v2 signature : 6A583AAE
->Track not present in AccurateRip database.
Statistics
Read error : 0
Jitter error (maybe fixed) : 0
Retry sector count : 0
Damaged sector count : 0

Track 10
Filename : /Volumes/Stantz/RED Rip/King Crimson - 2017 - The Elements (2017 Tour Box) [FLAC]/Disc 01/10 Suitable Grounds for the Blues (2015, rehearsals extract).flac
/Volumes/Stantz/RED Rip/King Crimson - 2017 - The Elements (2017 Tour Box) [V0]/Disc 01/10 Suitable Grounds for the Blues (2015, rehearsals extract).mp3
/Volumes/Stantz/RED Rip/King Crimson - 2017 - The Elements (2017 Tour Box) [320]/Disc 01/10 Suitable Grounds for the Blues (2015, rehearsals extract).mp3

Track gain : -6.77 dB
Peak : 0.874969
CRC32 hash (test run) : 9FE66D1B
CRC32 hash : 9FE66D1B
CRC32 hash (skip zero) : B8537454
AccurateRip v1 signature : DF745806
AccurateRip v2 signature : 51E9546A
->Track not present in AccurateRip database.
Statistics
Read error : 0
Jitter error (maybe fixed) : 0
Retry sector count : 0
Damaged sector count : 0

Track 11
Filename : /Volumes/Stantz/RED Rip/King Crimson - 2017 - The Elements (2017 Tour Box) [FLAC]/Disc 01/11 The Great Deceiver (live 1974).flac
/Volumes/Stantz/RED Rip/King Crimson - 2017 - The Elements (2017 Tour Box) [V0]/Disc 01/11 The Great Deceiver (live 1974).mp3
/Volumes/Stantz/RED Rip/King Crimson - 2017 - The Elements (2017 Tour Box) [320]/Disc 01/11 The Great Deceiver (live 1974).mp3

Track gain : -7.69 dB
Peak : 0.806946
CRC32 hash (test run) : 84B59594
CRC32 hash : 84B59594
CRC32 hash (skip zero) : 54287644
AccurateRip v1 signature : B43098F1
AccurateRip v2 signature : BB080CF6
->Track not present in AccurateRip database.
Statistics
Read error : 0
Jitter error (maybe fixed) : 0
Retry sector count : 0
Damaged sector count : 0

Track 12
Filename : /Volumes/Stantz/RED Rip/King Crimson - 2017 - The Elements (2017 Tour Box) [FLAC]/Disc 01/12 Improv (Mel Collins, extract, live 2016).flac
/Volumes/Stantz/RED Rip/King Crimson - 2017 - The Elements (2017 Tour Box) [V0]/Disc 01/12 Improv (Mel Collins, extract, live 2016).mp3
/Volumes/Stantz/RED Rip/King Crimson - 2017 - The Elements (2017 Tour Box) [320]/Disc 01/12 Improv (Mel Collins, extract, live 2016).mp3

Track gain : 8.43 dB
Peak : 0.187286
CRC32 hash (test run) : 6ED3904C
CRC32 hash : 6ED3904C
CRC32 hash (skip zero) : FA2AF457
AccurateRip v1 signature : DCC1506F
AccurateRip v2 signature : 108D91D5
->Track not present in AccurateRip database.
Statistics
Read error : 0
Jitter error (maybe fixed) : 0
Retry sector count : 0
Damaged sector count : 0

Track 13
Filename : /Volumes/Stantz/RED Rip/King Crimson - 2017 - The Elements (2017 Tour Box) [FLAC]/Disc 01/13 Asbury Park (edit).flac
/Volumes/Stantz/RED Rip/King Crimson - 2017 - The Elements (2017 Tour Box) [V0]/Disc 01/13 Asbury Park (edit).mp3
/Volumes/Stantz/RED Rip/King Crimson - 2017 - The Elements (2017 Tour Box) [320]/Disc 01/13 Asbury Park (edit).mp3

Track gain : -5.66 dB
Peak : 0.793945
CRC32 hash (test run) : 05240208
CRC32 hash : 05240208
CRC32 hash (skip zero) : 72CDA865
AccurateRip v1 signature : 29347A4C
AccurateRip v2 signature : CFC1C394
->Track not present in AccurateRip database.
Statistics
Read error : 0
Jitter error (maybe fixed) : 0
Retry sector count : 0
Damaged sector count : 0

Track 14
Filename : /Volumes/Stantz/RED Rip/King Crimson - 2017 - The Elements (2017 Tour Box) [FLAC]/Disc 01/14 One More Red Nightmare (live 2016).flac
/Volumes/Stantz/RED Rip/King Crimson - 2017 - The Elements (2017 Tour Box) [V0]/Disc 01/14 One More Red Nightmare (live 2016).mp3
/Volumes/Stantz/RED Rip/King Crimson - 2017 - The Elements (2017 Tour Box) [320]/Disc 01/14 One More Red Nightmare (live 2016).mp3

Track gain : -6.78 dB
Peak : 0.805176
CRC32 hash (test run) : 02249157
CRC32 hash : 02249157
CRC32 hash (skip zero) : B2F078F5
AccurateRip v1 signature : A55D979A
AccurateRip v2 signature : E21D2359
->Track not present in AccurateRip database.
Statistics
Read error : 0
Jitter error (maybe fixed) : 0
Retry sector count : 0
Damaged sector count : 0

Track 15
Filename : /Volumes/Stantz/RED Rip/King Crimson - 2017 - The Elements (2017 Tour Box) [FLAC]/Disc 01/15 Meltdown (2015, rehearsals extract).flac
/Volumes/Stantz/RED Rip/King Crimson - 2017 - The Elements (2017 Tour Box) [V0]/Disc 01/15 Meltdown (2015, rehearsals extract).mp3
/Volumes/Stantz/RED Rip/King Crimson - 2017 - The Elements (2017 Tour Box) [320]/Disc 01/15 Meltdown (2015, rehearsals extract).mp3

Track gain : 6.90 dB
Peak : 0.509064
CRC32 hash (test run) : 1307C9FD
CRC32 hash : 1307C9FD
CRC32 hash (skip zero) : BF378C15
AccurateRip v1 signature : 5761C89E
AccurateRip v2 signature : B2CB77FF
->Track not present in AccurateRip database.
Statistics
Read error : 0
Jitter error (maybe fixed) : 0
Retry sector count : 0
Damaged sector count : 0

Track 16
Filename : /Volumes/Stantz/RED Rip/King Crimson - 2017 - The Elements (2017 Tour Box) [FLAC]/Disc 01/16 Thela Hun Ginjeet (Steven Wilson Atl. mix).flac
/Volumes/Stantz/RED Rip/King Crimson - 2017 - The Elements (2017 Tour Box) [V0]/Disc 01/16 Thela Hun Ginjeet (Steven Wilson Atl. mix).mp3
/Volumes/Stantz/RED Rip/King Crimson - 2017 - The Elements (2017 Tour Box) [320]/Disc 01/16 Thela Hun Ginjeet (Steven Wilson Atl. mix).mp3

Track gain : -5.99 dB
Peak : 0.804840
CRC32 hash (test run) : D5D04C23
CRC32 hash : D5D04C23
CRC32 hash (skip zero) : 6531E09A
AccurateRip v1 signature : E6A0572D
AccurateRip v2 signature : 464D9227
->Track not present in AccurateRip database.
Statistics
Read error : 0
Jitter error (maybe fixed) : 0
Retry sector count : 0
Damaged sector count : 0

Track 17
Filename : /Volumes/Stantz/RED Rip/King Crimson - 2017 - The Elements (2017 Tour Box) [FLAC]/Disc 01/17 Heartbeat (live 1982).flac
/Volumes/Stantz/RED Rip/King Crimson - 2017 - The Elements (2017 Tour Box) [V0]/Disc 01/17 Heartbeat (live 1982).mp3
/Volumes/Stantz/RED Rip/King Crimson - 2017 - The Elements (2017 Tour Box) [320]/Disc 01/17 Heartbeat (live 1982).mp3

Track gain : -6.21 dB
Peak : 0.851257
CRC32 hash (test run) : 38C360CD
CRC32 hash : 38C360CD
CRC32 hash (skip zero) : A912D82E
AccurateRip v1 signature : 4DFE0277
AccurateRip v2 signature : FB2050C3
->Track not present in AccurateRip database.
Statistics
Read error : 0
Jitter error (maybe fixed) : 0
Retry sector count : 0
Damaged sector count : 0

Track 18
Filename : /Volumes/Stantz/RED Rip/King Crimson - 2017 - The Elements (2017 Tour Box) [FLAC]/Disc 01/18 Sleepless (live 2008).flac
/Volumes/Stantz/RED Rip/King Crimson - 2017 - The Elements (2017 Tour Box) [V0]/Disc 01/18 Sleepless (live 2008).mp3
/Volumes/Stantz/RED Rip/King Crimson - 2017 - The Elements (2017 Tour Box) [320]/Disc 01/18 Sleepless (live 2008).mp3

Track gain : -5.21 dB
Peak : 0.871735
CRC32 hash (test run) : 53A85D94
CRC32 hash : 53A85D94
CRC32 hash (skip zero) : 435B288E
AccurateRip v1 signature : E35FC4E3
AccurateRip v2 signature : BB7DF67C
->Track not present in AccurateRip database.
Statistics
Read error : 0
Jitter error (maybe fixed) : 0
Retry sector count : 0
Damaged sector count : 0

Track 19
Filename : /Volumes/Stantz/RED Rip/King Crimson - 2017 - The Elements (2017 Tour Box) [FLAC]/Disc 01/19 RF Intermission Announcement (2016).flac
/Volumes/Stantz/RED Rip/King Crimson - 2017 - The Elements (2017 Tour Box) [V0]/Disc 01/19 RF Intermission Announcement (2016).mp3
/Volumes/Stantz/RED Rip/King Crimson - 2017 - The Elements (2017 Tour Box) [320]/Disc 01/19 RF Intermission Announcement (2016).mp3

Track gain : 7.53 dB
Peak : 0.430359
CRC32 hash (test run) : 2BE72CD2
CRC32 hash : 2BE72CD2
CRC32 hash (skip zero) : EF27C815
AccurateRip v1 signature : 5A80627C
AccurateRip v2 signature : 6562889D
->Track not present in AccurateRip database.
Statistics
Read error : 0
Jitter error (maybe fixed) : 0
Retry sector count : 0
Damaged sector count : 0

No errors occurred

End of status report

––-BEGIN XLD SIGNATURE––-
LPTSLyrMdb7aVZpaTgtvejo7vU58e9FUEPPoS8vwBBiqc2v8QB8Y4nB9gn_6ZL4E39YvvKaOum5zzjERYb69OG7TjuLdBm8Oiob1aPu
––-END XLD SIGNATURE––-


Disc: 2
1. Form No. 1
2. THRAK (2015mix)
3. Keep That One Nick (edit section)
4. Larks’ Tongues In Aspic Part I (live 2016)
5. Larks’ Tongues In Aspic Part II (live 1974)
6. Keep That One Nick (edit section)
7. Larks’ Tongues In Aspic Oart III (live 1984)
8. Keep That One Nick (edit section)
9. Larks’ IV ConstruKction
10. Keep That One Nick (edit section)
11. Larks’ Tongues In Aspic Part IV (live 2003)
12. Level Five (live 2016)
13. Larks’ Tongues In Aspic Part IV (radio advert)

X Lossless Decoder version 20151214 (149.1)

XLD extraction logfile from 2017-06-19 19:57:50 -0400

King Crimson / The Elements (2017 Tour Box)

Used drive : HL-DT-ST BD-RE WH10LS30 (revision 1.00)
Media type : Pressed CD

Ripper mode : XLD Secure Ripper
Disable audio cache : OK for the drive with a cache less than 1375KiB
Make use of C2 pointers : NO
Read offset correction : 667
Max retry count : 20
Gap status : Analyzed, Appended (except HTOA)

TOC of the extracted CD
Track | Start | Length | Start sector | End sector
––––––––––––––––––––––––––––-
1 | 00:00:00 | 03:00:09 | 0 | 13508
2 | 03:00:09 | 07:18:13 | 13509 | 46371
3 | 10:18:22 | 05:17:13 | 46372 | 70159
4 | 15:35:35 | 10:33:46 | 70160 | 117680
5 | 26:09:06 | 06:14:69 | 117681 | 145799
6 | 32:24:00 | 04:06:23 | 145800 | 164272
7 | 36:30:23 | 05:10:51 | 164273 | 187573
8 | 41:40:74 | 04:12:53 | 187574 | 206526
9 | 45:53:52 | 05:44:69 | 206527 | 232395
10 | 51:38:46 | 01:53:06 | 232396 | 240876
11 | 53:31:52 | 10:11:05 | 240877 | 286706
12 | 63:42:57 | 06:46:34 | 286707 | 317190
13 | 70:29:16 | 00:26:60 | 317191 | 319200

AccurateRip Summary
Disc not found in AccurateRip DB.

All Tracks
Album gain : -6.56 dB
Peak : 0.941315
Statistics
Read error : 0
Jitter error (maybe fixed) : 0
Retry sector count : 0
Damaged sector count : 0

Track 01
Filename : /Volumes/Stantz/RED Rip/King Crimson - 2017 - The Elements (2017 Tour Box) [FLAC]/Disc 02/01 Form No. 1.flac
/Volumes/Stantz/RED Rip/King Crimson - 2017 - The Elements (2017 Tour Box) [V0]/Disc 02/01 Form No. 1.mp3
/Volumes/Stantz/RED Rip/King Crimson - 2017 - The Elements (2017 Tour Box) [320]/Disc 02/01 Form No. 1.mp3
Pre-gap length : 00:02:00

Track gain : -1.49 dB
Peak : 0.892548
CRC32 hash (test run) : 382F8023
CRC32 hash : 382F8023
CRC32 hash (skip zero) : 8DD1140E
AccurateRip v1 signature : 9E7EB3DF
AccurateRip v2 signature : C0CC0100
->Track not present in AccurateRip database.
Statistics
Read error : 0
Jitter error (maybe fixed) : 0
Retry sector count : 0
Damaged sector count : 0

Track 02
Filename : /Volumes/Stantz/RED Rip/King Crimson - 2017 - The Elements (2017 Tour Box) [FLAC]/Disc 02/02 THRAK.flac
/Volumes/Stantz/RED Rip/King Crimson - 2017 - The Elements (2017 Tour Box) [V0]/Disc 02/02 THRAK.mp3
/Volumes/Stantz/RED Rip/King Crimson - 2017 - The Elements (2017 Tour Box) [320]/Disc 02/02 THRAK.mp3

Track gain : -8.16 dB
Peak : 0.841339
CRC32 hash (test run) : DE0F2A3B
CRC32 hash : DE0F2A3B
CRC32 hash (skip zero) : 370F20B8
AccurateRip v1 signature : 4C1F04A9
AccurateRip v2 signature : 3CF3AA18
->Track not present in AccurateRip database.
Statistics
Read error : 0
Jitter error (maybe fixed) : 0
Retry sector count : 0
Damaged sector count : 0

Track 03
Filename : /Volumes/Stantz/RED Rip/King Crimson - 2017 - The Elements (2017 Tour Box) [FLAC]/Disc 02/03 Keep That One Nick (edit section).flac
/Volumes/Stantz/RED Rip/King Crimson - 2017 - The Elements (2017 Tour Box) [V0]/Disc 02/03 Keep That One Nick (edit section).mp3
/Volumes/Stantz/RED Rip/King Crimson - 2017 - The Elements (2017 Tour Box) [320]/Disc 02/03 Keep That One Nick (edit section).mp3

Track gain : -4.66 dB
Peak : 0.798584
CRC32 hash (test run) : 7895B126
CRC32 hash : 7895B126
CRC32 hash (skip zero) : 8253D805
AccurateRip v1 signature : 64D9C531
AccurateRip v2 signature : 8C819FAF
->Track not present in AccurateRip database.
Statistics
Read error : 0
Jitter error (maybe fixed) : 0
Retry sector count : 0
Damaged sector count : 0

Track 04
Filename : /Volumes/Stantz/RED Rip/King Crimson - 2017 - The Elements (2017 Tour Box) [FLAC]/Disc 02/04 Larks’ Tongues in Aspic Part I (live 2015).flac
/Volumes/Stantz/RED Rip/King Crimson - 2017 - The Elements (2017 Tour Box) [V0]/Disc 02/04 Larks’ Tongues in Aspic Part I (live 2015).mp3
/Volumes/Stantz/RED Rip/King Crimson - 2017 - The Elements (2017 Tour Box) [320]/Disc 02/04 Larks’ Tongues in Aspic Part I (live 2015).mp3

Track gain : -6.08 dB
Peak : 0.877014
CRC32 hash (test run) : DD31EA0A
CRC32 hash : DD31EA0A
CRC32 hash (skip zero) : 3E628719
AccurateRip v1 signature : EE066954
AccurateRip v2 signature : B4CC1DBE
->Track not present in AccurateRip database.
Statistics
Read error : 0
Jitter error (maybe fixed) : 0
Retry sector count : 0
Damaged sector count : 0

Track 05
Filename : /Volumes/Stantz/RED Rip/King Crimson - 2017 - The Elements (2017 Tour Box) [FLAC]/Disc 02/05 Larks’ Tongues in Aspic Part II (live 1974).flac
/Volumes/Stantz/RED Rip/King Crimson - 2017 - The Elements (2017 Tour Box) [V0]/Disc 02/05 Larks’ Tongues in Aspic Part II (live 1974).mp3
/Volumes/Stantz/RED Rip/King Crimson - 2017 - The Elements (2017 Tour Box) [320]/Disc 02/05 Larks’ Tongues in Aspic Part II (live 1974).mp3

Track gain : -5.68 dB
Peak : 0.939545
CRC32 hash (test run) : C719D788
CRC32 hash : C719D788
CRC32 hash (skip zero) : 2677255C
AccurateRip v1 signature : 91676DB8
AccurateRip v2 signature : 5E313FA4
->Track not present in AccurateRip database.
Statistics
Read error : 0
Jitter error (maybe fixed) : 0
Retry sector count : 0
Damaged sector count : 0

Track 06
Filename : /Volumes/Stantz/RED Rip/King Crimson - 2017 - The Elements (2017 Tour Box) [FLAC]/Disc 02/06 Keep That One Nick (edit section).flac
/Volumes/Stantz/RED Rip/King Crimson - 2017 - The Elements (2017 Tour Box) [V0]/Disc 02/06 Keep That One Nick (edit section).mp3
/Volumes/Stantz/RED Rip/King Crimson - 2017 - The Elements (2017 Tour Box) [320]/Disc 02/06 Keep That One Nick (edit section).mp3

Track gain : -3.92 dB
Peak : 0.744598
CRC32 hash (test run) : 0DC01403
CRC32 hash : 0DC01403
CRC32 hash (skip zero) : F7D9CA50
AccurateRip v1 signature : 983EBD63
AccurateRip v2 signature : 962ECFB3
->Track not present in AccurateRip database.
Statistics
Read error : 0
Jitter error (maybe fixed) : 0
Retry sector count : 0
Damaged sector count : 0

Track 07
Filename : /Volumes/Stantz/RED Rip/King Crimson - 2017 - The Elements (2017 Tour Box) [FLAC]/Disc 02/07 Larks’ Tongues in Aspic Part III (live 1984).flac
/Volumes/Stantz/RED Rip/King Crimson - 2017 - The Elements (2017 Tour Box) [V0]/Disc 02/07 Larks’ Tongues in Aspic Part III (live 1984).mp3
/Volumes/Stantz/RED Rip/King Crimson - 2017 - The Elements (2017 Tour Box) [320]/Disc 02/07 Larks’ Tongues in Aspic Part III (live 1984).mp3

Track gain : -5.07 dB
Peak : 0.941315
CRC32 hash (test run) : CDA0B6C9
CRC32 hash : CDA0B6C9
CRC32 hash (skip zero) : ABAC2387
AccurateRip v1 signature : 9C22B542
AccurateRip v2 signature : 39BDC680
->Track not present in AccurateRip database.
Statistics
Read error : 0
Jitter error (maybe fixed) : 0
Retry sector count : 0
Damaged sector count : 0

Track 08
Filename : /Volumes/Stantz/RED Rip/King Crimson - 2017 - The Elements (2017 Tour Box) [FLAC]/Disc 02/08 Keep That One Nick (edit section).flac
/Volumes/Stantz/RED Rip/King Crimson - 2017 - The Elements (2017 Tour Box) [V0]/Disc 02/08 Keep That One Nick (edit section).mp3
/Volumes/Stantz/RED Rip/King Crimson - 2017 - The Elements (2017 Tour Box) [320]/Disc 02/08 Keep That One Nick (edit section).mp3

Track gain : -6.47 dB
Peak : 0.869659
CRC32 hash (test run) : D09D4D65
CRC32 hash : D09D4D65
CRC32 hash (skip zero) : 985CD9FB
AccurateRip v1 signature : 979B5918
AccurateRip v2 signature : 592116A6
->Track not present in AccurateRip database.
Statistics
Read error : 0
Jitter error (maybe fixed) : 0
Retry sector count : 0
Damaged sector count : 0

Track 09
Filename : /Volumes/Stantz/RED Rip/King Crimson - 2017 - The Elements (2017 Tour Box) [FLAC]/Disc 02/09 Larks’ IV ConstruKction.flac
/Volumes/Stantz/RED Rip/King Crimson - 2017 - The Elements (2017 Tour Box) [V0]/Disc 02/09 Larks’ IV ConstruKction.mp3
/Volumes/Stantz/RED Rip/King Crimson - 2017 - The Elements (2017 Tour Box) [320]/Disc 02/09 Larks’ IV ConstruKction.mp3

Track gain : -3.05 dB
Peak : 0.542969
CRC32 hash (test run) : 908259B8
CRC32 hash : 908259B8
CRC32 hash (skip zero) : 133E929C
AccurateRip v1 signature : 2E99D332
AccurateRip v2 signature : F6E47476
->Track not present in AccurateRip database.
Statistics
Read error : 0
Jitter error (maybe fixed) : 0
Retry sector count : 0
Damaged sector count : 0

Track 10
Filename : /Volumes/Stantz/RED Rip/King Crimson - 2017 - The Elements (2017 Tour Box) [FLAC]/Disc 02/10 Keep That One Nick (edit section).flac
/Volumes/Stantz/RED Rip/King Crimson - 2017 - The Elements (2017 Tour Box) [V0]/Disc 02/10 Keep That One Nick (edit section).mp3
/Volumes/Stantz/RED Rip/King Crimson - 2017 - The Elements (2017 Tour Box) [320]/Disc 02/10 Keep That One Nick (edit section).mp3

Track gain : -4.38 dB
Peak : 0.739319
CRC32 hash (test run) : 0026752B
CRC32 hash : 0026752B
CRC32 hash (skip zero) : 4301DC8C
AccurateRip v1 signature : 262C2531
AccurateRip v2 signature : 36A87B77
->Track not present in AccurateRip database.
Statistics
Read error : 0
Jitter error (maybe fixed) : 0
Retry sector count : 0
Damaged sector count : 0

Track 11
Filename : /Volumes/Stantz/RED Rip/King Crimson - 2017 - The Elements (2017 Tour Box) [FLAC]/Disc 02/11 Larks’ Tongues in Aspic Part IV (live 2003).flac
/Volumes/Stantz/RED Rip/King Crimson - 2017 - The Elements (2017 Tour Box) [V0]/Disc 02/11 Larks’ Tongues in Aspic Part IV (live 2003).mp3
/Volumes/Stantz/RED Rip/King Crimson - 2017 - The Elements (2017 Tour Box) [320]/Disc 02/11 Larks’ Tongues in Aspic Part IV (live 2003).mp3

Track gain : -6.93 dB
Peak : 0.843109
CRC32 hash (test run) : 03F96E89
CRC32 hash : 03F96E89
CRC32 hash (skip zero) : 5F6DEF06
AccurateRip v1 signature : 4FA10DC4
AccurateRip v2 signature : 0357868C
->Track not present in AccurateRip database.
Statistics
Read error : 0
Jitter error (maybe fixed) : 0
Retry sector count : 0
Damaged sector count : 0

Track 12
Filename : /Volumes/Stantz/RED Rip/King Crimson - 2017 - The Elements (2017 Tour Box) [FLAC]/Disc 02/12 Level Five (live 2016).flac
/Volumes/Stantz/RED Rip/King Crimson - 2017 - The Elements (2017 Tour Box) [V0]/Disc 02/12 Level Five (live 2016).mp3
/Volumes/Stantz/RED Rip/King Crimson - 2017 - The Elements (2017 Tour Box) [320]/Disc 02/12 Level Five (live 2016).mp3

Track gain : -7.13 dB
Peak : 0.903595
CRC32 hash (test run) : F88BC55A
CRC32 hash : F88BC55A
CRC32 hash (skip zero) : BEB33825
AccurateRip v1 signature : 11F6B5E7
AccurateRip v2 signature : C4394701
->Track not present in AccurateRip database.
Statistics
Read error : 0
Jitter error (maybe fixed) : 0
Retry sector count : 0
Damaged sector count : 0

Track 13
Filename : /Volumes/Stantz/RED Rip/King Crimson - 2017 - The Elements (2017 Tour Box) [FLAC]/Disc 02/13 Larks’ Tongues in Aspic (radio advert).flac
/Volumes/Stantz/RED Rip/King Crimson - 2017 - The Elements (2017 Tour Box) [V0]/Disc 02/13 Larks’ Tongues in Aspic (radio advert).mp3
/Volumes/Stantz/RED Rip/King Crimson - 2017 - The Elements (2017 Tour Box) [320]/Disc 02/13 Larks’ Tongues in Aspic (radio advert).mp3

Track gain : 1.41 dB
Peak : 0.434875
CRC32 hash (test run) : 653CB926
CRC32 hash : 653CB926
CRC32 hash (skip zero) : C5E07EB2
AccurateRip v1 signature : ED752E5A
AccurateRip v2 signature : 24C7A418
->Track not present in AccurateRip database.
Statistics
Read error : 0
Jitter error (maybe fixed) : 0
Retry sector count : 0
Damaged sector count : 0

No errors occurred

End of status report

––-BEGIN XLD SIGNATURE––-
8sWCN5RLVhzE6FeM3_uNKS0Ec4f0BgZDSXgkiHSo_g4NnyQGbsmyV8lMUwl8MuToq0x462SAXnbbHMMfmDtCQfhiGMGSQM819FGE30O
––-END XLD SIGNATURE––-


King Crimson - The Elements: 2017 Tour Box (2017)


Thanks to the Original customer.