Subcategories

The Alan Parsons Project - The Definitive Collection (2CDs, 2000)

Posted By: Discograf_man
The Alan Parsons Project - The Definitive Collection (2CDs, 2000)

The Alan Parsons Project - The Definitive Collection (2CDs, 2000)
EAC Rip | FLAC (image + .cue, log) | Run Time: 2:26:32 | 994 Mb
Genre: Progressive Rock, Art Rock | Label: Sony Music Cmg

The Definitive Collection is 2 CD release by Sony Music consisting of many of the best known works from The Alan Parsons Project, along with two songs taken from Alan Parsons' first solo album.
Tracklist:

CD1 :

01 (The System Of) Doctor Tarr And Professor Fether (3:25)
02 The Raven (4:07)
03 I Robot (6:03)
04 Wouldn't Want To Be Like You (3:19)
05 Breakdown (3:47)
06 Don't Let It Show (4:19)
07 Voyager (2:24)
08 What Goes Up… (3:31)
09 The Eagle Will Rise Again (4:20)
10 Can't Take It With You (5:03)
11 Piramania (2:45)
12 Damned If I Do (4:50)
13 Lucifer (5:04)
14 If I Could Change Your Mind (5:48)
15 The Turn Of A Friendly Card (Part 1) (2:43)
16 Snake Eyes (3:18)
17 Games People Play (4:23)
18 Time (5:04)

CD2 :

01 Sirius (1:53)
02 Eye In The Sky (4:36)
03 Psychobable (4:50)
04 Mammagamma (3:35)
05 Old And Wise (4:54)
06 Prime Time (5:02)
07 Don't Answer Me (4:11)
08 You Don't Believe (4:27)
09 Let's Talk About Me (4:30)
10 Days Are Numbers (The Traveller) (4:23)
11 Stereotomy (6:59)
12 In The Real World (4:17)
13 Standing On Higher Ground (5:31)
14 To Late (4:28)
15 Turn It Up (6:13)
16 Re-Jigue (2:30)

The Alan Parsons Project - The Definitive Collection (2CDs, 2000)


Exact Audio Copy V0.99 prebeta 4 from 23. January 2008

Отчёт EAC об извлечении, выполненном 16. января 2009, 22:29

Alan Parsons / The Definitive Collection 1

Дисковод: PIONEER DVD-RW DVR-108 Adapter: 4 ID: 0

Режим чтения : Достоверность
Использование точного потока : Да
Отключение кэша аудио : Да
Использование указателей C2 : Нет

Коррекция смещения при чтении : 48
Способность читать области Lead-in и Lead-out : Нет
Заполнение пропущенных сэмплов тишиной : Да
Удаление блоков с тишиной в начале и конце : Нет
При вычислениях CRC использовались нулевые сэмплы : Да
Интерфейс : Установленный внешний ASPI-интерфейс

Выходной формат : Внутренние WAV-операции
Формат сэмплов : 44.100 Гц; 16 бит; стерео


TOC извлечённого CD

Трек | Старт | Длительность | Начальный сектор | Конечный сектор
––––––––––––––––––––––––––––––––––-
1 | 0:00.00 | 3:25.27 | 0 | 15401
2 | 3:25.27 | 4:06.59 | 15402 | 33910
3 | 7:32.11 | 6:02.39 | 33911 | 61099
4 | 13:34.50 | 3:18.59 | 61100 | 76008
5 | 16:53.34 | 3:46.42 | 76009 | 93000
6 | 20:40.01 | 4:18.49 | 93001 | 112399
7 | 24:58.50 | 2:24.29 | 112400 | 123228
8 | 27:23.04 | 3:30.67 | 123229 | 139045
9 | 30:53.71 | 4:20.29 | 139046 | 158574
10 | 35:14.25 | 5:02.67 | 158575 | 181291
11 | 40:17.17 | 2:44.54 | 181292 | 193645
12 | 43:01.71 | 4:50.16 | 193646 | 215411
13 | 47:52.12 | 5:03.44 | 215412 | 238180
14 | 52:55.56 | 5:47.57 | 238181 | 264262
15 | 58:43.38 | 2:42.52 | 264263 | 276464
16 | 61:26.15 | 3:18.06 | 276465 | 291320
17 | 64:44.21 | 4:22.52 | 291321 | 311022
18 | 69:06.73 | 5:04.17 | 311023 | 333839


Характеристики диапазона извлечения и сообщения об ошибках

Выбранный диапазон

Имя файла F:\TEMP\Alan Parsons - The Definitive Collection - 1997\Alan Parsons - The Definitive Collection 1.wav

Пиковый уровень 99.9 %
Качество диапазона 99.8 %
CRC копии D05C7B9B
Копирование… OK

Ошибок не произошло

Конец отчёта

==================================

Exact Audio Copy V0.99 prebeta 4 from 23. January 2008

Отчёт EAC об извлечении, выполненном 16. января 2009, 22:47

Alan Parsons / The Definitive Collection 2

Дисковод: PIONEER DVD-RW DVR-108 Adapter: 4 ID: 0

Режим чтения : Достоверность
Использование точного потока : Да
Отключение кэша аудио : Да
Использование указателей C2 : Нет

Коррекция смещения при чтении : 48
Способность читать области Lead-in и Lead-out : Нет
Заполнение пропущенных сэмплов тишиной : Да
Удаление блоков с тишиной в начале и конце : Нет
При вычислениях CRC использовались нулевые сэмплы : Да
Интерфейс : Установленный внешний ASPI-интерфейс

Выходной формат : Внутренние WAV-операции
Формат сэмплов : 44.100 Гц; 16 бит; стерео


TOC извлечённого CD

Трек | Старт | Длительность | Начальный сектор | Конечный сектор
––––––––––––––––––––––––––––––––––-
1 | 0:00.00 | 1:53.32 | 0 | 8506
2 | 1:53.32 | 4:35.52 | 8507 | 29183
3 | 6:29.09 | 4:50.02 | 29184 | 50935
4 | 11:19.11 | 3:35.25 | 50936 | 67085
5 | 14:54.36 | 4:54.02 | 67086 | 89137
6 | 19:48.38 | 5:01.42 | 89138 | 111754
7 | 24:50.05 | 4:11.10 | 111755 | 130589
8 | 29:01.15 | 4:26.64 | 130590 | 150603
9 | 33:28.04 | 4:29.47 | 150604 | 170825
10 | 37:57.51 | 4:23.17 | 170826 | 190567
11 | 42:20.68 | 6:59.37 | 190568 | 222029
12 | 49:20.30 | 4:17.22 | 222030 | 241326
13 | 53:37.52 | 5:30.50 | 241327 | 266126
14 | 59:08.27 | 4:27.49 | 266127 | 286200
15 | 63:36.01 | 6:13.29 | 286201 | 314204
16 | 69:49.30 | 2:29.70 | 314205 | 325449


Характеристики диапазона извлечения и сообщения об ошибках

Выбранный диапазон

Имя файла F:\TEMP\Alan Parsons - The Definitive Collection - 1997\Alan Parsons - The Definitive Collection 2.wav

Пиковый уровень 100.0 %
Качество диапазона 99.9 %
CRC копии 26090464
Копирование… OK

Ошибок не произошло

Конец отчёта