Subcategories

The Flonzaley Quartet Play Romantic Masterpieces · Schubert · Mendelssohn · Schumann · Brahms [2 CDs] [Re-up]

Posted By: DanseDePuck
The Flonzaley Quartet Play Romantic Masterpieces · Schubert · Mendelssohn · Schumann · Brahms [2 CDs] [Re-up]

The Flonzaley Quartet Play Romantic Masterpieces · Schubert · Mendelssohn · Schumann · Brahms
EAC rip | FLAC, IMG+CUE, Logs | 2 CD's | 533 MB | Full 300 dpi scans | WinRar Rec. 5%
Label: [OOP] Biddulph # LAB 072/73 | Rec. dates: 1925-29 | Released 1992


From the notes: The two pianists featured in the Flonzaley recordings of piano quintets were amongst the most interesting artists of their time. Both were longtime associates of the quartet, both on and off stage, as well as friends of each other (together they formed a celebrated two-piano team). Harold Bauer [born London, 28 April 1873; died Miami, 12 March 1951) was virtually self-taught as a pianist In his delightful memoirs he wrote of his earliest musical sensations which included a one-man band: "That, to me, was real magic; and I longed unspeakably to grow up and conquer my fear of the sounds, so that I could wield the power they possessed …." It was the opening of Brahms' piano quintet. … [i]Ossip Gabrilowitsch (born St. Petersburg, 7 February 1978; died Detroit, 14 September 1936) was a more orthodox pianist, the supreme keyboard poet of histime. He studied with Anton Rubinstein but also took compositions and theory courses from Navratil, Liadov and Glazunov at the Conservatory in his home city. After winning the Rubinstein Prize in 1894 he had further studies with Leschtizky in Vienna and made his début in Berlin in 1896. He was also a skilled conductor. He was the 'perfect fifth' for the Schumann Piano Quintet, a work which brought out his best qualities. This performance is the secondof two recordings he made with the Flonzaleys… written by Tully Potter

The Flonzaley Quartet Play Romantic Masterpieces · Schubert · Mendelssohn · Schumann · Brahms [2 CDs] [Re-up]

CD 1(LAB 072)
SCHUBERT
String Quartet in G (Op. 161)

1. I. Allegro
2. II. Andante un poco moto
3. III. Scherzo: Allegro vivace
4. IV. Allegro assai

Rec. 18 & 29 Dec. 1929
MENDELSSOHN
5. Canzonetta from String Quartet in E flat (Op. 12)
Rec. 19 Dec. 1928
SCHUMANN
String Quartet in A minor (Op. 41 No. 1)

6. I. Introduzione: Andante espressivo - Allegro
7. II. Scherzo: Presto - Intermezzo
8. III. Adagio
9. IV. Presto

Rec. 22 & 23 Dec. 1927
SCHUMANN
Piano Quintet in E-flat (Op.44)*

10. I. Allegro brillante
11. II. In modo d'una marcia: Un poco largamente - Agitato

The Flonzaley Quartet Play Romantic Masterpieces · Schubert · Mendelssohn · Schumann · Brahms [2 CDs] [Re-up]

CD 2(LAB 073)
1. III. Scherzo: Molto vivace
2. IV. Allegro ma non troppo

Rec. 21 Dec. 1927
BRAHMS
Piano Quintet in F minor (Op. 34)**

3. I. Allegro non troppo
4. II. Andante un poco Adagio
5. III. Scherzo: Allegro
6. IV. Finale: Poco sostenuto - Allegro non troppo

Rec. 21 & 23 Dec. 1925
BRAHMS
String Quartet in B-flat (Op. 67)

7. I. Vivace
8. II. Andante
9. III. Agitato (Allegretto non troppo)
10. IV. Poco allegretto con variazioni (2nd. part only)

Rec. 1, 2 & 6 March 1928

The Flonzaley Quartet Play Romantic Masterpieces · Schubert · Mendelssohn · Schumann · Brahms [2 CDs] [Re-up]

The Flonzaley Quartet
with Ossip Gabrilowitsch* and Harold Bauer**

Members of the Flonzaley Quartet
Adolfo Betti, Violin I
Alfred Pochon, Violin II
Nicolas Moldavan, Viola
Iwan d'Archambeau, Cello


Enjoy!
There will be a third post of works by Smetana and von Dohnanyi by the Flonzaley.

Exact Audio Copy V0.99 prebeta 5 from 4. May 2009

EAC extraction logfile from 20. December 2009, 18:37

Various Artists / Op. 44 Piano Quintet in E-flat - CD1

Used drive : HL-DT-STDVD-RAM GH22NP20 Adapter: 1 ID: 0

Read mode : Secure
Utilize accurate stream : Yes
Defeat audio cache : Yes
Make use of C2 pointers : No

Read offset correction : 102
Overread into Lead-In and Lead-Out : No
Fill up missing offset samples with silence : Yes
Delete leading and trailing silent blocks : No
Null samples used in CRC calculations : No
Used interface : Installed external ASPI interface

Used output format : Internal WAV Routines
Sample format : 44.100 Hz; 16 Bit; Stereo


TOC of the extracted CD

Track | Start | Length | Start sector | End sector
––––––––––––––––––––––––––––-
1 | 0:00.00 | 9:34.54 | 0 | 43103
2 | 9:34.54 | 7:04.62 | 43104 | 74965
3 | 16:39.41 | 4:41.01 | 74966 | 96041
4 | 21:20.42 | 6:53.68 | 96042 | 127084
5 | 28:14.35 | 3:20.62 | 127085 | 142146
6 | 31:35.22 | 9:37.64 | 142147 | 185485
7 | 41:13.11 | 3:29.08 | 185486 | 201168
8 | 44:42.19 | 5:50.16 | 201169 | 227434
9 | 50:32.35 | 6:35.74 | 227435 | 257133
10 | 57:08.34 | 8:10.16 | 257134 | 293899
11 | 65:18.50 | 8:27.49 | 293900 | 331973


Range status and errors

Selected range

Filename E:\ADIL\FLONZALEY\Flonzaley+Quartet\Flonzaley Quartet\Romantic Masterpieces\Romantic Masterpieces\Disc 1 (LAB 072)\Various Artists - Op. 44 Piano Quintet in E-flat - CD1.wav

Peak level 95.9 %
Range quality 100.0 %
Copy CRC 9CB77021
Copy OK

No errors occurred


AccurateRip summary

Track 1 not present in database
Track 2 not present in database
Track 3 not present in database
Track 4 not present in database
Track 5 not present in database
Track 6 not present in database
Track 7 not present in database
Track 8 not present in database
Track 9 not present in database
Track 10 not present in database
Track 11 not present in database

None of the tracks are present in the AccurateRip database

End of status report

Exact Audio Copy V0.99 prebeta 5 from 4. May 2009

EAC extraction logfile from 20. December 2009, 19:18

Various Artists / Op. 44 Piano Quintet in E-flat - CD2

Used drive : HL-DT-STDVD-RAM GH22NP20 Adapter: 1 ID: 0

Read mode : Secure
Utilize accurate stream : Yes
Defeat audio cache : Yes
Make use of C2 pointers : No

Read offset correction : 102
Overread into Lead-In and Lead-Out : No
Fill up missing offset samples with silence : Yes
Delete leading and trailing silent blocks : No
Null samples used in CRC calculations : No
Used interface : Installed external ASPI interface

Used output format : Internal WAV Routines
Sample format : 44.100 Hz; 16 Bit; Stereo


TOC of the extracted CD

Track | Start | Length | Start sector | End sector
––––––––––––––––––––––––––––-
1 | 0:00.00 | 5:00.67 | 0 | 22566
2 | 5:00.67 | 6:17.68 | 22567 | 50909
3 | 11:18.60 | 11:13.46 | 50910 | 101430
4 | 22:32.31 | 8:25.07 | 101431 | 139312
5 | 30:57.38 | 7:28.31 | 139313 | 172943
6 | 38:25.69 | 9:45.59 | 172944 | 216877
7 | 48:11.53 | 7:04.03 | 216878 | 248680
8 | 55:15.56 | 6:50.58 | 248681 | 279488
9 | 62:06.39 | 7:44.22 | 279489 | 314310
10 | 69:50.61 | 3:18.14 | 314311 | 329174


Range status and errors

Selected range

Filename E:\ADIL\FLONZALEY\Flonzaley+Quartet\Flonzaley Quartet\Romantic Masterpieces\Romantic Masterpieces\Disc 2 (LAB 073)\Various Artists - Op. 44 Piano Quintet in E-flat - CD2.wav

Peak level 100.0 %
Range quality 100.0 %
Copy CRC 21DA69B9
Copy OK

No errors occurred


AccurateRip summary

Track 1 not present in database
Track 2 not present in database
Track 3 not present in database
Track 4 not present in database
Track 5 not present in database
Track 6 not present in database
Track 7 not present in database
Track 8 not present in database
Track 9 not present in database
Track 10 not present in database

None of the tracks are present in the AccurateRip database

End of status report