Tags
Language
Tags

The Horace Parlan Trio - We Three (1998)

Posted By: gribovar
The Horace Parlan Trio - We Three (1998)

The Horace Parlan Trio - We Three (1998)
EAC Rip | APE (image+.cue+log) - 344 MB | MP3 CBR 320 kbps (LAME 3.93) - 151 MB | Covers (13 MB) included
Genre: Jazz, Post-Bop | RAR 3% Rec. | Label: Teichiku Records (TECW-25673)

Recorded at Focus Studio, Copenhagen, June 18 & 19, 1997. The trio are: Mads Vinding (Bass), Ed Thigpen (Drums), Horace Parlan (Piano).
Horace Parlan overcame physical disability and thrived as a pianist despite it. His right hand was partially disabled by polio in his childhood, but Parlan made frenetic, highly rhythmic right-hand phrases part of his characteristic style, contrasting them with striking left-hand chords. He also infused blues and R&B influences into his style, playing in a stark, sometimes somber fashion. Parlan always cited Ahmad Jamal and Bud Powell as prime influences. He began playing in R&B bands during the '50s, joining Charles Mingus' group from 1957 to 1959 following a move from Pittsburgh to New York. Mingus aided his career enormously, both through his recordings and his influence. Parlan played with Booker Ervin in 1960 and 1961, then in the Eddie "Lockjaw" Davis-Johnny Griffin quintet in 1962. Parlan played with Rahsaan Roland Kirk from 1963 to 1966, and had a strong series of Blue Note recordings in the '60s. He left America for Copenhagen in 1973, and gained international recognition for some stunning albums on SteepleChase, including a pair of superb duet sessions with Archie Shepp. He also recorded with Dexter Gordon, Red Mitchell, Frank Foster, and Michal Urbaniak, and recorded extensively for Enja and Timeless. He died in Denmark in February 2017 at the age of 86.
Tracklist:
01. Us Three
02. Summertime
03. Broken Promises
04. Solar
05. Wild Is the Wind
06. Bags Groove
07. Fran Dance
08. Little Esther
09. Billy's Bossa
10. Have You Met Miss Jones?
11. Blues for H.P.

Total time: 58:46

Exact Audio Copy V0.99 prebeta 4 from 23. January 2008

EAC extraction logfile from 25. October 2009, 20:47

The Horace Parlan Trio / We Three

Used drive : HL-DT-STRW/DVD GCC-4242N Adapter: 1 ID: 0

Read mode : Secure
Utilize accurate stream : Yes
Defeat audio cache : Yes
Make use of C2 pointers : No

Read offset correction : 102
Overread into Lead-In and Lead-Out : No
Fill up missing offset samples with silence : Yes
Delete leading and trailing silent blocks : No
Null samples used in CRC calculations : Yes
Used interface : Native Win32 interface for Win NT & 2000

Used output format : Internal WAV Routines
Sample format : 44.100 Hz; 16 Bit; Stereo


TOC of the extracted CD

Track | Start | Length | Start sector | End sector
––––––––––––––––––––––––––––-
1 | 0:00.00 | 3:35.70 | 0 | 16194
2 | 3:35.70 | 5:31.05 | 16195 | 41024
3 | 9:07.00 | 5:54.42 | 41025 | 67616
4 | 15:01.42 | 4:55.20 | 67617 | 89761
5 | 19:56.62 | 7:05.55 | 89762 | 121691
6 | 27:02.42 | 5:57.10 | 121692 | 148476
7 | 32:59.52 | 5:23.73 | 148477 | 172774
8 | 38:23.50 | 5:03.45 | 172775 | 195544
9 | 43:27.20 | 5:59.20 | 195545 | 222489
10 | 49:26.40 | 5:13.65 | 222490 | 246029
11 | 54:40.30 | 4:05.37 | 246030 | 264441


Range status and errors

Selected range

Filename C:\_\EAC_Out\Out\The Horace Parlan Trio - We Three\The Horace Parlan Trio - We Three.wav

Peak level 98.8 %
Range quality 100.0 %
Copy CRC 91D7F3AC
Copy OK

No errors occurred


AccurateRip summary

Track 1 not present in database
Track 2 not present in database
Track 3 not present in database
Track 4 not present in database
Track 5 not present in database
Track 6 not present in database
Track 7 not present in database
Track 8 not present in database
Track 9 not present in database
Track 10 not present in database
Track 11 not present in database

None of the tracks are present in the AccurateRip database

End of status report

[CUETools log; Date: 01.08.2021 12:41:11; Version: 2.1.4]
[CTDB TOCID: ZLLQaaxfHjD_ZQlAOgMrlKSCsiA-] found.
Track | CTDB Status
1 | (13/13) Accurately ripped
2 | (13/13) Accurately ripped
3 | (13/13) Accurately ripped
4 | (13/13) Accurately ripped
5 | (13/13) Accurately ripped
6 | (13/13) Accurately ripped
7 | (13/13) Accurately ripped
8 | (12/13) Accurately ripped
9 | (11/13) Accurately ripped
10 | (13/13) Accurately ripped
11 | (13/13) Accurately ripped
[AccurateRip ID: 00183382-00d3f53a-a00dc50b] found.
Track [ CRC | V2 ] Status
01 [14e4ba4c|d3c03842] (0+4/4) Accurately ripped
02 [b5275a89|c6cd114a] (0+4/4) Accurately ripped
03 [358ca882|448982f3] (0+4/4) Accurately ripped
04 [382523a7|8d6e78c2] (0+4/4) Accurately ripped
05 [b5b703f2|706d577e] (0+4/4) Accurately ripped
06 [fa2a19b1|758e32e2] (0+4/4) Accurately ripped
07 [d9090520|73abb07d] (0+4/4) Accurately ripped
08 [8006cd0d|b140340c] (0+4/4) Accurately ripped
09 [b124cff9|ffb27589] (0+4/4) Accurately ripped
10 [925ea680|0bbbce15] (0+4/4) Accurately ripped
11 [6573aab4|96eca25a] (0+4/4) Accurately ripped

Track Peak [ CRC32 ] [W/O NULL] [ LOG ]
– 98,8 [91D7F3AC] [6992B218] CRC32
01 98,8 [27DC1947] [6BF09C33]
02 83,2 [98D0F10F] [997E06E2]
03 98,8 [DF37AB99] [C53F698A]
04 98,8 [B4C51EBA] [D66EAF67]
05 71,4 [24C43808] [AA5D3C64]
06 83,1 [B7C94CDC] [EAFE52FC]
07 88,1 [DC89A1B7] [A7AE668C]
08 98,8 [25E6D7BA] [1E0FC1B2]
09 77,2 [6B248FB7] [763EE566]
10 88,1 [84339EB0] [59E6E16A]
11 98,8 [66346CEE] [1865F649]

Thanks to barin99

See also:
Horace Parlan - Us Three (1960) [Reissue 1997]
Horace Parlan - Happy Frame of...(1986) [Japanese Edition 2005]