Subcategories

The Kolisch Quartet plays Schubert - Rare OOP Archiphon CD [Re-Up]

Posted By: DanseDePuck
The Kolisch Quartet plays Schubert  - Rare OOP Archiphon CD [Re-Up]

The Kolisch Quartet plays Schubert - Rare OOP Archiphon CD
1 CD | EAC rip | FLAC, CUE+LOG | Full scan covers and booklet | Size: 459 MB | WinRar 7% rec.
Archiphon ARC-107

From the Notes: The string quartets founded or led by Rudolf Kolisch stand out from other quartets by a special quality: They belong to the history of the Second Viennese School. This is no accidental quality, caused by mere biographical coincidence; it is an audible one, a musical quality - and not only when listening to contemporary music. …In 1918 Schoenberg and the musicians associated with him founded the "Verein für musikalische Privatauführungen" ["Society for Private Musical Performances"]. ,,, This Society is known for its influence on the foundation of the Kolisch Quartet and its importance on the performing rules of this ensemble… But even more important for Kolisch and other young musicians were the weekly gatherings in Schoenberg's flat in Mödling. Each Sunday the disciples and friends met there in order to play classical and romantic chamber music for their own pleasure…"

The Kolisch Quartet plays Schubert  - Rare OOP Archiphon CD [Re-Up]

Archiphon ARC-107
Recorded in 1929-1934 - Released in 1993 now OOP
The Kolisch Quartet Plays Schubert

Tracklist:
FRANZ SCHUBERT
String Quartet No. 15 in G Major Op. 161 D.887
String Quartet No. 13 in A minor Op. 29 D.804
String Quartet No. 12 [Quartettsatz] in C Minor Op. Posth. D.703
Quintet in A Major Op. 114 D.667 ["Trout"]: 4th. Movement
String Quartet No. 14 in D minor Op. Posth. D.810: 3rd. Movement

Rudolf KOLISCH, violin; Eugene LEHNER, viola
Felix KHUNER, violin; Benar HEIFETZ, cello


Truly incredible playing and fantastic musicality!

Exact Audio Copy V0.99 prebeta 4 from 23. January 2008
EAC extraction logfile from 3. June 2009, 18:18
Kolisch-Quartett / Schubert - Streichquartette - Kolisch
Used drive : HL-DT-STDVDRAM GSA-H10N Adapter: 0 ID: 0

Read mode : Secure
Utilize accurate stream : Yes
Defeat audio cache : Yes
Make use of C2 pointers : No

Combined read/write offset correction : 0
Overread into Lead-In and Lead-Out : No
Fill up missing offset samples with silence : Yes
Delete leading and trailing silent blocks : No
Null samples used in CRC calculations : No
Used interface : Installed external ASPI interface

Used output format : Internal WAV Routines
Sample format : 44.100 Hz; 16 Bit; Stereo

TOC of the extracted CD

Track | Start | Length | Start sector | End sector
––––––––––––––––––––––––––––-
1 | 0:00.00 | 12:56.00 | 0 | 58199
2 | 12:56.00 | 8:32.70 | 58200 | 96669
3 | 21:28.70 | 6:04.50 | 96670 | 124019
4 | 27:33.45 | 8:53.43 | 124020 | 164037
5 | 36:27.13 | 8:44.57 | 164038 | 203394
6 | 45:11.70 | 6:50.35 | 203395 | 234179
7 | 52:02.30 | 4:45.48 | 234180 | 255602
8 | 56:48.03 | 7:05.40 | 255603 | 287517
9 | 63:53.43 | 4:49.52 | 287518 | 309244
10 | 68:43.20 | 8:05.23 | 309245 | 345642
11 | 76:48.43 | 3:01.57 | 345643 | 359274


Range status and errors

Selected range

Filename F:\AUDIO\Kolisch_Schubert\Kolisch-Quartett - Schubert - Streichquartette - Kolisch.wav

Peak level 95.7 %
Range quality 99.9 %
Copy CRC 1E150744
Copy OK

No errors occurred

End of status report