Subcategories

The Nice - Japanese SHM-CD Reissue (2011) [4 Albums] RE-UP

Posted By: perfecta
The Nice - Japanese SHM-CD Reissue (2011) [4 Albums] RE-UP

The Nice - Japanese SHM-CD Reissue (2011) [4 Albums]
EAC Rips | 5x FLAC Images with CUEs and LOGs - 1,46 GB | Full PNG Scans | MP3 CBR 320 Kbps - 595 MB
Prog-Rock / Sympho-prog / Psychedelic Art Rock | TT - 258:17 mins | Label: Virgin Japan | Catalogue # VJCP-98001~5

The Nice were an English progressive rock band from the 1960s, known for their blend of rock, jazz and classical music. Their debut album, The Thoughts of Emerlist Davjack was released in 1967 to immediate acclaim. It is often considered the first progressive rock album. The Nice are also a forerunner of the much more widely known Emerson, Lake & Palmer. Cardboard sleeve (mini LP) reissue from The Nice featuring the 2009 digital remastering and the high-fidelity SHM-CD format. The series featuring the albums "Five Bridges", "Elegy", "Autumn 1967 And Spring 1968", and "Live at the Fillmore East December 1969". This reissue faithfully replicates the original UK jacket artwork.

During much of their three years together, the Nice were more of a cult act than actual stars – but they eventually did find major success in England and an international following and, in the course of making some great records and playing even finer shows, they bridged the gap between mid-'60s psychedelic pop and '70s art rock, laying the groundwork for the entire progressive rock explosion in the process. And it was with the Nice that Keith Emerson began his transformation from an unknown musician into an international rock star.

Ironically, the Nice's origins made them a seemingly unlikely cutting-edge outfit – they were initially conceived as a backup band, à la Booker T. & the MG's, for American-born soul singer P.P. Arnold, an ex-member of the Ikettes (who producer, manager, and music mogul Andrew Oldham hoped to make into the next Tina Turner). Keyboard player Keith Emerson had previously played in Gary Farr & the T-Bones, and the new group's rhythm section was filled by T-Bones alumni Lee Jackson on bass and Ian Hague on drums, while former Attack guitarist Davy O'List filled the fourth spot.

They got together in May of 1967 and soon found themselves given an unexpected amount of freedom in their role as Arnold's backing band. Part of their role was to warm up the crowd for Arnold's entrance, and the singer told them to play anything they liked – as a result, slipped in between covers of various soul standards was a brace of ever more ambitious originals composed by the group members, and soon their opening sets began building a following of their own. By that summer, the quartet had earned billing on its own at the National Jazz and Blues Festival, and by the fall of 1967 the group had a recording contract of its own with Oldham's Immediate Records. Hague, however, proved a weak link in their lineup, and by the time they were ready to formally begin recording, the drummer had been replaced by O'List's onetime Attack bandmate Brian Davison. They were an amazingly freewheeling outfit, in keeping with the times, playing a strange mix of psychedelic blues, heavily laced with cadenza-like solos on the piano or the Hammond organ, and dressed up in ornate, flashy guitar, reminiscent of Jimi Hendrix – amid the pop flourishes and heavy piano and guitar riffs, one could hear influences of classical, soul, and jazz. Their debut album was ready for release early in 1968 but was delayed getting into stores until much later in the year, at which point they had released a single to support it – their chosen track was a driving, flashy, instantly memorable instrumental rendition of the song "America" from the musical West Side Story, which got them lots of airplay and appeared to be a possible vehicle for the band's entry onto the U.K. charts – until, that is, objections were raised to a very tasteless picture-sleeve design, coupled with the complaint of composer Leonard Bernstein that the group had never gotten permission to revamp the piece, all of which contrived to limit sales in England and prevent a U.S. release of the single.

Their first year's worth of work had begun to build the group, and especially the extroverted personality of Emerson, a following in England. The organist would jam knives into his keyboards, set fire to various objects on-stage (including, at least once, at Royal Albert Hall, the American flag, creating a potential diplomatic incident for the government), and simulate sex with his instrument – by 1968 he was known as the Jimi Hendrix of the keyboard. The quartet's debut album, The Thoughts of Emerlist Davjack, managed to sound different from virtually anything else in music at the time – spooky organ solos and slashing guitar attacks ran together and clashed, and heavily veiled quotations from Dave Brubeck and Johann Sebastian Bach all seemed to trail out from in and around their songs, and pointed to something wonderfully strange about this band. They were working hard on their second album when guitarist Davy O'List, owing to personal instability, left the group in the early fall of 1968, and he wasn't replaced – instead, the Nice became a trio comprised of keyboard, bass (with a guitar added occasionally as needed, by a guest support player), and drums. Their sound tightened and also evolved in a new direction – the centerpiece of their second album, Ars Longa Vita Brevis, was the title suite, a rock-classical amalgam for band and orchestra that took up the whole second side – that work included an arrangement of one movement of the Bach Brandenburg Concerto No. 3. The other highlight was a band rendition of the intermezzo from The Karelia Suite by composer Jean Sibelius, and both of those classically inspired works dominated the record.

Released in November of 1968, just four months after their debut album, Ars Longa Vita Brevis garnered sterling reviews, but it died without a single to help promote the album. By this time, the group's manager, Tony Stratton-Smith, was wary of the financial underpinnings of their label, Immediate Records, which always seemed to have someone knocking on their door demanding payment for some long overdue invoice or other, and lots of people hanging around trying to spend the company's money. They went ahead with plans for a third LP, which initially was to have been a live album recorded at the Fillmore East during their early 1969 tour of the United States. In the end, that album, variously titled Nice or Everything as Nice as Mother Makes It (or, later, Nice #3), was a mix of live and studio performances that showcased the group working from strength to strength, and evolving even on the record itself. Gone were the obvious psychedelic flourishes of the first two albums – instead, they were intense and concentrated in their focus on jazz and classical elements, a lean music machine that surged and pounded away at their material, yet who were subtle enough to work in delightful little embellishments, and playful and clever as well. The record peaked at number three on the British charts, and suddenly the Nice were ranked among the top bands in the country. And they were sufficiently popular in Europe to have spawned a rival group in the Netherlands, patterned along the same lines, called Ekseption, organized by Nice admirer Rick van der Linden.

It was just about at the time of the third album's release that Immediate finally declared bankruptcy. Fortunately, Stratton-Smith had already started positioning the group to break away from Immediate at the first opportunity, which the bankruptcy provided. Additionally, the Nice had moved into wholly new artistic territory in 1969, rising to an odd plateau of success, when they received an actual commission – a formal, classical-type commission, and a first for a rock band – to deliver a work for rock group and orchestra to the Newcastle Arts Festival, a highly prestigious affair scheduled for the fall of that year. They rose to the occasion with "The Five Bridges Suite," which was performed at the Newcastle festival and later recorded at Croydon. Between that piece, some of the live recordings being generated, and some shorter studio works that were in various stages of completion, the Nice suddenly had a little breathing room in the form of two complete LPs' worth of high-quality material coalescing around their work. The Five Bridges, released on Stratton-Smith's new Charisma label in England and on Mercury in America, would become the group's biggest seller to date.

By that time, however, Emerson felt the group had gone about as far as it was ever going to musically, especially given the limitations he'd always found on the vocal side; Jackson was a limited singer and Emerson scarcely one at all (that's him singing lead on "Happy Freuds" from their second album). In late 1969, he'd crossed paths with newer band called King Crimson when the two shared a bill at the Fillmore West, and was impressed by their lead vocalist/bassist, Greg Lake; he also discovered, in turn, that Lake had been growing increasingly unhappy as a member of Crimson. He subsequently contacted Emerson and agreed to join up with him – thus, Emerson was already set to leave the band by the end of that winter, though the decision wasn't announced publicly until the spring. Meanwhile, the Nice soldiered on, playing some amazing shows that were captured on tape, and generating the Five Bridges album. Stratton-Smith followed it up after Emerson's split with the group by putting together Elegy, a compilation of live and studio performances from the band's late-era work that was a killer showcase for Emerson's playing. Both were released in America by Mercury Records and did reasonably well. In 1973, Stratton-Smith issued a third LP, known variously as Autumn to Spring or Autumn 1967/Spring 1968, consisting of alternate takes and mixes of songs from the group's first two LPs on Immediate.

In the decades since, thanks to Emerson's fame as a member of Emerson, Lake & Palmer and the Immediate bankruptcy, which placed its library in the hands of a succession of receivers who knew or cared little about music – and the intentions of well-meaning producers who did care about the music – the music on the Nice's three Immediate LPs turned up in various forms on vinyl and CD. The current reissues, in the 21st century, are the best representation that this end of the group's history has ever had on record. Jackson and Davison went on to various projects that never succeeded, and in 1973 tried to get a second bite of the apple by forming Refugee with keyboard player Patrick Moraz, but there was little interest in their sound or records, despite some fine music coming from them. By the end of the 1970s, with a change in public taste, even ELP had overstayed their welcome, and came to a halt. In 1999, as a one-off event on a personal occasion, Emerson, Jackson, and Davison played together for the first time in 29 years, and a live reunion album was released; Davison's death in 2008 put any further reunions out of reach. In the summer of 2009, Virgin/EMI, which controls the Charisma library, released a fresh round of upgrades and expansions of the group's 1969-1970 material, and also the double CD Fillmore East, made from long-lost tapes of their December 1969 shows at the latter venue.

– allmusic.com biography by Bruce Eder


The Nice - Japanese SHM-CD Reissue (2011) [4 Albums] RE-UP

The Nice - Five Bridges (1970)
EAC-FLAC with CUE & LOG - 382 MB | Full Scans - 135 MB | MP3 CBR 320 Kbps - 157 MB
Label: Virgin Japan | 68:24 min | Cat. # VJCP-98001

Five Bridges is a delectable representation of early-'70s progressive rock. Its makeup contains all of the elements needed to complete a solid prog album: a heavy intermingling of synthesizer and electric guitar, strong punctuation of both bass and drums, a central concept, and the fusing of rock and classical music, which in this case employs the Sinfonia of London. The eight tracks, centered around Newcastle's urban structure and life in a blue collar society, are as colorful as they are intricate. "Intermezzo" from Sibelius' Karelia Suite, and Tchaikovsky's "Pathetique" are marvelous examples of classical and rock commingling, with the spotlight focused on Keith Emerson's keyboard virtuosity. The second movement from Fantasia is a sparkling model of improvisational use containing various rock & roll rhythms and time structures, while the third track entitled "High Level Fugue 4th Bridge," was inspired by Guida's "Prelude and Fugue" and incorporates assorted jazz techniques and boogie-woogie styles into a classical recipe. "Country Pie/Brandenburg Concerto, No. 6" unites Dylan with Bach for a most extraordinary illustration of instrumental creativity. Each example of genre merging is pristine and fluid, making the actual overlapping of multiple styles completely transparent. Five Bridges may rank just a tad below The Thoughts of Emerlist Davjack or Ars Longa Vita Brevis on the patience scale, but it does demonstrate how Emerson's work with ELP came into fruition.

– Mike DeGagne, allmusic com

Tracklist:

01. Fantasia: 1st Bridge / 2nd Bridge
02. Chorale: 3rd Bridge
03. High Level Fugue: 4th Bridge
04. Finale: 5th Bridge
05. Intermezzo: 'Karelia Suite'
06. Pathetique (Symphony No. 6, 3rd Movement)
07. Country Pie / Brandenburg Concerto No. 6
08. One Of Those People
09. Fairfield Hall Finale: Lieutenant Kijé / Rondo / She Belongs To Me [Bonus track]
10. Country Pie (Studio Overdubbed Version) [Bonus track]
11. Excerpts From The Five Bridges Suite [Bonus track]

Exact Audio Copy V1.0 beta 2 from 29. April 2011

EAC extraction logfile from 27. September 2011, 20:50

The Nice / Five Bridges

Used drive : HL-DT-STDVDRAM GSA-H60N Adapter: 2 ID: 0

Read mode : Secure
Utilize accurate stream : Yes
Defeat audio cache : Yes
Make use of C2 pointers : No

Read offset correction : 667
Overread into Lead-In and Lead-Out : No
Fill up missing offset samples with silence : Yes
Delete leading and trailing silent blocks : No
Null samples used in CRC calculations : Yes
Used interface : Native Win32 interface for Win NT & 2000

Used output format : Internal WAV Routines
Sample format : 44.100 Hz; 16 Bit; Stereo


TOC of the extracted CD

Track | Start | Length | Start sector | End sector
––––––––––––––––––––––––––––-
1 | 0:00.00 | 2:41.21 | 0 | 12095
2 | 2:41.21 | 3:25.26 | 12096 | 27496
3 | 6:06.47 | 4:01.36 | 27497 | 45607
4 | 10:08.08 | 8:02.52 | 45608 | 81809
5 | 18:10.60 | 9:01.74 | 81810 | 122458
6 | 27:12.59 | 9:29.61 | 122459 | 165194
7 | 36:42.45 | 5:42.50 | 165195 | 190894
8 | 42:25.20 | 3:14.57 | 190895 | 205501
9 | 45:40.02 | 9:08.67 | 205502 | 246668
10 | 54:48.69 | 5:42.74 | 246669 | 272392
11 | 60:31.68 | 7:51.68 | 272393 | 307785


Range status and errors

Selected range

Filename C:\Documents and Settings\Admin\Рабочий стол\Lossless Rip by ALLexxess\The Nice\1970 Five Bridges (EMI Music Japan Mini LP SHM-CD 2010)\The Nice - Five Bridges.wav

Peak level 98.8 %
Extraction speed 6.3 X
Range quality 100.0 %
Test CRC C53CB113
Copy CRC C53CB113
Copy OK

No errors occurred


AccurateRip summary

Track 1 accurately ripped (confidence 3) [9C039331] (AR v1)
Track 2 accurately ripped (confidence 3) [8911CD9F] (AR v1)
Track 3 accurately ripped (confidence 3) [FD36B8A9] (AR v1)
Track 4 accurately ripped (confidence 3) [547217BD] (AR v1)
Track 5 accurately ripped (confidence 3) [73051A28] (AR v1)
Track 6 accurately ripped (confidence 3) [5FDD9DEF] (AR v1)
Track 7 accurately ripped (confidence 3) [8F554E89] (AR v1)
Track 8 accurately ripped (confidence 3) [7E84CA50] (AR v1)
Track 9 accurately ripped (confidence 3) [9592450A] (AR v1)
Track 10 accurately ripped (confidence 3) [A836BACD] (AR v1)
Track 11 accurately ripped (confidence 3) [82D72076] (AR v1)

All tracks accurately ripped

End of status report

==== Log checksum 6B155B5B5ED3D9D4B57560B671BB25241AFC4F5E161F4307C9C61416055E5D23 ====


––––––––––––––––––––––––––––––––––––––––––––––––-

The Nice - Japanese SHM-CD Reissue (2011) [4 Albums] RE-UP

The Nice - Elegy (1971)
EAC-FLAC with CUE & LOG - 265 MB | Full Scans - 116 MB | MP3 CBR 320 Kbps - 118 MB
Label: Virgin Japan | 51:21 min | Cat. # VJCP-98002

Comprised of songs cut during the final 13 months of the Nice's existence, Elegy is a must-own title for fans of Keith Emerson, offering his best live performance on piano ("Hang On to a Dream") ever to get a legal release, showcasing his organ playing on unique and beguiling arrangements of Tchaikovsky and Dylan material, and ending with a live version of the Nice's showstopper, "America."

– Bruce Eder, allmusic com

Tracklist:

01. Hang On To A Dream
02. My Back Pages
03. Pathetique (Symphony No. 6, 3rd Movement)
04. America (2nd Amendent)
05. Country Pie (BBC Radio 1's 'Sounds Of The Seventies') [Bonus track]
06. Pathetique (Symphony No. 6, 3rd Movement) (BBC Radio 1's 'Sounds Of The Seventies) [Bonus track]

Exact Audio Copy V1.0 beta 2 from 29. April 2011

EAC extraction logfile from 29. September 2011, 20:12

The Nice / Elegy

Used drive : HL-DT-STDVDRAM GSA-H60N Adapter: 2 ID: 0

Read mode : Secure
Utilize accurate stream : Yes
Defeat audio cache : Yes
Make use of C2 pointers : No

Read offset correction : 667
Overread into Lead-In and Lead-Out : No
Fill up missing offset samples with silence : Yes
Delete leading and trailing silent blocks : No
Null samples used in CRC calculations : Yes
Used interface : Native Win32 interface for Win NT & 2000

Used output format : Internal WAV Routines
Sample format : 44.100 Hz; 16 Bit; Stereo


TOC of the extracted CD

Track | Start | Length | Start sector | End sector
––––––––––––––––––––––––––––-
1 | 0:00.00 | 12:41.32 | 0 | 57106
2 | 12:41.32 | 9:12.17 | 57107 | 98523
3 | 21:53.49 | 7:07.52 | 98524 | 130600
4 | 29:01.26 | 10:22.63 | 130601 | 177313
5 | 39:24.14 | 4:57.71 | 177314 | 199659
6 | 44:22.10 | 6:59.16 | 199660 | 231100


Range status and errors

Selected range

Filename C:\Documents and Settings\Admin\Рабочий стол\Lossless Rip by ALLexxess\The Nice\1971 Elegy (EMI Music Japan Mini LP SHM-CD 2010)\The Nice - Elegy.wav

Peak level 100.0 %
Extraction speed 5.9 X
Range quality 99.9 %
Test CRC 1B9D3DD1
Copy CRC 1B9D3DD1
Copy OK

No errors occurred


AccurateRip summary

Track 1 not present in database
Track 2 not present in database
Track 3 not present in database
Track 4 not present in database
Track 5 not present in database
Track 6 not present in database

None of the tracks are present in the AccurateRip database

End of status report

==== Log checksum 32D9A413D0F247D557C8F6FE0C0A845E0C9356E9E23D37872563A52B09F2F894 ====


––––––––––––––––––––––––––––––––––––––––––––––––-

The Nice - Japanese SHM-CD Reissue (2011) [4 Albums] RE-UP

The Nice - Autumn '67 - Spring '68 (1972)
EAC-FLAC with CUE & LOG - 283 MB | Full Scans - 110 MB | MP3 CBR 320 Kbps - 103 MB
Label: Virgin Japan | 44:40 min | Cat. # VJCP-98003

Tracklist:

01. The Thoughts Of Emerlist Davjack
02. Flower King Of Flies
03. Bonnie K
04. America
05. Diamond Hard Blue Apples Of The Moon
06. Dawn
07. Tantalising Maggie
08. Cry of Eugene
09. Daddy, Where Did I Come From
10. Azrial
11. Diary Of An Empty Day

Exact Audio Copy V1.0 beta 2 from 29. April 2011

EAC extraction logfile from 29. September 2011, 19:24

The Nice / Autumn '67 - Spring '68

Used drive : HL-DT-STDVDRAM GSA-H60N Adapter: 2 ID: 0

Read mode : Secure
Utilize accurate stream : Yes
Defeat audio cache : Yes
Make use of C2 pointers : No

Read offset correction : 667
Overread into Lead-In and Lead-Out : No
Fill up missing offset samples with silence : Yes
Delete leading and trailing silent blocks : No
Null samples used in CRC calculations : Yes
Used interface : Native Win32 interface for Win NT & 2000

Used output format : Internal WAV Routines
Sample format : 44.100 Hz; 16 Bit; Stereo


TOC of the extracted CD

Track | Start | Length | Start sector | End sector
––––––––––––––––––––––––––––-
1 | 0:00.00 | 4:14.53 | 0 | 19102
2 | 4:14.53 | 3:37.34 | 19103 | 35411
3 | 7:52.12 | 3:20.67 | 35412 | 50478
4 | 11:13.04 | 6:07.69 | 50479 | 78072
5 | 17:20.73 | 2:44.72 | 78073 | 90444
6 | 20:05.70 | 5:06.31 | 90445 | 113425
7 | 25:12.26 | 4:21.23 | 113426 | 133023
8 | 29:33.49 | 4:32.13 | 133024 | 153436
9 | 34:05.62 | 2:48.19 | 153437 | 166055
10 | 36:54.06 | 3:47.48 | 166056 | 183128
11 | 40:41.54 | 3:58.39 | 183129 | 201017


Range status and errors

Selected range

Filename C:\Documents and Settings\Admin\Рабочий стол\Lossless Rip by ALLexxess\The Nice\1972 Autumn 1967 - Spring 1968 (EMI Music Japan Mini LP SHM-CD 2010)\The Nice - Autumn '67 - Spring '68.wav

Peak level 100.0 %
Extraction speed 5.7 X
Range quality 99.9 %
Test CRC 21D709EB
Copy CRC 21D709EB
Copy OK

No errors occurred


AccurateRip summary

Track 1 not present in database
Track 2 not present in database
Track 3 not present in database
Track 4 not present in database
Track 5 not present in database
Track 6 not present in database
Track 7 not present in database
Track 8 not present in database
Track 9 not present in database
Track 10 not present in database
Track 11 not present in database

None of the tracks are present in the AccurateRip database

End of status report

==== Log checksum CBB79AA9A526283D69BE56C95B702967A103B14CFCB1128097403BD7DF75D1B3 ====


––––––––––––––––––––––––––––––––––––––––––––––––-

The Nice - Japanese SHM-CD Reissue (2011) [4 Albums] RE-UP

The Nice - Live At The Fillmore East, December 1969 (2009)
EAC-FLAC with CUE & LOG - 565 MB | Full Scans - 106 MB | MP3 CBR 320 Kbps - 215 MB
Double CD | Label: Virgin Japan | 93:52 min | Cat. # VJCP-98004/5

Up until the middle of 2009, the core of the recorded history of the Nice lay rooted in the three albums they cut for Immediate Records between late 1967 and early 1969, augmented by Five Bridges, released during the period following Immediate's bankruptcy, and all of it appended by the posthumous collection Elegy and Autumn 1967/Spring 1968. This double-CD set moves the center of gravity of that legacy forward, toward the group's 15-month post-Immediate history – their manager, Tony Stratton-Smith, wisely recorded a good deal of their live work during this period, and an amazingly high percentage of it has proved worthwhile listening, including these tapes from two shows at the Fillmore East from December 19 and 20, 1969 (shows on which they were billed alongside the Byrds, the Sons of Champlin, and Dion). And what makes the tapes even more astonishing is that these performances date from a period after Keith Emerson had made the decision to abandon the group – but there's no sign of less than 100 percent effort or total cohesion in what is heard on this set. These tapes also demonstrate just how far the group had come since its spring 1969 U.S. tour – whereas the best of the work from their earlier Fillmore shows (released on the group's third Immediate album) shows a band starting to seriously redefine conventional song structures, on this set of performances the Nice are opening out much of their material even further, and scratching it out wide enough to drive a tank through musically – and at times, that's what they come close to doing. Not all of what they attempt works – the more expansive rendition of Bob Dylan's "She Belongs to Me" included here was probably great to see as a performance, but it doesn't hold up as well as the more concise interpretation that it received in the spring 1969 show, and ultimately it's a slight disappointment when compared to that earlier version. Even that track is worth hearing, however, and is different enough so that completists need not feel cheated or abused by having to buy it here.

As for the rest, the trio roars through "Ars Longa Vita Brevis" (complete with a two-plus-minute drum solo from Brian Davison), sandwiched between bracing performances of "Rondo" and "Little Arabella," which is done pretty straight. It was their rendition of Dylan's "Country Pie" from these performances that would eventually find release on the Five Bridges album, but otherwise Stratton-Smith shelved the rest of this body of tapes in favor of Fillmore performances from a year later, on the trio's final U.S. tour, for use on the Elegy collection. Here, listeners get an odd yet worthwhile rendition of "Hang on to a Dream" done on a Hammond organ rather than a piano – the piano version works better, but hearing this rendition will disappoint no one who likes Keith Emerson or the band. There's a riveting performance of "The Five Bridges Suite" as a piece for trio (the work is most familiar from the Newcastle live recording, done with orchestra), plus a romping and playful version of "Intermezzo: Karelia Suite" that leads into a pounding and fierce performance of "America," complete with an interpolation of "The Star Spangled Banner" (plus what sounds like Emerson's attempt to graft part of Holst's Mars, Bringer of War, from The Planets, into the piece – and could that have been his political comment at the time about the United States and Vietnam?). And, as a finale, the trio gives listeners an improved updating of the early Nice composition "War and Peace." This set will obviously be a must-own release for fans of Emerson or the band, and the producers have spared little to make it worthwhile in terms of packaging – the fidelity throughout ranges from very good to excellent, and the annotation is extremely thorough as well.

– Bruce Eder, allmusic com

Tracklist:

CD1:
01. Rondo
02. Ars Longa Vita Brevis
03. Little Arabella
04. She Belongs To Me

CD2:
01. Country Pie
02. Five Bridges Suite
03. Hang On To A Dream
04. Intermezzo- Karelia Suite
05. America
06. War And Peace

Exact Audio Copy V1.0 beta 2 from 29. April 2011

EAC extraction logfile from 28. September 2011, 21:46

The Nice / Live At The Fillmore East December 1969 CD1

Used drive : HL-DT-STDVDRAM GSA-H60N Adapter: 2 ID: 0

Read mode : Secure
Utilize accurate stream : Yes
Defeat audio cache : Yes
Make use of C2 pointers : No

Read offset correction : 667
Overread into Lead-In and Lead-Out : No
Fill up missing offset samples with silence : Yes
Delete leading and trailing silent blocks : No
Null samples used in CRC calculations : Yes
Used interface : Native Win32 interface for Win NT & 2000

Used output format : Internal WAV Routines
Sample format : 44.100 Hz; 16 Bit; Stereo


TOC of the extracted CD

Track | Start | Length | Start sector | End sector
––––––––––––––––––––––––––––-
1 | 0:00.00 | 7:00.64 | 0 | 31563
2 | 7:00.64 | 13:48.16 | 31564 | 93679
3 | 20:49.05 | 6:24.17 | 93680 | 122496
4 | 27:13.22 | 13:18.25 | 122497 | 182371


Range status and errors

Selected range

Filename C:\Documents and Settings\Admin\Рабочий стол\Lossless Rip by ALLexxess\The Nice\2009 Live At The Fillmore East (2 Mini LP SHM-CD Set EMI Music Japan 2010)\CD1\The Nice - Live At The Fillmore East December 1969 CD1.wav

Peak level 98.8 %
Extraction speed 5.7 X
Range quality 100.0 %
Test CRC 34DDA8A0
Copy CRC 34DDA8A0
Copy OK

No errors occurred


AccurateRip summary

Track 1 cannot be verified as accurate (confidence 8) [EB23A345], AccurateRip returned [2A0B35EE] (AR v2)
Track 2 cannot be verified as accurate (confidence 8) [E863F235], AccurateRip returned [E9C6A6C8] (AR v2)
Track 3 cannot be verified as accurate (confidence 8) [468CC4EC], AccurateRip returned [DCCFE57D] (AR v2)
Track 4 cannot be verified as accurate (confidence 8) [24B8C53A], AccurateRip returned [7416789B] (AR v2)

No tracks could be verified as accurate
You may have a different pressing from the one(s) in the database

End of status report

==== Log checksum 352D142A481650CF68C2642287208C7120AA939FE8E0ACDD3BC45A43FF05518F ====

+++++++++++++++++++++++++++++

Exact Audio Copy V1.0 beta 2 from 29. April 2011

EAC extraction logfile from 28. September 2011, 21:17

The Nice / Live At The Fillmore East December 1969 CD2

Used drive : HL-DT-STDVDRAM GSA-H60N Adapter: 2 ID: 0

Read mode : Secure
Utilize accurate stream : Yes
Defeat audio cache : Yes
Make use of C2 pointers : No

Read offset correction : 667
Overread into Lead-In and Lead-Out : No
Fill up missing offset samples with silence : Yes
Delete leading and trailing silent blocks : No
Null samples used in CRC calculations : Yes
Used interface : Native Win32 interface for Win NT & 2000

Used output format : Internal WAV Routines
Sample format : 44.100 Hz; 16 Bit; Stereo


TOC of the extracted CD

Track | Start | Length | Start sector | End sector
––––––––––––––––––––––––––––-
1 | 0:00.00 | 6:14.60 | 0 | 28109
2 | 6:14.60 | 13:53.46 | 28110 | 90630
3 | 20:08.31 | 7:30.16 | 90631 | 124396
4 | 27:38.47 | 12:29.67 | 124397 | 180638
5 | 40:08.39 | 7:51.12 | 180639 | 215975
6 | 47:59.51 | 5:20.41 | 215976 | 240016


Range status and errors

Selected range

Filename C:\Documents and Settings\Admin\Рабочий стол\Lossless Rip by ALLexxess\The Nice\2009 Live At The Fillmore East (2 Mini LP SHM-CD Set EMI Music Japan 2010)\CD2\The Nice - Live At The Fillmore East December 1969 CD2.wav

Peak level 98.8 %
Extraction speed 6.0 X
Range quality 100.0 %
Test CRC 7D6C0867
Copy CRC 7D6C0867
Copy OK

No errors occurred


AccurateRip summary

Track 1 cannot be verified as accurate (confidence 8) [3A22973B], AccurateRip returned [67E364AF] (AR v2)
Track 2 cannot be verified as accurate (confidence 8) [959BAFC0], AccurateRip returned [EC25A03A] (AR v2)
Track 3 cannot be verified as accurate (confidence 8) [38A84CA8], AccurateRip returned [4D8E928B] (AR v2)
Track 4 cannot be verified as accurate (confidence 8) [5B9DE3B0], AccurateRip returned [0BD3D398] (AR v2)
Track 5 cannot be verified as accurate (confidence 7) [B60D08B5], AccurateRip returned [7809C163] (AR v2)
Track 6 cannot be verified as accurate (confidence 8) [E2913411], AccurateRip returned [C120C380] (AR v2)

No tracks could be verified as accurate
You may have a different pressing from the one(s) in the database

End of status report

==== Log checksum 2F4E431C2513662059EE5E604B0EE9F19AE50D52220107F82A56554876249C82 ====


Dynamic Range(s): 9 / 8 / 7 / 9 / 9.
all thanks goes to ALLexxess!
Five Bridges (1970)
FLAC lossless | Scans | MP3 320

Elegy (1971)
FLAC lossless | Scans | MP3 320

Autumn'67-Spring'68 (1972)
FLAC lossless | Scans | MP3 320

Live At The Fillmore East, December 69 (2009)
FLAC lossless | Scans | MP3 320

Five Bridges (1970)
FLAC lossless | Scans | MP3 320

Elegy (1971)
FLAC lossless | Scans | MP3 320

Autumn'67-Spring'68 (1972)
FLAC lossless | Scans | MP3 320

Live At The Fillmore East, December 69 (2009)
FLAC lossless | Scans | MP3 320