Subcategories

The Pineapple Thief - Abducted At Birth (1999) [Reissue 2017]

Posted By: gribovar
The Pineapple Thief - Abducted At Birth (1999) [Reissue 2017]

The Pineapple Thief - Abducted At Birth (1999) [Reissue 2017]
EAC Rip | FLAC (image+.cue+log) - 420 MB | MP3 CBR 320 kbps (LAME 3.93) - 163 MB | Covers - 29 MB
Genre: Progressive Rock | RAR 3% Rec. | Label: Kscope (KSCOPE293), Remastered

The Pineapple Thief’s 1999 debut album given a 2017 Kscope label reissue under its original name, Abducted At Birth. When the album was first released, the name was changed to Abducting The Unicorn by the label, Cyclops Records, in order to create a connection with the previous band headed by TPT's frontman Bruce Soord - Vulgar Unicorn. Featuring strong melodies and powerful choruses, this early post-Progressive album offers a gripping insight in to Soord's songwriting talent and the birth of one of the UK's leading Progressive bands. Remastered by TPT keyboardist Steve Kitch and available as a CD in digipak with 4-page booklet. The cover and booklet art has been completely updated, using fan submitted photography to explore the theme of Abducted At Birth, to startling effect.

Tracklist:
01. Private Paradise
02. Drain
03. Whatever You Do, Do Nothing
04. No One Leaves This Earth
05. Punish Yourself
06. Everyone Must Perish
07. Judge the Girl
08. Parted Forever
09. Mysterious Extra Track

Total time: 01:09:17

Exact Audio Copy V1.3 from 2. September 2016

EAC extraction logfile from 11. March 2018, 20:13

The Pineapple Thief / Abducted At Birth

Used drive : HL-DT-STDVD+-RW GH50N Adapter: 0 ID: 0

Read mode : Secure
Utilize accurate stream : Yes
Defeat audio cache : Yes
Make use of C2 pointers : No

Read offset correction : 667
Overread into Lead-In and Lead-Out : No
Fill up missing offset samples with silence : Yes
Delete leading and trailing silent blocks : No
Null samples used in CRC calculations : Yes
Used interface : Installed external ASPI interface

Used output format : User Defined Encoder
Selected bitrate : 1024 kBit/s
Quality : High
Add ID3 tag : No
Command line compressor : C:\Program Files\Exact Audio Copy\FLAC\FLAC.EXE
Additional command line options : -5 %source%


TOC of the extracted CD

Track | Start | Length | Start sector | End sector
––––––––––––––––––––––––––––-
1 | 0:00.00 | 11:48.25 | 0 | 53124
2 | 11:48.25 | 6:35.53 | 53125 | 82802
3 | 18:24.03 | 6:20.45 | 82803 | 111347
4 | 24:44.48 | 5:54.08 | 111348 | 137905
5 | 30:38.56 | 4:26.51 | 137906 | 157906
6 | 35:05.32 | 4:38.02 | 157907 | 178758
7 | 39:43.34 | 6:12.33 | 178759 | 206691
8 | 45:55.67 | 19:00.02 | 206692 | 292193
9 | 64:55.69 | 4:20.63 | 292194 | 311756


Range status and errors

Selected range

Filename C:\users\Public\Music\The Pineapple Thief - Abducted At Birth.wav

Peak level 97.5 %
Extraction speed 3.3 X
Range quality 100.0 %
Test CRC 052F4CAD
Copy CRC 052F4CAD
Copy OK

No errors occurred


AccurateRip summary

Track 1 accurately ripped (confidence 6) [9773A1A2] (AR v2)
Track 2 accurately ripped (confidence 6) [EA36DDD7] (AR v2)
Track 3 accurately ripped (confidence 6) [F9D99A10] (AR v2)
Track 4 accurately ripped (confidence 6) [8BD0C9DE] (AR v2)
Track 5 accurately ripped (confidence 6) [331F63FA] (AR v2)
Track 6 accurately ripped (confidence 6) [E19AC386] (AR v2)
Track 7 accurately ripped (confidence 6) [9107B67A] (AR v2)
Track 8 accurately ripped (confidence 6) [E1FF9184] (AR v2)
Track 9 accurately ripped (confidence 6) [6027B48F] (AR v2)

All tracks accurately ripped

End of status report

==== Log checksum C084E087605A3C3039A4FAB0E2B9F6FE0759CDC2BE3F59A4B22B1CECC390B109 ====

[CUETools log; Date: 28.03.2018 19:58:53; Version: 2.1.4]
[CTDB TOCID: P0M5yK1dRkU0Sbw8PegQNzVKujs-] found.
Track | CTDB Status
1 | (26/26) Accurately ripped
2 | (26/26) Accurately ripped
3 | (26/26) Accurately ripped
4 | (26/26) Accurately ripped
5 | (26/26) Accurately ripped
6 | (26/26) Accurately ripped
7 | (26/26) Accurately ripped
8 | (26/26) Accurately ripped
9 | (26/26) Accurately ripped
[AccurateRip ID: 0017624b-00a93525-7e103c09] found.
Track [ CRC | V2 ] Status
01 [42c3e84c|9773a1a2] (0+6/6) Accurately ripped
02 [8a4874a6|ea36ddd7] (0+6/6) Accurately ripped
03 [f0b9dd68|f9d99a10] (0+6/6) Accurately ripped
04 [878457e6|8bd0c9de] (0+6/6) Accurately ripped
05 [3b50f377|331f63fa] (0+6/6) Accurately ripped
06 [8bdfb45d|e19ac386] (0+6/6) Accurately ripped
07 [dfa1e4af|9107b67a] (0+6/6) Accurately ripped
08 [7ad28716|e1ff9184] (0+6/6) Accurately ripped
09 [81c86553|6027b48f] (0+6/6) Accurately ripped

Track Peak [ CRC32 ] [W/O NULL] [ LOG ]
– 97,5 [052F4CAD] [9CC82A32] CRC32
01 97,5 [5CFBC90D] [48DA2A0B]
02 97,5 [62957113] [7266BD5A]
03 97,5 [B7C4E1CE] [4F515760]
04 97,5 [3629F73A] [6D5BCF95]
05 97,5 [A2E3CF14] [B9145884]
06 97,5 [430FB64B] [C5F052FB]
07 97,5 [447FDA4D] [D94C18A0]
08 97,5 [A06B4ACC] [4685AB42]
09 90,8 [ACA5BF81] [EE992FA3]

Thanks to Suisse7

See also:
The Pineapple Thief - 3000 Days (2009)
The Pineapple Thief - Someone Here Is Missing (2010) [Reissue 2017]