Tags
Language
Tags

The Purcell Quartet - Johann Sebastian Bach: Early Cantatas, Vol. 1 (2005)

Posted By:
The Purcell Quartet - Johann Sebastian Bach: Early Cantatas, Vol. 1 (2005)

The Purcell Quartet - Johann Sebastian Bach: Early Cantatas, Vol. 1 (2005)
EAC | FLAC | Image (Cue & Log) ~ 351 Mb | Total time: 76:48 | Scans included
Classical | Label: Chandos | CHAN0715 | Recorded: 2002, 2004

Lean and austere, yet deeply felt and profoundly spiritual, the first volume in Chandos' series of recordings of Bach's early Cantatas is a complete success. With one player and one singer per part, these are chamber music-scaled performances: it is quite lean and very austere. But that's fine: the musicians are all superb and the music benefits from their individual attention. Indeed, it gains immensely in intensity when a single musician is responsible for each part. Better yet, the music gains enormously in lyricism when those musicians are of the caliber performing here. The Purcell Quartet is arguably the best Baroque chamber ensemble in England and it is augmented here with equally fine additional players. The singers are all among the best in early music in England and soprano Emma Kirkby has long been among the finest in the world. Together, the singers and players create performances that are not only supremely musical but deeply felt and profoundly spiritual. The sheer terror of Christ lag in Todes Banden is unrelenting and the clear consolation of "Gottes Zeit ist die allerbeste Zeit" is all-suffusing. Chandos' sound is righteous and immediate.
–James Leonard

Performer:
Emma Kirkby, soprano
Michael Chance, counter-tenor
Charles Daniels, tenor
Peter Harvey, bass
The Purcell Quartet

Track List:
Cantata No. 4, "Christ lag in Todes Banden," BWV 4 (BCA 54)
01. 1. Sinfonia
02. 2. Versus 1. Christ lag in Todes Banden. Allegro - Alla breve
03. 3. Versus 2. Den Tod niemand zwingen kunnt
04. 4. Versus 3. Jesus Christus, Gottes Sohn. [Allegro] - Adagio - Allegro
05. 5. Versus 4. Es war ein wunderlicher Krieg
06. 6. Versus 5. Hie ist das rechte Osterlamm
07. 7. Versus 6. So feiren wir das hohe Fest
08. 8. Versus 7. Chorale. Wir essen und leben wohl
Cantata No. 131, "Aus der Tiefen rufe ich, Herr, zu dir," BWV 131 (BC B25)
09. 1. Sinfonia. Aus der Tiefen rufe ich, Herr, zu dir. Lente (Adagio) -
10. Herr, höre meine Stimme. Vivace
11. 2. So du willt, Herr, Sünde zurechnen. Andante
12. 3. Ich harre des Herrn. Adagio - Largo - Adagio
13. 4. Meine Seele wartet auf den Herrn
14. 5. Israel, hoffe auf den Herrn. Adagio - Un poc'allegro - Adagio - Allegro - Adagio
Cantata No. 106, "Gottes Zeit ist die allerbeste Zeit," ("Actus Tragicus"), BWV 106 (BC B18)
15. 1. Sonatina. Molto adagio
16. 2a. Gottes Zeit ist die allerbeste Zeit. [] - Allegro - Adagio assai -
17. 2b. Ach, Herr, lehre uns bedenken. Lento -
18. 2c. Bestelle dein Haus. Vivace -
19. 2d. Es ist der alte Bund. Andante
20. 3a. In deine Hände befehl ich meinen Geist -
21. 3b. Heute wirst du mit mir im Paradies sein
22. 4. Glorie, Lob, Ehr und Herrlichkeit. [] - Allegro
Cantata No. 196, "Der Herr denket an uns," BWV 196 (BC B11)
23. 1. Sinfonia
24. 2. Der Herr denket an uns und segnet uns
25. 3. Er segnet, die den Herrn fürchten
26. 4. Der Herr segne euch je mehr und mehr
27. 5. Chorus. Ihr seid die Gesegneten des Herrn


Exact Audio Copy V1.3 from 2. September 2016

EAC extraction logfile from 30. May 2019, 18:35

The Purcell Quartet / Bach - The Early Cantatas, Volume 1

Used drive : ATAPI iHES108 2 Adapter: 1 ID: 0

Read mode : Secure
Utilize accurate stream : Yes
Defeat audio cache : Yes
Make use of C2 pointers : No

Read offset correction : 6
Overread into Lead-In and Lead-Out : No
Fill up missing offset samples with silence : Yes
Delete leading and trailing silent blocks : No
Null samples used in CRC calculations : Yes
Used interface : Native Win32 interface for Win NT & 2000

Used output format : User Defined Encoder
Selected bitrate : 768 kBit/s
Quality : High
Add ID3 tag : No
Command line compressor : C:\Program Files (x86)\Exact Audio Copy 1.3\Flac\flac.exe
Additional command line options : -8 -V -T "ARTIST=%artist%" -T "TITLE=%title%" -T "ALBUM=%albumtitle%" -T "DATE=%year%" -T "TRACKNUMBER=%tracknr%" -T "TOTALTRACKS=%numtracks%" -T "GENRE=%genre%" -T "ALBUMARTIST=%albumartist%" -T "ALBUM ARTIST=%albumartist%" -T "COMMENT=EAC Secure Mode, Test & Copy, AccurateRip, FLAC -8" %source%


TOC of the extracted CD

Track | Start | Length | Start sector | End sector
––––––––––––––––––––––––––––-
1 | 0:00.00 | 1:14.63 | 0 | 5612
2 | 1:14.63 | 4:27.25 | 5613 | 25662
3 | 5:42.13 | 4:23.50 | 25663 | 45437
4 | 10:05.63 | 2:01.00 | 45438 | 54512
5 | 12:06.63 | 2:22.35 | 54513 | 65197
6 | 14:29.23 | 3:25.25 | 65198 | 80597
7 | 17:54.48 | 1:37.50 | 80598 | 87922
8 | 19:32.23 | 1:27.65 | 87923 | 94512
9 | 21:00.13 | 2:31.35 | 94513 | 105872
10 | 23:31.48 | 1:46.55 | 105873 | 113877
11 | 25:18.28 | 4:33.35 | 113878 | 134387
12 | 29:51.63 | 3:21.50 | 134388 | 149512
13 | 33:13.38 | 7:22.00 | 149513 | 182662
14 | 40:35.38 | 4:00.00 | 182663 | 200662
15 | 44:35.38 | 2:42.60 | 200663 | 212872
16 | 47:18.23 | 1:44.30 | 212873 | 220702
17 | 49:02.53 | 2:06.35 | 220703 | 230187
18 | 51:09.13 | 1:10.05 | 230188 | 235442
19 | 52:19.18 | 3:48.45 | 235443 | 252587
20 | 56:07.63 | 2:08.65 | 252588 | 262252
21 | 58:16.53 | 3:48.60 | 262253 | 279412
22 | 62:05.38 | 2:57.25 | 279413 | 292712
23 | 65:02.63 | 1:44.00 | 292713 | 300512
24 | 66:46.63 | 2:06.00 | 300513 | 309962
25 | 68:52.63 | 2:21.50 | 309963 | 320587
26 | 71:14.38 | 2:38.00 | 320588 | 332437
27 | 73:52.38 | 2:54.37 | 332438 | 345524


Range status and errors

Selected range

Filename C:\The Purcell Quartet - Bach - The Early Cantatas, Volume 1.wav

Peak level 93.7 %
Extraction speed 8.1 X
Range quality 100.0 %
Test CRC 5E1EDB04
Copy CRC 5E1EDB04
Copy OK

No errors occurred


AccurateRip summary

Track 1 accurately ripped (confidence 5) [385136E5] (AR v2)
Track 2 accurately ripped (confidence 5) [8B1568B3] (AR v2)
Track 3 accurately ripped (confidence 5) [2DB64763] (AR v2)
Track 4 accurately ripped (confidence 5) [B8C5D585] (AR v2)
Track 5 accurately ripped (confidence 5) [26D125EB] (AR v2)
Track 6 accurately ripped (confidence 4) [0A38A837] (AR v2)
Track 7 accurately ripped (confidence 5) [1A6B257C] (AR v2)
Track 8 accurately ripped (confidence 5) [6CE9B5FD] (AR v2)
Track 9 accurately ripped (confidence 5) [AB503313] (AR v2)
Track 10 accurately ripped (confidence 5) [347B9F61] (AR v2)
Track 11 accurately ripped (confidence 5) [73D2A7C9] (AR v2)
Track 12 accurately ripped (confidence 5) [AC2A9A79] (AR v2)
Track 13 accurately ripped (confidence 5) [8F8FDC9B] (AR v2)
Track 14 accurately ripped (confidence 5) [194D6A76] (AR v2)
Track 15 accurately ripped (confidence 5) [6EB8E035] (AR v2)
Track 16 accurately ripped (confidence 5) [16C69ED6] (AR v2)
Track 17 accurately ripped (confidence 5) [C190E851] (AR v2)
Track 18 accurately ripped (confidence 5) [CF484BD3] (AR v2)
Track 19 accurately ripped (confidence 5) [F7BD58A6] (AR v2)
Track 20 accurately ripped (confidence 5) [C0D4A5B4] (AR v2)
Track 21 accurately ripped (confidence 5) [0CC4E1A1] (AR v2)
Track 22 accurately ripped (confidence 5) [09487A73] (AR v2)
Track 23 accurately ripped (confidence 5) [850F45E1] (AR v2)
Track 24 accurately ripped (confidence 5) [A4513FD7] (AR v2)
Track 25 accurately ripped (confidence 5) [D013E99E] (AR v2)
Track 26 accurately ripped (confidence 5) [F1A1EE56] (AR v2)
Track 27 accurately ripped (confidence 5) [8F27FF93] (AR v2)

All tracks accurately ripped

End of status report

–– CUETools DB Plugin V2.1.6

[CTDB TOCID: EeNf8be0ODd2Ga34a4299Dmksw8-] found
Submit result: EeNf8be0ODd2Ga34a4299Dmksw8- has been confirmed
Track | CTDB Status
1 | (7/7) Accurately ripped
2 | (7/7) Accurately ripped
3 | (7/7) Accurately ripped
4 | (7/7) Accurately ripped
5 | (7/7) Accurately ripped
6 | (7/7) Accurately ripped
7 | (7/7) Accurately ripped
8 | (7/7) Accurately ripped
9 | (7/7) Accurately ripped
10 | (7/7) Accurately ripped
11 | (7/7) Accurately ripped
12 | (7/7) Accurately ripped
13 | (7/7) Accurately ripped
14 | (7/7) Accurately ripped
15 | (7/7) Accurately ripped
16 | (7/7) Accurately ripped
17 | (7/7) Accurately ripped
18 | (7/7) Accurately ripped
19 | (7/7) Accurately ripped
20 | (7/7) Accurately ripped
21 | (7/7) Accurately ripped
22 | (7/7) Accurately ripped
23 | (7/7) Accurately ripped
24 | (7/7) Accurately ripped
25 | (7/7) Accurately ripped
26 | (7/7) Accurately ripped
27 | (7/7) Accurately ripped


==== Log checksum 1E113A0DB7754D19D82AB94A119FA3EE82DEFAB47A2C8E103376E93DB4D2863E ====

The Purcell Quartet - Johann Sebastian Bach: Early Cantatas, Vol. 1 (2005)

Thanks to the original releaser