Subcategories

Thibault Noally, Les Accents - Venezia 1700: Tartini, Bonporti, Caldara, Dall’Abaco, Vivaldi, Albinoni (2016)

Posted By: ArlegZ
Thibault Noally, Les Accents  - Venezia 1700: Tartini, Bonporti, Caldara, Dall’Abaco, Vivaldi, Albinoni (2016)

Thibault Noally, Les Accents - Venezia 1700: Tartini, Bonporti, Caldara, Dall’Abaco, Vivaldi, Albinoni (2016)
EAC | FLAC | Image (Cue & Log) ~ 400 Mb | Total time: 68:38 | Scans included
Classical | Label: Aparté | # AP 128 | Recorded: 2015

Thibault Noally and Les Accents present a celebration of the Venetian Sonata. The term sonata was first coined at the end of the 16th century by Giovanni Croce and Andrea Gabrieli but it was Tartini, born and active in the Venetian Republic, who created some 200 sonatas for violin, the largest body of work in the form, followed by Vivaldi with 80. If Vivaldi borrowed from all an sundry [Caldara, Corelli, Matteis, Bonporti, Albinoni] then others were quick to borrow from him too and the Venetian sonata spread through competing musicians to Germany, via Pisendel and the Dresden court; France with Leclair and Guignone; and Russia with the Venetians Madonis and Dall'Oglio. Thibault Noally is a recognised name on the international baroque stage. He best-known as the solo violin of Les Musiciens du Louvre-Grenoble with Marc Minkowski, with the Concerto Köln, Pulcinella or the Ensemble Matheus.

Performer:
Thibault Noally, violon
Les Accents

Track List:
Giuseppe Torelli (1658-1709)
Sonata in E minor for Violin and Continuo GieT 60
01. Adagio - Largo - Adagio - Allegro - Allegro
02. No indication - no indication - Largo - Allegro
Francesco Antonio Bonporti (1672-1749)
Invenzione in C minor for violin and continuo op. 10 n° 6
03. Lamentevole
04. Balletto - Allegro
05. Aria - Comodo assai
06. Fantasia - Allegro non presto
Antonio Caldara (1670-1736)
07. Ciaccona in B-flat major for 2 violins and continuo op. 2 n° 12
Evaristo Felice Dall’Abaco (1675-1742)
Sonata in G minor for violin and continuo op. 4 n° 12
08. Largo
09. Presto e spiccato
10. Passagaglio - Un poco vivace
11. Giga - Allegro assai
Antonio Vivaldi (1678-1741)
Sonata in B-flat major for violin and continuo RV 759
12. Preludio - Largo
13. Allemanda - Allegro
14. Sarabanda - Largo
15. Corrente - Allegro
Antonio Caldara (1670-1736)
Sonata in C minor for 2 violins and continuo op. 2 n° 7
16. Preludio - Largo
17. Allemanda - Andante
18. Corrente - Allegro
19. Tempo di Sarabanda - Non tanto allegro
Tomaso Albinoni (1671-1751)
Sonata in G minor for violin and continuo op. 4 n° 5
20. Adagio
21. Allegro
22. Adagio
23. Presto
Antonio Vivaldi (1678-1741)
24. Sonata in D minor for 2 violins and continuo "La Follia" op. 1 n° 12


Exact Audio Copy V1.3 from 2. September 2016

EAC extraction logfile from 16. February 2020, 12:43

Thibault Noally / Venezia 1700 (Les Accents)

Used drive : hp DVD-RAM GH82N Adapter: 1 ID: 0

Read mode : Secure
Utilize accurate stream : Yes
Defeat audio cache : Yes
Make use of C2 pointers : No

Read offset correction : 667
Overread into Lead-In and Lead-Out : No
Fill up missing offset samples with silence : Yes
Delete leading and trailing silent blocks : No
Null samples used in CRC calculations : Yes
Used interface : Native Win32 interface for Win NT & 2000

Used output format : User Defined Encoder
Selected bitrate : 1024 kBit/s
Quality : High
Add ID3 tag : No
Command line compressor : C:\Program Files (x86)\Exact Audio Copy\FLAC\FLAC.EXE
Additional command line options : -6 -V -T "ARTIST=%artist%" -T "TITLE=%title%" -T "ALBUM=%albumtitle%" -T "DATE=%year%" -T "TRACKNUMBER=%tracknr%" -T "GENRE=%genre%" -T "COMMENT=%comment%" -T "BAND=%albuminterpret%" -T "ALBUMARTIST=%albuminterpret%" -T "COMPOSER=%composer%" %haslyrics%–tag-from-file=LYRICS="%lyricsfile%"%haslyrics% -T "DISCNUMBER=%cdnumber%" -T "TOTALDISCS=%totalcds%" -T "TOTALTRACKS=%numtracks%" %hascover%–picture="%coverfile%"%hascover% %source% -o %dest%


TOC of the extracted CD

Track | Start | Length | Start sector | End sector
––––––––––––––––––––––––––––-
1 | 0:00.00 | 3:47.52 | 0 | 17076
2 | 3:47.52 | 3:29.43 | 17077 | 32794
3 | 7:17.20 | 1:55.59 | 32795 | 41478
4 | 9:13.04 | 2:04.44 | 41479 | 50822
5 | 11:17.48 | 1:38.03 | 50823 | 58175
6 | 12:55.51 | 2:25.24 | 58176 | 69074
7 | 15:21.00 | 4:22.73 | 69075 | 88797
8 | 19:43.73 | 1:46.54 | 88798 | 96801
9 | 21:30.52 | 0:58.55 | 96802 | 101206
10 | 22:29.32 | 3:43.72 | 101207 | 118003
11 | 26:13.29 | 2:05.13 | 118004 | 127391
12 | 28:18.42 | 3:04.19 | 127392 | 141210
13 | 31:22.61 | 3:21.28 | 141211 | 156313
14 | 34:44.14 | 3:18.04 | 156314 | 171167
15 | 38:02.18 | 3:31.66 | 171168 | 187058
16 | 41:34.09 | 1:20.24 | 187059 | 193082
17 | 42:54.33 | 2:10.40 | 193083 | 202872
18 | 45:04.73 | 1:37.17 | 202873 | 210164
19 | 46:42.15 | 1:28.51 | 210165 | 216815
20 | 48:10.66 | 2:50.21 | 216816 | 229586
21 | 51:01.12 | 3:00.52 | 229587 | 243138
22 | 54:01.64 | 2:18.39 | 243139 | 253527
23 | 56:20.28 | 2:37.62 | 253528 | 265364
24 | 58:58.15 | 9:40.13 | 265365 | 308877


Range status and errors

Selected range

Filename C:\rips\Thibault Noally - Venezia 1700 (Les Accents).wav

Peak level 99.5 %
Extraction speed 3.3 X
Range quality 100.0 %
Test CRC 4FEAB980
Copy CRC 4FEAB980
Copy OK

No errors occurred


AccurateRip summary

Track 1 accurately ripped (confidence 2) [0218B487] (AR v2)
Track 2 accurately ripped (confidence 2) [FCF8BB8C] (AR v2)
Track 3 accurately ripped (confidence 2) [0EB8E272] (AR v2)
Track 4 accurately ripped (confidence 2) [AE3DFE36] (AR v2)
Track 5 accurately ripped (confidence 2) [6F2C1767] (AR v2)
Track 6 accurately ripped (confidence 2) [E58E58EF] (AR v2)
Track 7 accurately ripped (confidence 2) [4918DCE2] (AR v2)
Track 8 accurately ripped (confidence 2) [59EA37B3] (AR v2)
Track 9 accurately ripped (confidence 2) [87A5E7BA] (AR v2)
Track 10 accurately ripped (confidence 2) [54BDC432] (AR v2)
Track 11 accurately ripped (confidence 2) [757FEFE8] (AR v2)
Track 12 accurately ripped (confidence 2) [F418FA41] (AR v2)
Track 13 accurately ripped (confidence 2) [6E32695E] (AR v2)
Track 14 accurately ripped (confidence 2) [18EDAFBC] (AR v2)
Track 15 accurately ripped (confidence 2) [E6ED355B] (AR v2)
Track 16 accurately ripped (confidence 2) [58FD85A9] (AR v2)
Track 17 accurately ripped (confidence 2) [3DDB0353] (AR v2)
Track 18 accurately ripped (confidence 2) [C5A632DF] (AR v2)
Track 19 accurately ripped (confidence 2) [B70D177D] (AR v2)
Track 20 accurately ripped (confidence 2) [DF91A32E] (AR v2)
Track 21 accurately ripped (confidence 2) [9D0E0C1B] (AR v2)
Track 22 accurately ripped (confidence 2) [79828239] (AR v2)
Track 23 accurately ripped (confidence 2) [EFB1C7F4] (AR v2)
Track 24 accurately ripped (confidence 2) [E8878D01] (AR v2)

All tracks accurately ripped

End of status report

–– CUETools DB Plugin V2.1.6

[CTDB TOCID: nCkyI2b1PUqxN8B5i6wougE_Oqc-] found
Submit result: nCkyI2b1PUqxN8B5i6wougE_Oqc- has been confirmed
Track | CTDB Status
1 | (6/6) Accurately ripped
2 | (6/6) Accurately ripped
3 | (6/6) Accurately ripped
4 | (6/6) Accurately ripped
5 | (6/6) Accurately ripped
6 | (6/6) Accurately ripped
7 | (6/6) Accurately ripped
8 | (6/6) Accurately ripped
9 | (6/6) Accurately ripped
10 | (6/6) Accurately ripped
11 | (6/6) Accurately ripped
12 | (6/6) Accurately ripped
13 | (6/6) Accurately ripped
14 | (6/6) Accurately ripped
15 | (6/6) Accurately ripped
16 | (6/6) Accurately ripped
17 | (6/6) Accurately ripped
18 | (6/6) Accurately ripped
19 | (6/6) Accurately ripped
20 | (6/6) Accurately ripped
21 | (6/6) Accurately ripped
22 | (6/6) Accurately ripped
23 | (6/6) Accurately ripped
24 | (6/6) Accurately ripped


==== Log checksum 9EE63B9BDDEC7620996F4E8F8172DFFC643BD080F7C1D6C6ECE6240B57E431FC ====

Thibault Noally, Les Accents  - Venezia 1700: Tartini, Bonporti, Caldara, Dall’Abaco, Vivaldi, Albinoni (2016)

Thanks to the original releaser