Subcategories
Tags
Language
Tags

Thibaut Garcia, Ben Glassberg, Orchestre National du Capitole de Toulouse - Aranjuez (2020)

Posted By: ArlegZ
Thibaut Garcia, Ben Glassberg, Orchestre National du Capitole de Toulouse - Aranjuez (2020)

Thibaut Garcia, Ben Glassberg, Orchestre National du Capitole de Toulouse - Aranjuez (2020)
EAC | FLAC | Image (Cue & Log) ~ 273 Mb | Total time: 64:02 | Scans included
Classical | Label: Erato | # SDG 716 | Recorded: 2019, 2020

Expressing his own cultural identity, guitarist Thibaut Garcia combines Rodrigo's archetypally Spanish Concierto de Aranjuez with a declaration of l'esprit français: Alexandre Tansman's neoclassical Musique de cour, inspired by the court of Louis XIV. Garcia's heritage is Spanish, but he is French, born in the city of Toulouse, where this album was recorded with the Orchestre National du Capitole de Toulouse and the young British conductor Ben Glassberg. It is completed by four solo pieces by Regino Sáinz de la Maza, the guitarist who gave the premiere of the Concierto de Aranjuez in 1940.

Performer:
Thibaut Garcia guitar
Orchestre National du Capitole de Toulouse (1-3, 8-15)
Ben Glassberg, conductor (1-3, 8-15)

Track List:
Joaquín Rodrigo (1901-1999)
01-03. Concierto de Aranjuez
Regino Sainz de la Maza (1896–1981)
04. Sacrificio No.5 from Music for the film La frontera de Dios
05. Zapateado
06. Rondeña
07. El Vito
Alexandre Tansman (1897–1986)
08-15. Musique de cour pour guitare et orchestre de chambre, d’après Robert de Visée
Robert de Visée (c.1655–1732/33) (transcr. Thibaut Garcia)
16-21. Suite in A minor in Pièces de Théorbe et de Luth


Exact Audio Copy V1.5 from 20. February 2020

EAC extraction logfile from 24. March 2021, 20:43

Thibaut Garcia, Orchestre National du Capitole de Toulouse, Ben Glassberg / Aranjuez

Used drive : ASUS SDRW-08U7M-U Adapter: 1 ID: 0

Read mode : Secure
Utilize accurate stream : Yes
Defeat audio cache : Yes
Make use of C2 pointers : No

Read offset correction : 6
Overread into Lead-In and Lead-Out : No
Fill up missing offset samples with silence : Yes
Delete leading and trailing silent blocks : No
Null samples used in CRC calculations : Yes
Used interface : Native Win32 interface for Win NT & 2000

Used output format : User Defined Encoder
Selected bitrate : 128 kBit/s
Quality : High
Add ID3 tag : No
Command line compressor : C:\Program Files (x86)\Exact Audio Copy\Flac\flac.exe
Additional command line options : -V -8 -T "Date=%year%" -T "Genre=%genre%" %source%


TOC of the extracted CD

Track | Start | Length | Start sector | End sector
––––––––––––––––––––––––––––-
1 | 0:00.00 | 6:02.40 | 0 | 27189
2 | 6:02.40 | 10:40.20 | 27190 | 75209
3 | 16:42.60 | 5:09.71 | 75210 | 98455
4 | 21:52.56 | 3:32.47 | 98456 | 114402
5 | 25:25.28 | 2:48.53 | 114403 | 127055
6 | 28:14.06 | 4:12.29 | 127056 | 145984
7 | 32:26.35 | 1:47.34 | 145985 | 154043
8 | 34:13.69 | 2:48.50 | 154044 | 166693
9 | 37:02.44 | 1:21.10 | 166694 | 172778
10 | 38:23.54 | 3:23.22 | 172779 | 188025
11 | 41:47.01 | 2:13.33 | 188026 | 198033
12 | 44:00.34 | 2:56.13 | 198034 | 211246
13 | 46:56.47 | 1:33.50 | 211247 | 218271
14 | 48:30.22 | 3:31.28 | 218272 | 234124
15 | 52:01.50 | 2:12.47 | 234125 | 244071
16 | 54:14.22 | 1:19.35 | 244072 | 250031
17 | 55:33.57 | 2:07.50 | 250032 | 259606
18 | 57:41.32 | 1:23.31 | 259607 | 265862
19 | 59:04.63 | 2:14.08 | 265863 | 275920
20 | 61:18.71 | 1:22.71 | 275921 | 282141
21 | 62:41.67 | 1:20.01 | 282142 | 288142


Range status and errors

Selected range

Filename C:\temp\Aranjuez - Thibaut Garcia - 2020\Aranjuez.wav

Peak level 99.6 %
Extraction speed 2.0 X
Range quality 99.9 %
Test CRC AF155859
Copy CRC AF155859
Copy OK

No errors occurred


AccurateRip summary

Track 1 accurately ripped (confidence 4) [834C61D0] (AR v2)
Track 2 accurately ripped (confidence 4) [04D6BB0F] (AR v2)
Track 3 accurately ripped (confidence 4) [16B8B806] (AR v2)
Track 4 accurately ripped (confidence 4) [65490B34] (AR v2)
Track 5 accurately ripped (confidence 4) [40325D2E] (AR v2)
Track 6 accurately ripped (confidence 4) [0F8E7097] (AR v2)
Track 7 accurately ripped (confidence 3) [E9CF6E37] (AR v2)
Track 8 accurately ripped (confidence 3) [45C1E9A0] (AR v2)
Track 9 accurately ripped (confidence 3) [9CEBE5D0] (AR v2)
Track 10 accurately ripped (confidence 3) [6B282ABA] (AR v2)
Track 11 accurately ripped (confidence 4) [B7BE0F57] (AR v2)
Track 12 accurately ripped (confidence 4) [B493E1BC] (AR v2)
Track 13 accurately ripped (confidence 4) [751944E7] (AR v2)
Track 14 accurately ripped (confidence 4) [FB5EF1D1] (AR v2)
Track 15 accurately ripped (confidence 4) [21BBFFAA] (AR v2)
Track 16 accurately ripped (confidence 3) [A1521A6B] (AR v2)
Track 17 accurately ripped (confidence 3) [DD4D1129] (AR v2)
Track 18 accurately ripped (confidence 3) [373DCB83] (AR v2)
Track 19 accurately ripped (confidence 3) [B18A3D28] (AR v2)
Track 20 accurately ripped (confidence 3) [D78C2A4D] (AR v2)
Track 21 accurately ripped (confidence 3) [D7EDBD5D] (AR v2)

All tracks accurately ripped

End of status report

==== Log checksum 3ADA4CF83F37CFE89B39333DE2DC704133056304E019D8A8C210DB06DD356866 ====

Thibaut Garcia, Ben Glassberg, Orchestre National du Capitole de Toulouse - Aranjuez (2020)

Thanks to the original releaser